osu file format v14

[General]
AudioFilename: audio.mp3
AudioLeadIn: 0
PreviewTime: 41606
Countdown: 0
SampleSet: Soft
StackLeniency: 0.4
Mode: 0
LetterboxInBreaks: 0
WidescreenStoryboard: 0

[Editor]
DistanceSpacing: 1.2
BeatDivisor: 4
GridSize: 32
TimelineZoom: 2.1

[Metadata]
Title:Recall THE END (Anime ED Version)
TitleUnicode:Recall THE END (Anime ED Version)
Artist:TRUSTRICK
ArtistUnicode:TRUSTRICK
Creator:Anxient
Version:SHSL:Hope
Source:ダンガンロンパ3-The End of 希望ヶ峰学園- 未来編
Tags:Danganronpa 3 Hopes Peak Academy Kibougamine Gakuen Kibou Hen Future Side Arc ailv
BeatmapID:1088204
BeatmapSetID:511989

[Difficulty]
HPDrainRate:6.5
CircleSize:4.5
OverallDifficulty:8
ApproachRate:9.3
SliderMultiplier:1.6
SliderTickRate:1

[Events]
//Background and Video events
0,0,"59117463_p01080.jpg",0,0
//Break Periods
//Storyboard Layer 0 (Background)
//Storyboard Layer 1 (Fail)
//Storyboard Layer 2 (Pass)
//Storyboard Layer 3 (Foreground)
//Storyboard Sound Samples

[TimingPoints]
210,326.26427406199,4,2,1,60,1,0
210,-133.333333333333,4,2,1,70,0,0
5430,-100,4,1,1,70,0,0
8040,327.868852459016,4,1,1,70,1,0
10664,326.086956521739,4,1,1,50,1,0
10990,-133.333333333333,4,2,1,50,0,0
19794,-133.333333333333,4,2,1,50,0,0
21098,-117.647058823529,4,2,1,50,0,0
31535,325.644504748982,4,2,1,60,1,0
31535,-117.647058823529,4,1,1,50,0,0
36094,-100,4,1,1,50,0,0
36735,325.644504748982,4,1,1,60,1,0
39350,326.086956521739,4,1,1,60,1,0
41804,325.644504748982,4,1,1,60,1,0
41804,-90.9090909090909,4,1,1,70,0,1
41967,325.644504748982,4,1,1,80,1,1
42292,-90.9090909090909,4,1,1,80,0,1
50922,324.324324324324,4,1,1,80,1,1
51084,324.324324324324,4,1,1,80,1,1
51246,-90.9090909090909,4,1,1,80,0,1
51732,-90.9090909090909,4,1,1,80,0,0
52219,326.086956521739,4,1,1,80,1,0
52219,-90.9090909090909,4,1,1,70,0,1
52382,326.086956521739,4,1,1,80,1,0
52382,-90.9090909090909,4,1,1,80,0,1
62164,-90.9090909090909,4,1,1,70,0,0
62653,-90.9090909090909,4,1,1,70,0,1
72599,-90.9090909090909,4,1,1,70,0,0
73088,-90.9090909090909,4,1,1,70,0,1
78472,326.26427406199,4,1,1,80,1,1
78472,-90.9090909090909,4,1,1,80,0,1
87281,-90.9090909090909,4,1,1,70,0,0
87444,-90.9090909090909,4,1,1,40,0,0

[Colours]
Combo1 : 128,128,192
Combo2 : 255,55,155
Combo3 : 207,145,232

[HitObjects]
86,39,210,5,4,0:1:0:0:
86,39,373,2,0,L|83:104,1,60.0000022888184,0|8,0:0|0:0,0:0:0:0:
108,237,699,6,0,L|110:177,1,60.0000022888184
109,177,1025,1,0,0:0:0:0:
202,40,1188,6,0,L|195:176,1,120.000004577637,8|0,0:0|0:0,0:0:0:0:
196,159,1678,1,0,0:0:0:0:
311,104,1841,1,8,0:0:0:0:
311,104,2167,6,0,L|370:101,2,60.0000022888184,0|0|0,0:0|0:0|0:0,0:0:0:0:
464,98,2656,1,2,0:0:0:0:
422,238,2820,6,0,L|357:241,1,60.0000022888184,2|0,0:0|0:0,0:0:0:0:
362,240,3146,1,8,0:0:0:0:
308,359,3309,6,0,L|427:353,1,120.000004577637,0|0,0:0|0:0,0:0:0:0:
505,349,3798,2,0,L|507:289,1,60.0000022888184,8|0,0:0|0:0,0:0:0:0:
507,289,4125,1,0,0:0:0:0:
416,118,4288,6,0,L|421:237,1,120.000004577637
310,299,4777,2,0,L|307:358,2,60.0000022888184,0|0|8,0:0|0:0|0:0,0:0:0:0:
202,40,5430,5,8,0:0:0:0:
159,248,5593,1,0,0:0:0:0:
207,169,5756,1,0,0:0:0:0:
87,42,5919,5,8,0:0:0:0:
235,196,6082,1,0,0:0:0:0:
86,189,6245,1,0,0:0:0:0:
328,148,6409,5,8,0:0:0:0:
310,299,6572,1,0,0:0:0:0:
310,299,6735,1,0,0:0:0:0:
339,176,6898,5,8,0:0:0:0:
360,357,7061,1,0,0:0:0:0:
360,357,7224,1,0,0:0:0:0:
350,204,7387,6,0,L|432:208,1,80,8|0,0:0|0:0,0:0:0:0:
235,248,7714,2,0,L|155:252,1,80,8|0,0:0|0:0,0:0:0:0:
147,274,7958,1,0,0:0:0:0:
139,296,8040,6,0,L|136:353,3,40,8|0|0|0,0:0|2:0|2:0|2:0,2:0:0:0:
86,189,8367,2,0,L|83:131,1,40,2|0,0:0|2:0,2:0:0:0:
210,62,8531,6,0,L|207:4,3,40,8|0|0|0,0:0|2:0|2:0|2:0,2:0:0:0:
112,147,8859,2,0,L|114:186,1,40,2|0,0:0|2:0,2:0:0:0:
235,248,9023,5,8,0:0:0:0:
254,246,9105,1,0,0:0:0:0:
274,245,9187,1,0,0:0:0:0:
294,244,9269,1,0,0:0:0:0:
314,243,9351,1,0,0:0:0:0:
439,361,9515,5,8,0:0:0:0:
419,360,9597,1,0,0:0:0:0:
399,359,9679,1,0,0:0:0:0:
379,358,9761,1,0,0:0:0:0:
360,357,9843,1,0,0:0:0:0:
416,118,10007,5,8,0:0:0:0:
314,243,10171,1,0,0:0:0:0:
447,166,10335,5,8,0:0:0:0:
337,300,10499,1,0,0:0:0:0:
446,278,10664,1,2,0:2:0:0:
385,70,10990,6,0,L|305:74,2,60.0000022888184,2|0|0,0:1|0:1|0:1,0:1:0:0:
443,28,11479,2,0,L|502:30,1,60.0000022888184,0|2,0:1|0:1,0:1:0:0:
281,21,11805,6,0,P|258:74|286:127,1,120.000004577637,0|0,0:1|0:1,0:1:0:0:
284,125,12294,1,2,0:1:0:0:
252,190,12457,2,0,L|132:195,1,120.000004577637,0|0,0:1|0:1,0:1:0:0:
95,134,12946,2,0,L|12:129,1,60.0000022888184,2|0,0:1|0:1,0:1:0:0:
95,255,13272,6,0,L|92:314,1,60.0000022888184,0|0,0:1|0:1,0:1:0:0:
91,314,13598,1,2,0:1:0:0:
141,366,13761,2,0,L|260:360,1,120.000004577637,0|0,0:1|0:1,0:1:0:0:
260,359,14250,1,2,0:1:0:0:
375,283,14413,6,0,L|255:288,1,120.000004577637,0|0,0:1|0:1,0:1:0:0:
252,216,14903,2,0,L|249:156,1,60.0000022888184,2|0,0:1|0:1,0:1:0:0:
249,156,15555,1,2,0:1:0:0:
475,329,15881,6,0,L|480:209,1,120.000004577637,4|2,0:1|0:1,0:1:0:0:
430,158,16370,2,0,L|427:98,1,60.0000022888184,0|0,0:1|0:1,0:1:0:0:
487,59,16696,2,0,L|484:-1,1,60.0000022888184,0|2,0:1|0:1,0:1:0:0:
354,9,17022,6,0,L|348:128,1,120.000004577637,0|0,0:1|0:1,0:1:0:0:
348,128,17511,1,2,0:1:0:0:
343,271,17674,2,0,L|283:273,1,60.0000022888184,0|0,0:1|0:1,0:1:0:0:
283,273,18000,1,0,0:1:0:0:
236,219,18163,2,0,L|176:216,1,60.0000022888184,2|0,0:1|0:1,0:1:0:0:
79,360,18490,6,0,L|198:354,1,120.000004577637,4|2,0:1|0:1,0:1:0:0:
198,354,18979,1,0,0:1:0:0:
176,216,19305,5,0,0:1:0:0:
110,245,19468,1,2,0:1:0:0:
167,288,19631,1,0,0:1:0:0:
189,116,19794,6,0,L|186:56,2,60.0000022888184,6|0|2,0:1|0:1|0:1,0:1:0:0:
189,116,20283,1,0,0:1:0:0:
110,245,20772,5,2,0:1:0:0:
256,154,21098,1,4,0:1:0:0:
256,154,21424,6,0,L|323:150,1,68.0000012969971,2|0,0:1|0:1,0:1:0:0:
382,206,21750,2,0,P|389:243|380:286,1,68.0000012969971,0|0,0:1|0:1,0:1:0:0:
384,272,22077,1,2,0:1:0:0:
277,380,22240,6,0,L|283:244,1,136.000002593994,0|0,0:1|0:1,0:1:0:0:
253,86,22729,2,0,L|256:154,1,68.0000012969971,2|0,0:1|0:1,0:1:0:0:
192,293,23055,6,0,L|195:225,1,68.0000012969971,0|0,0:1|0:1,0:1:0:0:
152,163,23381,2,0,L|84:160,1,68.0000012969971,2|0,0:1|0:1,0:1:0:0:
131,5,23707,5,2,0:2:0:0:
131,5,23870,1,2,0:2:0:0:
84,63,24033,2,0,L|16:60,1,68.0000012969971,2|0,0:1|0:1,0:1:0:0:
16,60,24522,5,0,0:1:0:0:
26,210,24685,2,0,L|29:278,1,68.0000012969971,2|0,0:1|0:1,0:1:0:0:
34,352,25011,6,0,L|170:358,1,136.000002593994,0|2,0:1|0:1,0:1:0:0:
169,357,25500,1,0,0:1:0:0:
280,313,25663,2,0,L|283:244,2,68.0000012969971,0|0|2,0:1|0:1|0:1,0:1:0:0:
436,347,26316,6,0,L|430:211,1,136.000002593994,2|2,0:2|0:1,0:1:0:0:
430,211,26805,1,0,0:1:0:0:
399,142,26968,2,0,P|394:99|401:66,1,68.0000012969971,0|0,0:1|0:1,0:1:0:0:
398,74,27294,1,2,0:1:0:0:
358,205,27457,6,0,P|290:205|234:241,1,136.000002593994,0|0,0:1|0:1,0:1:0:0:
234,241,27946,1,2,0:1:0:0:
172,290,28109,2,0,L|169:358,1,68.0000012969971,0|0,0:1|0:1,0:1:0:0:
169,357,28435,5,0,0:0:0:0:
234,241,28598,2,0,L|237:172,1,68.0000012969971,2|0,0:1|0:1,0:1:0:0:
244,14,28924,5,2,0:2:0:0:
398,74,29087,1,2,0:2:0:0:
256,192,29169,12,0,29903,0:1:0:0:
398,74,30229,5,2,0:2:0:0:
244,14,30392,1,2,0:2:0:0:
368,62,30555,5,2,0:2:0:0:
216,128,30718,1,2,0:2:0:0:
64,62,30881,5,2,0:2:0:0:
62,87,30962,1,2,0:2:0:0:
61,112,31044,1,2,0:2:0:0:
60,138,31125,1,2,0:2:0:0:
59,163,31207,1,2,0:2:0:0:
252,374,31535,5,4,0:0:0:0:
168,290,31860,1,0,0:0:0:0:
252,206,32186,1,0,0:0:0:0:
336,290,32511,2,0,L|333:358,1,68.0000012969971
357,368,32756,1,0,0:0:0:0:
382,378,32837,5,4,0:0:0:0:
388,185,33163,1,0,0:0:0:0:
195,179,33488,1,0,0:0:0:0:
189,372,33814,5,0,0:0:0:0:
168,290,33977,1,0,0:0:0:0:
222,68,34140,5,2,0:0:0:0:
195,179,34302,1,0,0:0:0:0:
168,290,34465,5,2,0:0:0:0:
165,153,34628,1,0,0:0:0:0:
162,16,34791,1,2,0:2:0:0:
402,148,35117,5,4,0:0:0:0:
402,148,35605,5,0,0:0:0:0:
195,179,35768,1,8,0:0:0:0:
222,68,35931,1,0,0:0:0:0:
305,233,36094,6,0,L|301:314,1,80
402,148,36419,2,0,L|398:68,1,80,8|0,0:0|0:0,0:0:0:0:
420,306,36735,6,0,L|301:312,1,120,4|0,0:0|0:0,0:0:0:0:
245,358,37060,2,0,L|164:354,1,80,8|0,0:0|0:0,0:0:0:0:
78,218,37386,6,0,L|81:138,1,80
195,179,37712,1,8,0:0:0:0:
52,220,37875,2,0,L|50:259,1,40
165,354,38037,6,0,L|168:274,1,80
221,83,38363,1,8,0:0:0:0:
81,138,38526,1,0,0:0:0:0:
171,0,38689,5,0,0:0:0:0:
311,55,38852,1,0,0:0:0:0:
264,250,39014,2,0,L|261:330,1,80,8|0,0:0|0:0,0:0:0:0:
362,224,39350,5,4,0:0:0:0:
195,179,39513,1,0,0:0:0:0:
352,186,39676,5,8,0:0:0:0:
257,21,39839,1,0,0:3:0:0:
161,186,40002,1,8,0:0:0:0:
195,179,40083,1,0,0:0:0:0:
229,172,40165,1,0,0:0:0:0:
426,131,40328,1,8,0:0:0:0:
364,322,40491,5,4,0:0:0:0:
364,322,40817,5,0,0:0:0:0:
342,148,40980,2,0,L|343:108,1,40,8|0,0:0|0:0,0:0:0:0:
395,15,41143,2,0,L|394:55,1,40
379,235,41306,5,8,0:0:0:0:
196,111,41469,1,8,0:0:0:0:
180,331,41804,6,0,L|4:326,1,176.000005371094,4|0,0:0|0:0,0:0:0:0:
4,205,42292,2,0,L|7:81,1,88.000002685547,10|0,0:0|0:0,0:0:0:0:
166,174,42618,2,0,P|167:231|149:280,1,88.000002685547
158,260,42943,1,10,0:0:0:0:
101,72,43106,5,2,0:0:0:0:
101,72,43269,2,0,L|206:75,1,88.000002685547
246,258,43595,2,0,L|158:260,1,88.000002685547,10|0,0:0|0:0,0:0:0:0:
303,130,43920,5,0,0:0:0:0:
269,352,44083,1,0,0:0:0:0:
246,258,44246,1,10,0:0:0:0:
478,271,44409,6,0,L|319:274,1,132.00000402832,4|0,0:0|2:0,0:0:0:0:
306,215,44734,1,0,0:0:0:0:
415,86,44897,2,0,L|412:173,1,88.000002685547,10|0,0:0|0:0,0:0:0:0:
403,361,45223,5,0,0:0:0:0:
246,258,45386,1,0,0:0:0:0:
412,173,45549,2,0,L|415:86,1,88.000002685547,10|0,0:0|0:0,0:0:0:0:
188,75,45874,6,0,L|190:162,1,88.000002685547
150,346,46200,2,0,P|105:364|45:314,1,132.00000402832,10|0,0:0|2:0,0:0:0:0:
68,244,46526,2,0,P|129:228|173:274,1,132.00000402832,0|0,0:0|2:0,0:0:0:0:
225,328,46851,2,0,L|343:325,1,88.000002685547,10|0,0:0|0:0,0:0:0:0:
335,340,47095,1,0,0:0:0:0:
356,354,47177,6,0,L|351:178,1,176.000005371094,4|10,0:0|0:0,0:0:0:0:
351,178,47665,1,0,0:0:0:0:
491,225,47828,2,0,L|493:312,1,88.000002685547
353,265,48154,2,0,L|351:178,1,88.000002685547,10|0,0:0|0:0,0:0:0:0:
462,79,48479,6,0,L|286:84,1,176.000005371094,0|10,0:0|0:0,0:0:0:0:
286,83,48968,1,0,0:0:0:0:
145,128,49131,2,0,P|140:77|148:37,1,88.000002685547
253,228,49456,2,0,P|259:271|254:314,1,88.000002685547,10|0,0:0|0:0,0:0:0:0:
38,315,49782,6,0,L|196:319,1,132.00000402832,4|0,0:0|2:0,0:0:0:0:
215,378,50108,1,10,0:0:0:0:
229,149,50270,1,0,0:0:0:0:
420,274,50433,5,10,0:0:0:0:
254,314,50596,1,0,0:0:0:0:
268,85,50759,1,0,0:0:0:0:
347,328,50922,5,6,0:0:0:0:
347,328,51246,5,0,0:0:0:0:
420,274,51408,2,0,L|418:187,1,88.000002685547,10|0,0:0|0:0,0:0:0:0:
393,161,51651,1,0,0:0:0:0:
367,135,51732,2,0,L|365:91,1,44.0000013427735,10|0,0:0|0:0,0:0:0:0:
229,149,51894,2,0,L|227:192,1,44.0000013427735,10|0,0:0|0:0,0:0:0:0:
346,285,52056,1,2,0:0:0:0:
347,328,52138,1,0,0:0:0:0:
348,372,52219,6,0,L|172:367,1,176.000005371094,4|0,0:0|0:0,0:0:0:0:
109,229,52707,2,0,P|103:186|108:143,1,88.000002685547,10|0,0:0|0:0,0:0:0:0:
108,141,53033,1,0,0:0:0:0:
79,328,53196,1,0,0:0:0:0:
221,282,53359,1,10,0:0:0:0:
45,339,53522,1,0,0:0:0:0:
92,66,53685,6,0,L|179:64,1,88.000002685547
288,187,54011,2,0,L|201:185,1,88.000002685547,10|0,0:0|0:0,0:0:0:0:
375,110,54338,2,0,P|381:67|376:24,1,88.000002685547
375,22,54664,1,10,0:0:0:0:
396,309,54827,6,0,L|220:304,1,176.000005371094,4|0,0:0|0:0,0:0:0:0:
179,63,55316,2,0,L|266:65,1,88.000002685547,10|0,0:0|0:0,0:0:0:0:
200,184,55642,2,0,L|113:182,1,88.000002685547
220,304,55968,1,10,0:0:0:0:
68,132,56131,1,0,0:0:0:0:
5,353,56294,5,4,0:0:0:0:
75,286,56457,1,0,0:0:0:0:
68,132,56620,2,0,L|66:45,1,88.000002685547,10|0,0:0|0:0,0:0:0:0:
200,184,56946,2,0,L|202:271,1,88.000002685547
195,8,57272,1,10,0:0:0:0:
199,29,57354,1,0,0:0:0:0:
207,49,57435,1,0,0:0:0:0:
219,68,57517,1,0,0:0:0:0:
235,83,57598,6,0,L|411:88,1,176.000005371094,4|10,0:0|0:0,0:0:0:0:
410,87,58088,1,0,0:0:0:0:
311,216,58251,1,0,0:0:0:0:
400,178,58414,1,0,0:0:0:0:
323,3,58577,1,10,0:0:0:0:
323,3,58740,1,0,0:0:0:0:
200,184,58903,6,0,L|202:271,1,88.000002685547,4|0,0:0|0:0,0:0:0:0:
386,365,59229,2,0,L|388:278,1,88.000002685547,10|0,0:0|0:0,0:0:0:0:
204,358,59555,5,0,0:0:0:0:
311,216,59718,1,0,0:0:0:0:
203,315,59881,5,10,0:0:0:0:
269,150,60044,1,0,0:0:0:0:
75,286,60207,5,4,0:0:0:0:
194,20,60533,5,10,0:0:0:0:
269,150,60696,1,0,0:0:0:0:
165,45,60859,5,10,0:0:0:0:
211,218,61022,1,0,0:0:0:0:
38,171,61185,1,10,0:0:0:0:
327,82,61348,2,0,P|355:127|308:235,1,176.000005371094,4|0,0:0|0:0,0:0:0:0:
485,326,61838,2,0,L|487:239,1,88.000002685547,8|0,0:0|0:0,0:0:0:0:
294,312,62164,6,0,L|292:355,1,44.0000013427735,8|0,0:3|0:0,0:0:0:0:
387,321,62327,2,0,L|388:277,1,44.0000013427735,8|0,0:3|0:0,0:0:0:0:
269,150,62490,1,10,0:3:0:0:
225,148,62571,1,0,0:0:0:0:
181,147,62653,6,0,L|176:323,1,176.000005371094,4|0,0:0|0:0,0:0:0:0:
35,258,63143,2,0,L|37:171,1,88.000002685547,10|0,0:0|0:0,0:0:0:0:
102,0,63469,2,0,P|108:59|94:104,1,88.000002685547
20,43,63795,1,10,0:0:0:0:
20,43,63958,1,0,0:0:0:0:
181,147,64121,6,0,L|268:149,1,88.000002685547
392,31,64447,2,0,L|305:29,1,88.000002685547,10|0,0:0|0:0,0:0:0:0:
485,150,64773,2,0,L|487:237,1,88.000002685547
482,62,65099,1,10,0:0:0:0:
488,260,65262,6,0,L|312:255,1,176.000005371094,4|0,0:0|0:0,0:0:0:0:
203,357,65752,2,0,L|290:355,1,88.000002685547,10|0,0:0|0:0,0:0:0:0:
71,358,66078,5,0,0:0:0:0:
37,170,66241,1,0,0:0:0:0:
215,234,66404,1,10,0:0:0:0:
215,234,66567,1,0,0:0:0:0:
180,46,66730,6,0,L|182:133,1,88.000002685547
350,86,67056,6,0,L|353:217,1,132.00000402832,10|0,0:0|2:0,0:0:0:0:
405,272,67382,2,0,P|419:320|359:391,1,132.00000402832,0|0,0:0|2:0,0:0:0:0:
307,355,67708,2,0,L|220:357,1,88.000002685547,10|0,0:0|0:0,0:0:0:0:
218,313,67953,1,0,0:0:0:0:
217,269,68034,6,0,L|35:273,1,176.000005371094,4|10,0:0|0:0,0:0:0:0:
41,273,68523,1,0,0:0:0:0:
41,126,68686,2,0,L|39:39,1,88.000002685547
183,94,69012,2,0,P|187:143|175:186,1,88.000002685547,10|0,0:0|0:0,0:0:0:0:
177,180,69339,5,0,0:0:0:0:
218,313,69502,1,0,0:0:0:0:
304,115,69665,2,0,L|391:113,1,88.000002685547,10|0,0:0|0:0,0:0:0:0:
177,180,69991,5,0,0:0:0:0:
352,233,70154,1,0,0:0:0:0:
219,357,70317,2,0,L|132:359,1,88.000002685547,10|0,0:0|0:0,0:0:0:0:
78,97,70643,6,0,L|165:95,1,88.000002685547,4|0,0:0|0:0,0:0:0:0:
41,273,70969,1,10,0:0:0:0:
41,273,71132,1,0,0:0:0:0:
177,180,71295,5,10,0:0:0:0:
38,38,71458,1,0,0:0:0:0:
109,226,71621,1,10,0:0:0:0:
236,71,71784,1,4,0:0:0:0:
236,71,72110,5,0,0:0:0:0:
307,259,72273,2,0,P|313:306|307:353,1,88.000002685547,10|0,0:0|0:0,0:0:0:0:
390,101,72599,6,0,P|391:80|396:58,1,44.0000013427735,2|0,0:0|0:0,0:0:0:0:
415,185,72762,2,0,P|426:202|441:219,1,44.0000013427735,2|0,0:0|0:0,0:0:0:0:
331,166,72925,2,0,P|310:175|290:181,1,44.0000013427735,2|0,0:0|0:0,0:0:0:0:
78,97,73088,6,0,L|81:272,1,176.000005371094,4|0,0:0|0:0,0:0:0:0:
225,336,73577,2,0,L|227:249,1,88.000002685547,10|0,0:0|0:0,0:0:0:0:
83,359,73903,5,0,0:0:0:0:
267,337,74066,1,0,0:0:0:0:
41,364,74229,1,10,0:0:0:0:
227,248,74392,6,0,L|402:244,1,176.000005371094
466,29,74882,2,0,L|379:31,1,88.000002685547,10|0,0:0|0:0,0:0:0:0:
183,81,75208,5,0,0:0:0:0:
323,226,75371,1,0,0:0:0:0:
378,31,75534,1,10,0:0:0:0:
224,177,75697,6,0,P|223:264|285:329,1,176.000005371094,4|0,0:0|0:0,0:0:0:0:
447,188,76186,2,0,L|449:101,1,88.000002685547,10|0,0:0|0:0,0:0:0:0:
269,20,76512,5,0,0:0:0:0:
323,226,76675,1,0,0:0:0:0:
117,169,76838,1,10,0:0:0:0:
117,169,77001,1,0,0:0:0:0:
171,375,77164,5,4,0:0:0:0:
104,133,77327,1,0,0:0:0:0:
15,305,77490,2,0,L|102:307,1,88.000002685547,10|0,0:0|0:0,0:0:0:0:
323,226,77816,2,0,L|236:228,1,88.000002685547
126,55,78142,1,10,0:0:0:0:
124,76,78224,1,0,0:0:0:0:
126,98,78305,1,0,0:0:0:0:
131,120,78387,1,0,0:0:0:0:
140,140,78472,6,0,L|315:136,1,176.000005371094,4|10,0:0|0:0,0:0:0:0:
316,136,78961,1,0,0:0:0:0:
415,272,79124,2,0,P|422:319|416:374,1,88.000002685547
483,118,79450,1,10,0:0:0:0:
483,118,79613,1,0,0:0:0:0:
338,321,79777,5,4,0:0:0:0:
488,210,79940,1,0,0:0:0:0:
316,136,80103,2,0,L|229:138,1,88.000002685547,10|0,0:0|0:0,0:0:0:0:
228,138,80429,1,0,0:0:0:0:
397,49,80592,1,0,0:0:0:0:
390,238,80755,1,10,0:0:0:0:
399,14,80918,1,0,0:0:0:0:
391,268,81082,6,0,L|216:272,1,176.000005371094,4|10,0:0|0:0,0:0:0:0:
56,135,81571,2,0,P|49:88|55:33,1,88.000002685547
51,47,81897,1,0,0:0:0:0:
240,88,82060,1,10,0:0:0:0:
111,231,82224,1,0,0:0:0:0:
265,61,82387,5,0,0:0:0:0:
207,298,82550,1,0,0:0:0:0:
441,230,82713,2,0,L|439:143,1,88.000002685547,10|0,0:0|0:0,0:0:0:0:
226,222,83039,2,0,L|224:309,1,88.000002685547
339,384,83365,1,10,0:0:0:0:
305,152,83529,1,0,0:0:0:0:
120,297,83692,6,0,P|122:347|141:382,1,88.000002685547,4|0,0:0|0:0,0:0:0:0:
226,222,84018,1,10,0:0:0:0:
139,49,84181,2,0,L|52:47,1,88.000002685547
51,46,84507,1,0,0:0:0:0:
209,122,84671,2,0,L|296:120,1,88.000002685547,10|0,0:0|0:0,0:0:0:0:
28,229,84997,5,0,0:0:0:0:
226,222,85160,1,0,0:0:0:0:
30,265,85323,5,10,0:0:0:0:
139,49,85486,1,0,0:0:0:0:
272,251,85649,2,0,L|270:338,1,88.000002685547
468,242,85976,2,0,L|466:155,1,88.000002685547,10|0,0:0|0:0,0:0:0:0:
437,127,86220,1,0,0:0:0:0:
408,99,86302,5,10,0:0:0:0:
414,384,86465,1,0,0:0:0:0:
299,267,86628,1,0,0:0:0:0:
211,384,86791,5,10,0:0:0:0:
449,313,86954,1,0,0:0:0:0:
268,142,87118,1,0,0:0:0:0:
211,384,87281,5,10,0:0:0:0:
299,267,87444,1,10,0:0:0:0:
256,192,87770,12,0,88586,2:0:0:0:
