osu file format v14

[General]
AudioFilename: audio.mp3
AudioLeadIn: 0
PreviewTime: 41606
Countdown: 0
SampleSet: Normal
StackLeniency: 0.4
Mode: 0
LetterboxInBreaks: 0
WidescreenStoryboard: 1

[Editor]
DistanceSpacing: 1.5
BeatDivisor: 4
GridSize: 32
TimelineZoom: 2.1

[Metadata]
Title:Recall THE END (Anime ED Version)
TitleUnicode:Recall THE END (Anime ED Version)
Artist:TRUSTRICK
ArtistUnicode:TRUSTRICK
Creator:Anxient
Version:Hard
Source:ダンガンロンパ3-The End of 希望ヶ峰学園- 未来編
Tags:Danganronpa 3 Hopes Peak Academy Kibougamine Gakuen Kibou Hen Future Side Arc ailv
BeatmapID:1088285
BeatmapSetID:511989

[Difficulty]
HPDrainRate:5
CircleSize:4
OverallDifficulty:6
ApproachRate:8
SliderMultiplier:1.3
SliderTickRate:1

[Events]
//Background and Video events
0,0,"59117463_p01080.jpg",0,0
//Break Periods
//Storyboard Layer 0 (Background)
//Storyboard Layer 1 (Fail)
//Storyboard Layer 2 (Pass)
//Storyboard Layer 3 (Foreground)
//Storyboard Sound Samples

[TimingPoints]
210,326.26427406199,4,2,1,60,1,0
210,-133.333333333333,4,2,1,70,0,0
5430,-100,4,1,1,70,0,0
8040,327.868852459016,4,1,1,70,1,0
10664,326.086956521739,4,1,1,50,1,0
10990,-133.333333333333,4,2,1,50,0,0
19794,-133.333333333333,4,2,1,50,0,0
21098,-117.647058823529,4,2,1,50,0,0
31535,325.644504748982,4,2,1,60,1,0
31535,-117.647058823529,4,1,1,50,0,0
36094,-100,4,1,1,50,0,0
36735,325.644504748982,4,1,1,60,1,0
39350,326.086956521739,4,1,1,60,1,0
41804,325.644504748982,4,1,1,60,1,1
41967,325.644504748982,4,1,1,80,1,1
42292,-100,4,1,1,80,0,1
50922,324.324324324324,4,1,1,80,1,1
51084,324.324324324324,4,1,1,80,1,1
51246,-100,4,1,1,80,0,1
51732,-100,4,1,1,80,0,0
52219,326.086956521739,4,1,1,80,1,0
52219,-90.9090909090909,4,1,1,70,0,1
52382,326.086956521739,4,1,1,80,1,1
62164,-100,4,1,1,70,0,0
62653,-100,4,1,1,70,0,1
72599,-100,4,1,1,70,0,0
73088,-100,4,1,1,70,0,1
78472,326.26427406199,4,1,1,80,1,1
87281,-100,4,1,1,70,0,0
87444,-100,4,1,1,40,0,0

[Colours]
Combo1 : 128,128,192
Combo2 : 255,55,155
Combo3 : 207,145,232

[HitObjects]
100,159,210,6,0,L|103:213,2,48.750001859665,4|0|8,0:1|0:0|0:0,0:0:0:0:
97,66,699,2,0,L|194:71,1,97.50000371933,0|0,0:0|0:0,0:0:0:0:
270,18,1188,2,0,L|367:12,1,97.50000371933,8|0,0:0|0:0,0:0:0:0:
450,53,1678,2,0,P|461:83|443:160,1,97.50000371933,0|0,0:0|0:0,0:0:0:0:
451,146,2167,1,0,0:0:0:0:
500,318,2656,5,2,0:0:0:0:
500,317,2820,2,0,L|506:220,1,97.50000371933,2|8,0:0|0:0,0:0:0:0:
451,146,3309,2,0,L|353:151,1,97.50000371933,0|0,0:0|0:0,0:0:0:0:
308,232,3798,2,0,L|210:226,1,97.50000371933,8|0,0:0|0:0,0:0:0:0:
142,289,4288,2,0,P|131:319|149:396,1,97.50000371933,0|0,0:0|0:0,0:0:0:0:
141,382,4777,1,0,0:0:0:0:
387,305,5430,6,0,L|396:149,1,130,8|0,0:0|0:0,0:0:0:0:
452,104,5919,2,0,L|447:39,2,65,8|0|0,0:0|0:0|0:0,0:0:0:0:
364,80,6409,2,0,P|331:100|242:73,1,130,8|0,0:0|0:0,0:0:0:0:
169,31,6898,2,0,P|110:5|52:29,1,130,8|0,0:0|0:0,0:0:0:0:
59,120,7387,2,0,L|63:184,1,65,8|0,0:0|0:0,0:0:0:0:
179,224,7714,2,0,L|183:159,1,65,8|0,0:0|0:0,0:0:0:0:
171,321,8040,6,0,L|300:312,1,130,8|2,0:0|0:0,0:0:0:0:
371,255,8531,2,0,L|500:263,1,130,8|2,0:0|0:0,0:0:0:0:
496,172,9023,2,0,L|490:81,2,65,8|0|0,0:0|0:0|0:0,0:0:0:0:
409,143,9515,2,0,L|279:134,1,130,8|0,0:0|0:0,0:0:0:0:
232,56,10007,5,8,0:0:0:0:
232,56,10171,1,0,0:0:0:0:
141,51,10335,1,8,0:0:0:0:
141,51,10499,1,0,0:0:0:0:
91,269,10990,6,0,L|88:317,2,48.750001859665,2|0|0,0:1|0:1|0:1,0:0:0:0:
99,176,11479,2,0,L|202:168,1,97.50000371933,0|0,0:1|0:1,0:0:0:0:
309,316,12131,2,0,L|211:309,2,97.50000371933,0|0|0,0:1|0:1|0:1,0:0:0:0:
401,325,12946,2,0,L|403:276,1,48.750001859665,2|0,0:1|0:1,0:0:0:0:
412,184,13272,6,0,P|387:142|390:94,1,97.50000371933,0|2,0:1|0:1,0:0:0:0:
477,124,13761,1,0,0:1:0:0:
477,124,13924,2,0,P|501:165|499:213,1,97.50000371933,0|2,0:0|0:1,0:0:0:0:
403,276,14413,2,0,L|305:269,1,97.50000371933,0|0,0:1|0:1,0:0:0:0:
230,215,14903,2,0,L|181:217,1,48.750001859665,2|0,0:1|0:1,0:0:0:0:
12,227,15555,1,2,0:1:0:0:
12,227,15881,6,0,P|26:190|5:118,1,97.50000371933,4|2,0:1|0:1,0:0:0:0:
78,65,16370,1,0,0:1:0:0:
175,58,16533,2,0,L|272:51,1,97.50000371933,0|2,0:1|0:1,0:0:0:0:
369,45,17022,6,0,L|362:142,1,97.50000371933,0|0,0:1|0:1,0:0:0:0:
362,142,17511,1,2,0:1:0:0:
299,223,17674,2,0,L|305:320,1,97.50000371933,0|0,0:1|0:1,0:0:0:0:
398,325,18163,2,0,L|466:329,1,48.750001859665,2|0,0:1|0:1,0:0:0:0:
438,235,18490,1,4,0:1:0:0:
208,229,19305,6,0,L|159:232,2,48.750001859665,0|2|0,0:1|0:1|0:1,0:0:0:0:
299,223,19794,2,0,L|292:125,1,97.50000371933,6|2,0:1|0:1,0:0:0:0:
292,125,20283,1,0,0:1:0:0:
59,384,21098,6,0,L|67:267,1,110.50000210762,4|2,0:1|0:1,0:0:0:0:
66,273,21587,1,0,0:1:0:0:
16,194,21750,2,0,L|8:83,1,110.50000210762,0|2,0:1|0:1,0:0:0:0:
67,10,22240,2,0,P|100:-3|175:27,1,110.50000210762,0|0,0:1|0:1,0:0:0:0:
238,82,22729,2,0,P|287:105|339:91,1,110.50000210762,2|0,0:1|0:1,0:0:0:0:
339,90,23218,1,0,0:1:0:0:
428,54,23381,2,0,L|431:-1,1,55.2500010538101,2|0,0:1|0:1,0:0:0:0:
420,148,23707,6,0,L|427:258,1,110.50000210762,2|2,0:2|0:1,0:0:0:0:
438,351,24196,2,0,L|327:343,1,110.50000210762,0|0,0:1|0:1,0:0:0:0:
327,343,24685,1,2,0:1:0:0:
235,321,24848,2,0,P|225:292|242:211,2,110.50000210762,0|0|0,0:1|0:0|0:1,0:0:0:0:
157,374,25663,2,0,L|80:369,1,55.2500010538101,0|0,0:1|0:1,0:0:0:0:
0,246,26316,6,0,P|17:194|10:139,1,110.50000210762,2|2,0:2|0:1,0:0:0:0:
10,139,26805,1,0,0:1:0:0:
97,105,26968,2,0,L|208:97,1,110.50000210762,0|2,0:1|0:1,0:0:0:0:
274,163,27457,6,0,L|385:171,1,110.50000210762,0|0,0:1|0:1,0:0:0:0:
384,170,27946,1,2,0:1:0:0:
461,116,28109,2,0,P|473:90|449:-5,1,110.50000210762,0|0,0:1|0:0,0:0:0:0:
461,11,28598,1,2,0:1:0:0:
273,11,28924,5,2,0:2:0:0:
273,11,29087,1,2,0:2:0:0:
256,192,29169,12,0,30229,0:1:0:0:
112,57,30881,5,2,0:2:0:0:
93,147,31044,1,2,0:2:0:0:
181,119,31207,1,2,0:2:0:0:
55,327,31535,6,0,L|166:335,1,110.50000210762,4|0,0:0|0:0,0:0:0:0:
249,292,32023,1,0,0:0:0:0:
249,292,32186,2,0,P|260:257|238:173,1,110.50000210762,0|0,0:0|0:0,0:0:0:0:
410,94,32837,6,0,L|402:205,2,110.50000210762,4|0|0,0:0|0:0|0:0,0:0:0:0:
410,94,33814,2,0,L|354:97,1,55.2500010538101,0|0,0:0|0:0,0:0:0:0:
318,11,34140,2,0,L|207:3,2,110.50000210762,2|2|2,0:0|0:0|0:2,0:0:0:0:
246,185,35117,6,0,P|261:238|249:292,1,110.50000210762,4|0,0:0|0:0,0:0:0:0:
175,350,35605,1,0,0:0:0:0:
175,350,35768,2,0,L|119:353,1,55.2500010538101,8|0,0:0|0:0,0:0:0:0:
47,300,36094,2,0,P|36:257|43:223,1,65,0|0,0:0|0:0,0:0:0:0:
95,164,36419,2,0,P|105:134|103:102,1,65,8|0,0:0|0:0,0:0:0:0:
139,18,36735,6,0,P|106:11|20:63,2,130,4|8|0,0:0|0:0|0:0,0:0:0:0:
218,74,37549,1,0,0:0:0:0:
218,74,37712,2,0,L|282:77,1,65,8|0,0:0|0:0,0:0:0:0:
380,85,38037,6,0,L|370:218,1,130,0|8,0:0|0:0,0:0:0:0:
368,312,38526,1,0,0:0:0:0:
368,312,38689,2,0,L|371:376,1,65,0|0,0:0|0:0,0:0:0:0:
248,292,39014,2,0,L|251:228,1,65,8|0,0:0|0:0,0:0:0:0:
179,160,39350,6,0,L|49:169,2,130,4|8|8,0:0|0:0|0:0,0:0:0:0:
251,228,40165,2,0,L|248:292,1,65,0|8,0:0|0:0,0:0:0:0:
395,267,40491,6,0,L|401:137,1,130,4|0,0:0|0:0,0:0:0:0:
460,59,40980,2,0,P|413:38|323:78,1,130,8|8,0:0|0:0,0:0:0:0:
401,137,41469,1,8,0:0:0:0:
408,262,41804,6,0,P|392:213|413:112,1,130,4|0,0:0|0:0,0:0:0:0:
340,58,42292,2,0,L|210:67,1,130,10|0,0:0|0:0,0:0:0:0:
210,66,42781,1,0,0:0:0:0:
120,22,42943,1,10,0:0:0:0:
126,119,43106,1,2,0:0:0:0:
126,119,43269,6,0,L|121:183,1,65,0|0,0:0|0:0,0:0:0:0:
112,281,43595,2,0,L|47:285,1,65,10|0,0:0|0:0,0:0:0:0:
200,240,43920,2,0,L|265:244,1,65,0|0,0:0|0:0,0:0:0:0:
264,243,44246,1,10,0:0:0:0:
404,350,44409,6,0,L|274:341,1,130,4|0,0:0|0:0,0:0:0:0:
264,243,44897,2,0,L|257:152,1,65,10|0,0:0|0:0,0:0:0:0:
387,141,45223,2,0,L|382:205,2,65,0|0|10,0:0|0:0|0:0,0:0:0:0:
322,68,45711,6,0,P|362:44|447:65,1,130,0|0,0:0|0:0,0:0:0:0:
387,141,46200,2,0,P|329:168|268:149,1,130,10|0,0:0|0:0,0:0:0:0:
211,70,46688,2,0,L|215:5,2,65,0|10|0,0:0|0:0|0:0,0:0:0:0:
126,119,47177,6,0,P|99:176|117:237,1,130,4|10,0:0|0:0,0:0:0:0:
117,237,47665,1,0,0:0:0:0:
164,337,47828,2,0,L|99:341,1,65,0|0,0:0|0:0,0:0:0:0:
229,247,48154,2,0,P|259:278|269:309,1,65,10|0,0:0|0:0,0:0:0:0:
368,370,48479,6,0,L|379:220,1,130,0|10,0:0|0:0,0:0:0:0:
377,240,48968,1,0,0:0:0:0:
454,180,49131,2,0,L|458:115,1,65,0|0,0:0|0:0,0:0:0:0:
324,76,49456,2,0,L|328:141,1,65,10|0,0:0|0:0,0:0:0:0:
409,29,49782,1,4,0:0:0:0:
239,123,50108,6,0,P|181:148|126:119,1,130,10|10,0:0|0:0,0:0:0:0:
92,27,50596,1,0,0:0:0:0:
92,27,50759,1,0,0:0:0:0:
16,127,50922,6,0,L|25:256,1,130,6|0,0:0|0:0,0:0:0:0:
159,310,51408,2,0,L|163:245,1,65,10|0,0:0|0:0,0:0:0:0:
64,348,51732,2,0,L|0:352,2,65,10|10|2,0:0|0:0|0:0,0:0:0:0:
159,310,52219,6,0,L|313:320,1,143.000004364014,4|0,0:0|0:0,0:0:0:0:
399,320,52708,2,0,L|395:255,1,65,10|0,0:0|0:0,0:0:0:0:
348,169,53034,2,0,L|352:104,1,65,0|0,0:0|0:0,0:0:0:0:
235,58,53360,2,0,L|239:123,1,65,10|0,0:0|0:0,0:0:0:0:
318,7,53686,6,0,P|355:0|391:7,2,65,0|0|10,0:0|0:0|0:0,0:0:0:0:
235,58,54176,1,0,0:0:0:0:
147,15,54339,2,0,L|83:19,2,65,0|0|10,0:0|0:0|0:0,0:0:0:0:
120,115,54828,6,0,B|138:156|124:186|124:186|107:224|124:264,1,130,4|0,0:0|0:0,0:0:0:0:
200,292,55317,2,0,P|212:262|213:229,1,65,10|0,0:0|0:0,0:0:0:0:
284,165,55643,2,0,L|348:169,1,65,0|0,0:0|0:0,0:0:0:0:
348,169,55969,1,10,0:0:0:0:
421,104,56132,1,0,0:0:0:0:
468,246,56295,6,0,L|404:250,1,65,4|0,0:0|0:0,0:0:0:0:
305,256,56621,2,0,P|306:288|318:318,1,65,10|0,0:0|0:0,0:0:0:0:
238,373,56947,2,0,L|174:377,1,65,0|0,0:0|0:0,0:0:0:0:
75,383,57273,1,10,0:0:0:0:
75,383,57436,1,0,0:0:0:0:
24,299,57599,6,0,P|7:259|40:163,1,130,4|10,0:0|0:0,0:0:0:0:
72,90,58089,2,0,P|75:58|71:26,1,65,0|0,0:0|0:0,0:0:0:0:
125,172,58415,2,0,L|189:176,1,65,0|10,0:0|0:0,0:0:0:0:
189,176,58741,1,0,0:0:0:0:
229,68,58904,6,0,L|165:64,2,65,4|0|10,0:0|0:0|0:0,0:0:0:0:
324,49,59393,1,0,0:0:0:0:
293,141,59556,2,0,P|300:179|292:219,1,65,0|0,0:0|0:0,0:0:0:0:
229,275,59882,2,0,P|222:313|230:353,1,65,10|0,0:0|0:0,0:0:0:0:
319,312,60208,6,0,L|448:321,2,130,4|10|10,0:0|0:0|0:0,0:0:0:0:
225,338,61023,2,0,P|222:306|229:275,1,65,0|10,0:0|0:0,0:0:0:0:
162,200,61349,2,0,P|135:169|101:265,1,195,4|8,0:0|0:0,0:0:0:0:
84,258,62002,1,0,0:0:0:0:
127,345,62165,2,0,L|63:349,2,65,8|8|10,0:3|0:3|0:3,0:0:0:0:
228,275,62654,6,0,P|252:241|247:148,1,130,4|0,0:0|0:0,0:0:0:0:
195,75,63143,2,0,L|131:79,2,65,10|0|0,0:0|0:0|0:0,0:0:0:0:
195,75,63632,1,0,0:0:0:0:
270,13,63795,2,0,L|334:17,1,65,10|0,0:0|0:0,0:0:0:0:
432,23,64121,6,0,L|423:152,1,130,0|10,0:0|0:0,0:0:0:0:
422,152,64610,1,0,0:0:0:0:
488,225,64773,2,0,L|492:289,1,65,0|0,0:0|0:0,0:0:0:0:
492,289,65099,1,10,0:0:0:0:
434,368,65262,6,0,L|305:377,1,130,4|0,0:0|0:0,0:0:0:0:
228,315,65752,2,0,P|219:273|236:234,1,65,10|0,0:0|0:0,0:0:0:0:
280,172,66078,1,0,0:0:0:0:
280,172,66241,1,0,0:0:0:0:
216,97,66404,2,0,L|152:101,1,65,10|0,0:0|0:0,0:0:0:0:
291,33,66730,5,0,0:0:0:0:
291,33,66893,1,0,0:0:0:0:
355,108,67056,2,0,P|397:124|486:80,2,130,10|0|10,0:0|0:0|0:0,0:0:0:0:
355,108,67871,1,0,0:0:0:0:
280,172,68034,6,0,L|151:181,1,130,4|10,0:0|0:0,0:0:0:0:
69,126,68523,1,0,0:0:0:0:
23,212,68686,2,0,P|19:258|24:278,1,65,0|0,0:0|0:0,0:0:0:0:
111,316,69012,2,0,P|115:362|110:382,1,65,10|0,0:0|0:0,0:0:0:0:
198,275,69339,6,0,L|327:284,1,130,0|10,0:0|0:0,0:0:0:0:
327,284,69828,1,0,0:0:0:0:
427,291,69991,2,0,P|424:259|410:230,1,65,0|0,0:0|0:0,0:0:0:0:
362,144,70317,2,0,P|365:111|379:82,1,65,10|0,0:0|0:0,0:0:0:0:
463,33,70643,5,4,0:0:0:0:
463,33,70806,1,0,0:0:0:0:
512,117,70969,2,0,L|503:246,2,130,10|10|10,0:0|0:0|0:0,0:0:0:0:
463,33,71784,6,0,L|334:42,1,130,4|0,0:0|0:0,0:0:0:0:
236,50,72273,2,0,P|222:79|219:111,1,65,10|0,0:0|0:0,0:0:0:0:
268,195,72599,1,2,0:0:0:0:
170,200,72762,2,0,L|106:204,1,65,2|2,0:0|0:0,0:0:0:0:
7,207,73088,6,0,L|16:336,1,130,4|0,0:0|0:0,0:0:0:0:
104,377,73577,1,10,0:0:0:0:
104,377,73740,1,0,0:0:0:0:
189,329,73903,2,0,L|253:333,1,65,0|0,0:0|0:0,0:0:0:0:
327,269,74229,1,10,0:0:0:0:
358,361,74392,6,0,P|396:373|475:329,1,130,0|0,0:0|0:0,0:0:0:0:
476,237,74882,2,0,L|480:173,1,65,10|0,0:0|0:0,0:0:0:0:
351,133,75208,2,0,L|355:197,2,65,0|0|10,0:0|0:0|0:0,0:0:0:0:
411,56,75697,6,0,P|352:33|292:54,1,130,4|0,0:0|0:0,0:0:0:0:
250,142,76186,2,0,L|254:206,1,65,10|0,0:0|0:0,0:0:0:0:
323,282,76512,1,0,0:0:0:0:
323,282,76675,2,0,L|319:346,2,65,0|10|0,0:0|0:0|0:0,0:0:0:0:
230,312,77164,5,4,0:0:0:0:
230,312,77327,1,0,0:0:0:0:
138,344,77490,1,10,0:0:0:0:
138,344,77653,1,0,0:0:0:0:
55,290,77816,2,0,P|49:245|58:213,1,65,0|0,0:0|0:0,0:0:0:0:
127,163,78142,2,0,P|133:118|124:86,1,65,10|0,0:0|0:0,0:0:0:0:
72,19,78472,6,0,P|134:0|200:32,1,130,4|10,0:0|0:0,0:0:0:0:
191,23,78961,1,0,0:0:0:0:
229,114,79124,2,0,L|293:110,1,65,0|0,0:0|0:0,0:0:0:0:
332,20,79450,2,0,L|396:24,1,65,10|0,0:0|0:0,0:0:0:0:
500,32,79777,6,0,L|509:161,1,130,4|10,0:0|0:0,0:0:0:0:
509,161,80266,1,0,0:0:0:0:
464,248,80429,2,0,P|426:212|417:175,1,65,0|0,0:0|0:0,0:0:0:0:
370,118,80755,2,0,L|306:122,1,65,10|0,0:0|0:0,0:0:0:0:
314,219,81082,6,0,L|323:348,1,130,4|10,0:0|0:0,0:0:0:0:
323,348,81571,1,0,0:0:0:0:
226,357,81734,2,0,L|162:361,1,65,0|0,0:0|0:0,0:0:0:0:
96,289,82060,2,0,P|94:256|104:225,1,65,10|0,0:0|0:0,0:0:0:0:
192,269,82387,6,0,L|201:140,1,130,0|10,0:0|0:0,0:0:0:0:
201,139,82876,1,0,0:0:0:0:
127,75,83039,2,0,P|87:60|41:75,1,65,0|0,0:0|0:0,0:0:0:0:
43,157,83365,2,0,P|72:170|104:169,1,65,10|0,0:0|0:0,0:0:0:0:
201,139,83692,6,0,P|222:106|206:10,1,130,4|10,0:0|0:0,0:0:0:0:
212,19,84181,1,0,0:0:0:0:
309,31,84344,2,0,L|373:35,1,65,0|0,0:0|0:0,0:0:0:0:
471,40,84671,2,0,L|467:104,1,65,10|0,0:0|0:0,0:0:0:0:
399,176,84997,5,0,0:0:0:0:
399,176,85160,1,0,0:0:0:0:
438,265,85323,1,10,0:0:0:0:
438,265,85486,1,0,0:0:0:0:
349,304,85649,2,0,P|299:311|262:298,1,65,0|0,0:0|0:0,0:0:0:0:
216,238,85976,2,0,P|166:231|129:244,1,65,10|0,0:0|0:0,0:0:0:0:
83,301,86302,6,0,L|79:365,2,65,10|0|0,0:0|0:0|0:0,0:0:0:0:
22,227,86791,2,0,L|18:163,2,65,10|0|0,0:0|0:0|0:0,0:0:0:0:
118,134,87281,5,10,0:0:0:0:
118,134,87444,1,10,0:0:0:0:
256,192,87525,12,0,88586,2:0:0:0:
