osu file format v14

[General]
AudioFilename: audio.mp3
AudioLeadIn: 0
PreviewTime: 41606
Countdown: 0
SampleSet: Normal
StackLeniency: 0.4
Mode: 0
LetterboxInBreaks: 0
WidescreenStoryboard: 1

[Editor]
DistanceSpacing: 1.4
BeatDivisor: 4
GridSize: 32
TimelineZoom: 2.1

[Metadata]
Title:Recall THE END (Anime ED Version)
TitleUnicode:Recall THE END (Anime ED Version)
Artist:TRUSTRICK
ArtistUnicode:TRUSTRICK
Creator:Anxient
Version:Normal
Source:ダンガンロンパ3-The End of 希望ヶ峰学園- 未来編
Tags:Danganronpa 3 Hopes Peak Academy Kibougamine Gakuen Kibou Hen Future Side Arc ailv
BeatmapID:1088203
BeatmapSetID:511989

[Difficulty]
HPDrainRate:3
CircleSize:3
OverallDifficulty:3
ApproachRate:4
SliderMultiplier:0.8
SliderTickRate:1

[Events]
//Background and Video events
0,0,"59117463_p01080.jpg",0,0
//Break Periods
//Storyboard Layer 0 (Background)
//Storyboard Layer 1 (Fail)
//Storyboard Layer 2 (Pass)
//Storyboard Layer 3 (Foreground)
//Storyboard Sound Samples

[TimingPoints]
210,326.26427406199,4,2,1,60,1,0
5430,-100,4,1,1,70,0,0
8040,327.868852459016,4,1,1,70,1,0
10664,326.086956521739,4,1,1,50,1,0
10990,-100,4,2,1,50,0,0
31535,325.644504748982,4,1,1,60,1,0
36094,-100,4,1,1,50,0,0
36735,325.644504748982,4,1,1,60,1,0
39350,326.086956521739,4,1,1,60,1,0
41804,325.644504748982,4,1,1,70,1,1
41967,325.644504748982,4,1,1,80,1,1
50922,324.324324324324,4,1,1,80,1,1
51084,324.324324324324,4,1,1,80,1,1
51732,-100,4,1,1,80,0,0
52219,326.086956521739,4,1,1,80,1,1
52382,326.086956521739,4,1,1,80,1,1
62164,-100,4,1,1,70,0,0
62653,-100,4,1,1,70,0,1
72599,-100,4,1,1,70,0,0
73088,-100,4,1,1,70,0,1
78472,326.26427406199,4,1,1,80,1,1
87281,-100,4,1,1,70,0,0
87444,-100,4,1,1,40,0,0

[Colours]
Combo1 : 128,128,192
Combo2 : 255,55,155
Combo3 : 207,145,232

[HitObjects]
256,192,210,12,4,2820,0:1:0:0:
4,28,5430,6,0,L|123:24,1,120,8|8,0:0|0:0,0:0:0:0:
237,147,6409,2,0,P|249:205|232:262,2,120,8|8|8,0:0|0:0|0:0,0:0:0:0:
301,55,7714,1,8,0:0:0:0:
393,118,8040,6,0,L|512:121,2,120,8|8|8,0:0|0:0|0:0,0:0:0:0:
252,210,9515,2,0,P|238:267|255:324,2,120,8|8|0,0:0|0:0|0:0,0:0:0:0:
412,261,10990,6,0,P|424:202|407:145,1,120,2|0,0:1|0:1,0:0:0:0:
338,57,11805,2,0,L|258:59,1,80,0|0,0:1|0:1,0:0:0:0:
165,122,12457,2,0,L|44:119,1,120,0|2,0:1|0:1,0:0:0:0:
101,215,13272,6,0,L|95:374,1,160,0|0,0:1|0:0,0:0:0:0:
205,359,14250,1,2,0:1:0:0:
280,276,14577,2,0,L|282:196,2,80,0|2|0,0:0|0:1|0:0,0:0:0:0:
357,359,15555,1,2,0:1:0:0:
446,289,15881,6,0,P|463:211|443:135,1,160,4|0,0:1|0:1,0:0:0:0:
357,65,16859,1,2,0:1:0:0:
269,134,17185,2,0,L|267:213,2,80,0|2|0,0:0|0:1|0:1,0:0:0:0:
180,65,18163,1,2,0:1:0:0:
82,119,18490,6,0,P|67:74|86:3,2,120,4|0|2,0:1|0:1|0:1,0:0:0:0:
143,212,19794,2,0,L|139:331,2,120,6|0|2,0:1|0:1|0:1,0:0:0:0:
206,118,21098,6,0,P|284:102|351:152,1,160,4|0,0:1|0:1,0:0:0:0:
406,240,22077,1,2,0:1:0:0:
424,350,22403,2,0,L|503:352,2,80,0|2|0,0:0|0:1|0:1,0:0:0:0:
320,311,23381,1,2,0:1:0:0:
406,240,23707,6,0,L|410:121,1,120,2|0,0:2|0:1,0:0:0:0:
316,58,24522,1,0,0:1:0:0:
204,64,24848,2,0,L|125:66,2,80,0|0|0,0:1|0:0|0:1,0:0:0:0:
239,107,25663,2,0,L|236:190,1,80,0|2,0:1|0:1,0:0:0:0:
187,288,26316,6,0,L|28:294,1,160,2|0,0:2|0:1,0:0:0:0:
23,182,27294,1,2,0:1:0:0:
18,71,27620,2,0,L|97:69,1,80,0|2,0:0|0:1,0:0:0:0:
185,138,28272,2,0,L|264:140,1,80,0|2,0:1|0:1,0:0:0:0:
256,192,28924,12,2,30229,0:2:0:0:
412,239,31535,5,4,0:0:0:0:
385,346,31860,1,0,0:0:0:0:
304,268,32186,2,0,P|300:230|311:188,1,80,0|0,0:0|0:0,0:0:0:0:
403,128,32837,6,0,L|482:130,2,80,4|0|0,0:0|0:0|0:0,0:0:0:0:
332,40,33814,1,0,0:0:0:0:
220,45,34140,6,0,L|141:47,1,80,2|2,0:0|0:0,0:0:0:0:
68,133,34791,1,2,0:2:0:0:
121,231,35117,6,0,P|149:303|116:383,1,160,4|8,0:0|0:0,0:0:0:0:
40,304,36094,2,0,P|19:270|13:228,1,80,0|8,0:0|0:0,0:0:0:0:
68,133,36735,6,0,L|227:128,1,160,4|0,0:0|0:0,0:0:0:0:
317,196,37712,1,8,0:0:0:0:
417,146,38037,2,0,L|419:67,2,80,0|8|0,0:0|0:0|0:0,0:0:0:0:
414,257,39014,1,8,0:0:0:0:
411,368,39350,6,0,L|252:373,1,160,4|8,0:0|0:0,0:0:0:0:
206,338,40165,1,0,0:0:0:0:
94,340,40491,2,0,L|90:212,1,120,4|8,0:0|0:0,0:0:0:0:
57,113,41306,2,0,L|55:73,1,40,8|8,0:0|0:0,0:0:0:0:
149,12,41804,6,0,L|268:8,1,120,4|10,0:0|0:0,0:0:0:0:
351,84,42618,2,0,P|364:115|343:211,2,120,0|2|10,0:0|0:0|0:0,0:0:0:0:
254,141,43920,2,0,L|164:143,1,80,0|10,0:0|0:0,0:0:0:0:
119,132,44409,1,4,0:0:0:0:
23,270,44897,6,0,P|10:301|31:397,1,120,10|0,0:0|0:0,0:0:0:0:
118,327,45711,2,0,L|237:323,1,120,0|10,0:0|0:0,0:0:0:0:
335,267,46526,2,0,L|336:227,2,40,0|0|10,0:0|0:0|0:0,0:0:0:0:
335,378,47177,6,0,L|499:372,2,160,4|0|0,0:0|0:0|0:0,0:0:0:0:
237,322,48805,1,10,0:0:0:0:
335,267,49131,2,0,L|337:187,1,80,0|10,0:0|0:0,0:0:0:0:
341,75,49782,6,0,L|436:72,2,80,4|10|10,0:0|0:0|0:0,0:0:0:0:
300,36,50596,1,0,0:0:0:0:
240,129,50922,6,0,P|227:160|248:256,1,120,6|10,0:0|0:0,0:0:0:0:
336,187,51732,1,10,0:0:0:0:
295,23,52219,6,0,L|167:27,1,120,4|10,0:0|0:0,0:0:0:0:
63,33,53034,2,0,L|59:122,1,80,0|10,0:0|0:0,0:0:0:0:
105,144,53523,2,0,L|109:263,1,120,0|10,0:0|0:0,0:0:0:0:
35,348,54339,2,0,P|66:369|123:370,1,80,0|10,0:0|0:0,0:0:0:0:
160,355,54828,6,0,L|279:350,1,120,4|10,0:0|0:0,0:0:0:0:
383,306,55643,2,0,L|502:310,2,120,0|0|10,0:0|0:0|0:0,0:0:0:0:
344,201,56947,2,0,L|346:121,1,80,0|10,0:0|0:0,0:0:0:0:
353,9,57599,6,0,L|269:11,1,80,4|10,0:0|0:0,0:0:0:0:
179,73,58252,2,0,L|95:70,1,80,0|10,0:0|0:0,0:0:0:0:
19,149,58904,2,0,L|24:312,1,160,4|0,0:0|0:0,0:0:0:0:
113,377,59882,1,10,0:0:0:0:
191,296,60208,6,0,L|270:298,2,80,4|10|10,0:0|0:0|0:0,0:0:0:0:
138,136,61349,2,0,L|257:141,1,120,4|8,0:0|0:0,0:0:0:0:
364,104,62164,2,0,L|356:65,2,40,8|8|10,0:3|0:3|0:3,0:0:0:0:
409,137,62654,6,0,P|426:193|411:250,1,120,4|10,0:0|0:0,0:0:0:0:
310,300,63469,2,0,L|226:296,1,80,0|10,0:0|0:0,0:0:0:0:
181,325,63958,2,0,L|53:329,1,120,0|10,0:0|0:0,0:0:0:0:
7,230,64773,1,0,0:0:0:0:
106,94,65262,6,0,L|225:89,1,120,4|10,0:0|0:0,0:0:0:0:
312,18,66078,2,0,L|431:23,2,120,0|0|10,0:0|0:0|0:0,0:0:0:0:
225,88,67382,2,0,P|211:125|217:165,1,80,0|10,0:0|0:0,0:0:0:0:
289,249,68034,6,0,P|302:286|238:381,2,160,4|0|0,0:0|0:0|0:0,0:0:0:0:
300,137,69665,1,10,0:0:0:0:
391,202,69991,2,0,L|471:199,2,80,0|10|4,0:0|0:0|0:0,0:0:0:0:
300,137,70969,6,0,L|181:142,1,120,10|0,0:0|0:0,0:0:0:0:
68,149,71784,2,0,L|63:268,1,120,4|10,0:0|0:0,0:0:0:0:
59,380,72599,1,2,0:0:0:0:
220,334,73088,6,0,L|339:329,1,120,4|10,0:0|0:0,0:0:0:0:
451,321,73903,2,0,L|456:202,2,120,0|0|10,0:0|0:0|0:0,0:0:0:0:
339,328,75208,2,0,P|314:296|308:250,1,80,0|10,0:0|0:0,0:0:0:0:
330,206,75697,6,0,L|335:87,1,120,4|10,0:0|0:0,0:0:0:0:
223,84,76512,2,0,L|104:79,1,120,0|0,0:0|0:0,0:0:0:0:
13,147,77327,2,0,P|0:183|4:223,2,80,0|0|0,0:0|0:0|0:0,0:0:0:0:
88,297,78472,6,0,L|207:302,1,120,4|0,0:0|0:0,0:0:0:0:
292,375,79287,1,0,0:0:0:0:
384,311,79613,2,0,L|388:215,1,80,0|0,0:0|0:0,0:0:0:0:
458,144,80266,2,0,L|454:64,1,80,0|0,0:0|0:0,0:0:0:0:
410,30,80755,1,10,0:0:0:0:
328,107,81082,6,0,L|209:102,1,120,4|0,0:0|0:0,0:0:0:0:
123,175,81897,1,0,0:0:0:0:
38,101,82224,2,0,P|26:65|47:12,2,80,0|0|0,0:0|0:0|0:0,0:0:0:0:
123,175,83202,2,0,L|126:254,1,80,0|0,0:0|0:0,0:0:0:0:
182,259,83692,6,0,L|301:264,1,120,4|0,0:0|0:0,0:0:0:0:
375,179,84507,1,0,0:0:0:0:
411,284,84834,2,0,P|403:312|362:358,2,80,0|0|0,0:0|0:0|0:0,0:0:0:0:
492,207,85812,2,0,L|497:88,1,120,0|10,0:0|0:0,0:0:0:0:
256,192,86465,12,0,88586,2:2:0:0:
