osu file format v14

[General]
AudioFilename: audio.mp3
AudioLeadIn: 0
PreviewTime: 41606
Countdown: 0
SampleSet: Soft
StackLeniency: 0.4
Mode: 0
LetterboxInBreaks: 0
WidescreenStoryboard: 1

[Editor]
Bookmarks: 69667
DistanceSpacing: 1.8
BeatDivisor: 4
GridSize: 32
TimelineZoom: 2.1

[Metadata]
Title:Recall THE END (Anime ED Version)
TitleUnicode:Recall THE END (Anime ED Version)
Artist:TRUSTRICK
ArtistUnicode:TRUSTRICK
Creator:Anxient
Version:Advanced
Source:ダンガンロンパ3-The End of 希望ヶ峰学園- 未来編
Tags:Danganronpa 3 Hopes Peak Academy Kibougamine Gakuen Kibou Hen Future Side Arc ailv
BeatmapID:1088979
BeatmapSetID:511989

[Difficulty]
HPDrainRate:4
CircleSize:3.5
OverallDifficulty:5
ApproachRate:6
SliderMultiplier:1.1
SliderTickRate:1

[Events]
//Background and Video events
0,0,"59117463_p01080.jpg",0,0
//Break Periods
//Storyboard Layer 0 (Background)
//Storyboard Layer 1 (Fail)
//Storyboard Layer 2 (Pass)
//Storyboard Layer 3 (Foreground)
//Storyboard Sound Samples

[TimingPoints]
210,326.26427406199,4,2,1,60,1,0
5430,-100,4,1,1,70,0,0
8040,327.868852459016,4,1,1,70,1,0
10664,326.086956521739,4,1,1,50,1,0
10990,-100,4,2,1,50,0,0
31535,325.644504748982,4,1,1,60,1,0
36094,-100,4,1,1,50,0,0
36735,325.644504748982,4,1,1,60,1,0
39350,326.086956521739,4,1,1,60,1,0
41804,325.644504748982,4,1,1,70,1,0
41967,325.644504748982,4,1,1,80,1,1
50922,324.324324324324,4,1,1,80,1,1
51084,324.324324324324,4,1,1,80,1,1
51732,-100,4,1,1,80,0,0
52219,326.086956521739,4,1,1,80,1,1
52382,326.086956521739,4,1,1,80,1,1
62164,-100,4,1,1,70,0,0
62653,-100,4,1,1,70,0,1
72599,-100,4,1,1,70,0,0
73088,-100,4,1,1,70,0,1
78472,326.26427406199,4,1,1,80,1,1
87281,-100,4,1,1,70,0,0
87444,-100,4,1,1,40,0,0

[Colours]
Combo1 : 128,128,192
Combo2 : 255,55,155
Combo3 : 207,145,232

[HitObjects]
256,192,210,5,4,0:1:0:0:
256,192,291,12,2,2820,0:2:0:0:
96,24,5430,6,0,L|27:29,2,55,8|0|0,0:0|0:0|0:0,0:0:0:0:
180,76,5919,2,0,L|303:84,1,110,8|0,0:0|0:0,0:0:0:0:
388,91,6409,6,0,L|396:214,1,110,8|0,0:0|0:0,0:0:0:0:
485,242,6898,1,8,0:0:0:0:
446,333,7061,2,0,P|408:304|396:280,1,55,0|0,0:0|0:0,0:0:0:0:
314,257,7387,6,0,L|240:262,1,55,8|0,0:0|0:0,0:0:0:0:
181,322,7714,2,0,L|126:318,1,55,8|0,0:0|0:0,0:0:0:0:
26,309,8040,6,0,L|18:199,1,110,8|2,0:0|0:0,0:0:0:0:
74,117,8531,2,0,L|77:62,2,55,8|0|2,0:0|2:0|0:0,0:0:0:0:
153,176,9023,6,0,L|156:230,2,55,8|0|0,0:0|0:0|0:0,0:0:0:0:
234,119,9515,2,0,L|237:64,2,55,8|0|0,0:0|0:0|0:0,0:0:0:0:
330,98,10007,2,0,L|496:110,1,165,8|0,0:0|0:0,0:0:0:0:
407,352,10990,6,0,L|403:297,1,55,2|0,0:1|0:1,0:0:0:0:
397,198,11316,1,0,0:1:0:0:
316,255,11479,2,0,P|277:269|197:248,1,110,0|0,0:1|0:1,0:0:0:0:
143,183,11968,2,0,P|104:169|24:190,1,110,0|2,0:0|0:1,0:0:0:0:
88,265,12457,2,0,L|96:375,2,110,0|0|0,0:1|0:1|0:1,0:0:0:0:
143,183,13272,6,0,L|151:73,1,110,0|2,0:1|0:1,0:0:0:0:
249,69,13761,2,0,L|359:61,1,110,0|0,0:1|0:1,0:0:0:0:
426,133,14250,1,2,0:1:0:0:
506,75,14413,2,0,P|524:112|505:188,1,110,0|0,0:1|0:1,0:0:0:0:
430,232,14903,1,2,0:1:0:0:
451,328,15066,2,0,P|396:326|331:241,1,165,0|2,0:1|0:1,0:0:0:0:
249,69,15881,6,0,L|139:77,1,110,4|2,0:1|0:1,0:0:0:0:
55,23,16370,1,0,0:1:0:0:
21,116,16533,2,0,P|15:175|42:227,1,110,0|2,0:1|0:1,0:0:0:0:
134,211,17022,6,0,L|244:203,1,110,0|0,0:1|0:1,0:0:0:0:
319,139,17511,1,2,0:1:0:0:
393,204,17674,2,0,P|399:263|372:315,1,110,0|0,0:1|0:1,0:0:0:0:
302,372,18163,2,0,P|282:335|283:299,1,55,2|0,0:1|0:1,0:0:0:0:
245,229,18490,6,0,L|135:237,1,110,4|2,0:1|0:1,0:0:0:0:
64,305,18979,1,0,0:1:0:0:
46,107,19305,6,0,L|42:52,2,55,0|0|0,0:1|0:1|0:1,0:0:0:0:
144,98,19794,2,0,L|254:90,1,110,6|2,0:1|0:1,0:0:0:0:
332,149,20283,1,0,0:1:0:0:
512,23,20772,5,2,0:0:0:0:
512,24,21098,2,0,L|505:134,1,110,4|0,0:1|0:1,0:0:0:0:
427,194,21587,2,0,L|435:304,1,110,0|0,0:1|0:1,0:0:0:0:
353,359,22077,2,0,P|339:321|342:290,1,55,2|0,0:1|0:1,0:0:0:0:
252,257,22403,6,0,L|142:265,1,110,0|2,0:0|0:1,0:0:0:0:
54,310,22892,2,0,P|41:268|48:235,1,55,0|0,0:1|0:1,0:0:0:0:
103,180,23218,2,0,P|116:138|109:105,2,55,0|2|0,0:1|0:1|0:1,0:0:0:0:
18,127,23707,5,2,0:2:0:0:
70,43,23870,2,0,P|112:30|145:37,1,55,2|2,0:2|0:1,0:0:0:0:
205,84,24196,2,0,L|315:76,1,110,0|0,0:1|0:1,0:0:0:0:
370,265,24848,2,0,L|260:257,2,110,0|0|0,0:1|0:0|0:1,0:0:0:0:
468,272,25663,2,0,L|472:217,2,55,0|0|2,0:1|0:1|0:1,0:0:0:0:
484,74,26316,6,0,L|374:82,1,110,2|2,0:2|0:1,0:0:0:0:
295,21,26805,1,0,0:1:0:0:
223,89,26968,2,0,P|232:134|286:191,1,110,0|2,0:1|0:1,0:0:0:0:
253,280,27457,6,0,L|143:288,1,110,0|0,0:1|0:1,0:0:0:0:
82,366,27946,1,2,0:1:0:0:
12,295,28109,2,0,L|4:185,1,110,0|0,0:1|0:1,0:0:0:0:
74,115,28598,1,0,0:0:0:0:
256,192,28924,5,2,0:0:0:0:
256,192,29006,12,2,30229,0:0:0:0:
374,81,31207,5,2,0:2:0:0:
177,104,31535,2,0,P|186:150|172:225,1,110,4|0,0:0|0:0,0:0:0:0:
110,284,32023,1,0,0:0:0:0:
12,296,32186,2,0,P|2:242|12:188,1,110
78,374,32837,6,0,L|188:382,1,110,4|0,0:0|0:0,0:0:0:0:
354,275,33488,2,0,L|244:283,1,110
177,211,33977,1,0,0:0:0:0:
237,133,34140,2,0,L|347:125,2,110,2|2|0,0:0|0:0|0:0,0:0:0:0:
424,197,35117,6,0,P|451:234|450:310,1,110,4|0,0:0|0:0,0:0:0:0:
387,368,35605,1,0,0:0:0:0:
354,275,35768,2,0,L|299:279,1,55,8|0,0:0|0:0,0:0:0:0:
213,326,36094,6,0,L|158:330,1,55,8|0,0:0|0:0,0:0:0:0:
60,341,36419,2,0,P|48:301|51:275,1,55,8|0,0:0|0:0,0:0:0:0:
101,204,36735,6,0,P|110:173|95:81,2,110,4|8|0,0:0|0:0|0:0,0:0:0:0:
146,292,37548,1,0,0:0:0:0:
244,283,37711,2,0,L|354:275,1,110,8|0,0:0|0:0,0:0:0:0:
346,176,38199,1,0,0:0:0:0:
339,77,38363,2,0,L|393:80,1,55,8|0,0:0|0:0,0:0:0:0:
492,84,38688,2,0,L|500:194,1,110,0|8,0:0|0:0,0:0:0:0:
438,381,39350,5,4,0:0:0:0:
256,192,39431,12,0,40491,0:0:0:0:
501,94,41306,5,8,0:0:0:0:
402,92,41469,2,0,L|347:88,1,55,8|0,0:0|0:0,0:0:0:0:
248,83,41804,6,0,P|231:128|249:197,1,110,4|0,0:0|0:0,0:0:0:0:
294,271,42292,2,0,P|311:316|293:385,1,110,10|0,0:0|0:0,0:0:0:0:
213,324,42781,2,0,P|196:285|195:256,1,55,0|10,0:0|0:0,0:0:0:0:
242,187,43106,6,0,P|294:174|346:192,1,110,2|0,0:0|0:0,0:0:0:0:
420,258,43595,2,0,L|475:262,1,55,10|0,0:0|0:0,0:0:0:0:
470,163,43920,2,0,L|462:53,1,110,0|10,0:0|0:0,0:0:0:0:
363,47,44409,6,0,L|253:39,1,110,4|0,0:0|0:0,0:0:0:0:
168,90,44897,2,0,L|58:98,1,110,10|0,0:0|0:0,0:0:0:0:
7,183,45386,2,0,P|2:217|7:240,1,55,0|10,0:0|0:0,0:0:0:0:
71,311,45711,2,0,P|105:316|160:217,1,165,0|10,0:0|0:0,0:0:0:0:
240,160,46363,1,0,0:0:0:0:
309,229,46526,2,0,L|419:237,1,110,0|10,0:0|0:0,0:0:0:0:
424,39,47177,6,0,L|314:47,2,110,4|10|0,0:0|0:0|0:0,0:0:0:0:
487,116,47991,1,0,0:0:0:0:
414,182,48154,2,0,P|415:226|425:252,1,55,10|0,0:0|0:0,0:0:0:0:
441,333,48479,6,0,L|331:325,1,110,0|10,0:0|0:0,0:0:0:0:
254,263,48968,2,0,P|246:235|266:138,1,110,0|0,0:0|0:0,0:0:0:0:
203,72,49456,2,0,L|148:68,1,55,10|0,0:0|0:0,0:0:0:0:
49,59,49782,6,0,L|41:169,2,110,4|10|10,0:0|0:0|0:0,0:0:0:0:
148,68,50596,2,0,L|203:72,1,55,0|10,0:0|0:0,0:0:0:0:
256,156,50922,2,0,L|366:148,1,110,6|0,0:0|0:0,0:0:0:0:
446,206,51408,2,0,P|464:170|452:98,2,110,10|10|2,0:0|0:0|0:0,0:0:0:0:
354,242,52219,6,0,P|342:294|362:345,1,110,4|0,0:0|0:0,0:0:0:0:
271,384,52707,2,0,L|216:380,1,55,10|0,0:0|0:0,0:0:0:0:
146,309,53033,2,0,L|91:313,2,55,0|0|10,0:0|0:0|0:0,0:0:0:0:
217,240,53522,2,0,P|229:188|209:137,1,110,0|0,0:0|0:0,0:0:0:0:
112,113,54011,2,0,P|104:85|108:58,1,55,10|0,0:0|0:0,0:0:0:0:
202,29,54338,2,0,L|312:21,1,110,0|10,0:0|0:0,0:0:0:0:
410,13,54827,6,0,L|402:123,1,110,4|0,0:0|0:0,0:0:0:0:
470,194,55316,2,0,P|490:244|478:297,1,110,10|0,0:0|0:0,0:0:0:0:
398,355,55805,1,0,0:0:0:0:
318,296,55968,2,0,L|263:292,1,55,10|0,0:0|0:0,0:0:0:0:
180,344,56294,6,0,L|70:352,2,110,4|10|0,0:0|0:0|0:0,0:0:0:0:
263,292,57109,1,0,0:0:0:0:
268,193,57272,2,0,L|272:138,1,55,10|0,0:0|0:0,0:0:0:0:
277,39,57598,6,0,L|167:47,1,110,4|10,0:0|0:0,0:0:0:0:
68,55,58088,2,0,P|46:89|63:163,1,110,0|0,0:0|0:0,0:0:0:0:
58,253,58577,2,0,L|54:308,1,55,10|0,0:0|0:0,0:0:0:0:
153,299,58903,6,0,L|263:291,1,110,4|10,0:0|0:0,0:0:0:0:
341,351,59392,2,0,L|451:359,1,110,0|0,0:0|0:0,0:0:0:0:
498,272,59881,1,10,0:0:0:0:
512,74,60207,5,2,0:2:0:0:
316,98,60533,2,0,L|312:153,1,55,10|0,0:0|0:0,0:0:0:0:
258,236,60859,2,0,L|262:291,2,55,10|0|10,0:0|0:0|0:0,0:0:0:0:
159,229,61348,2,0,L|49:221,1,110,4|0,0:0|0:0,0:0:0:0:
29,124,61838,2,0,P|16:71|40:24,1,110,8|0,0:0|0:0,0:0:0:0:
139,25,62327,2,0,P|157:57|152:93,1,55,0|2,0:0|0:0,0:0:0:0:
256,82,62653,6,0,L|366:90,1,110,4|0,0:0|0:0,0:0:0:0:
464,97,63142,2,0,L|472:207,1,110,10|0,0:0|0:0,0:0:0:0:
394,268,63632,1,0,0:0:0:0:
313,210,63795,2,0,P|296:252|298:278,1,55,10|0,0:0|0:0,0:0:0:0:
338,350,64121,2,0,P|374:367|462:342,2,110,0|10|0,0:0|0:0|0:0,0:0:0:0:
295,261,64936,2,0,P|299:233|312:209,1,55,0|10,0:0|0:0,0:0:0:0:
258,125,65262,6,0,L|148:117,1,110,4|0,0:0|0:0,0:0:0:0:
82,191,65752,2,0,L|87:268,1,55,10|0,0:0|0:0,0:0:0:0:
19,319,66078,2,0,P|67:342|121:336,1,110,0|10,0:0|0:0,0:0:0:0:
193,266,66567,6,0,P|232:241|305:251,1,110
366,313,67056,2,0,L|371:390,1,55,10|0,0:0|0:0,0:0:0:0:
461,330,67382,2,0,L|453:220,1,110,0|10,0:0|0:0,0:0:0:0:
364,43,68034,6,0,L|356:153,2,110,4|10|0,0:0|0:0|0:0,0:0:0:0:
265,49,68848,1,0,0:0:0:0:
166,56,69011,2,0,P|161:91|170:123,1,55,10|0,0:0|0:0,0:0:0:0:
222,190,69338,2,0,P|230:225|195:309,1,110,0|10,0:0|0:0,0:0:0:0:
122,342,69827,1,0,0:0:0:0:
30,305,69990,2,0,L|33:250,1,55
76,160,70316,2,0,L|73:105,1,55,10|0,0:0|0:0,0:0:0:0:
14,25,70643,6,0,L|124:17,1,110,4|10,0:0|0:0,0:0:0:0:
222,13,71132,1,0,0:0:0:0:
301,71,71295,2,0,P|306:112|297:139,2,55,10|0|10,0:0|0:0|0:0,0:0:0:0:
389,26,71784,6,0,L|499:34,1,110,4|0,0:0|0:0,0:0:0:0:
490,132,72273,2,0,L|482:242,1,110,10|2,0:0|0:0,0:0:0:0:
425,322,72762,2,0,P|396:292|387:261,1,55,2|2,0:0|0:0,0:0:0:0:
324,206,73088,6,0,L|214:214,1,110,4|0,0:0|0:0,0:0:0:0:
115,221,73577,2,0,L|109:298,1,55,10|0,0:0|0:0,0:0:0:0:
12,287,73903,2,0,L|17:364,2,55,0|0|10,0:0|0:0|0:0,0:0:0:0:
7,188,74392,6,0,L|-1:78,1,110,0|0,0:0|0:0,0:0:0:0:
80,22,74882,2,0,P|99:62|95:93,1,55,10|0,0:0|0:0,0:0:0:0:
198,67,75208,2,0,L|308:59,1,110,0|10,0:0|0:0,0:0:0:0:
391,7,75697,6,0,P|408:60|390:112,1,110,4|0,0:0|0:0,0:0:0:0:
328,186,76186,2,0,P|330:213|341:238,1,55,10|0,0:0|0:0,0:0:0:0:
429,284,76512,1,0,0:0:0:0:
504,219,76675,2,0,L|508:164,2,55,0|10|0,0:0|0:0|0:0,0:0:0:0:
429,284,77164,6,0,L|319:292,1,110,4|10,0:0|0:0,0:0:0:0:
219,296,77653,2,0,L|213:374,2,55
175,207,78142,1,10,0:0:0:0:
167,9,78472,6,0,L|277:17,1,110,4|10,0:0|0:0,0:0:0:0:
375,27,78961,2,0,P|385:64|353:130,1,110
308,213,79450,2,0,P|299:266|306:285,1,55,10|0,0:0|0:0,0:0:0:0:
344,354,79777,6,0,P|397:363|416:356,1,55,4|0,0:0|0:0,0:0:0:0:
478,307,80103,1,10,0:0:0:0:
444,213,80266,2,0,P|434:176|466:110,2,110
345,223,81082,6,0,L|235:231,1,110,4|10,0:0|0:0,0:0:0:0:
146,274,81571,2,0,L|152:352,2,55
53,239,82060,2,0,P|46:283|54:311,2,55,10|0|0,0:0|0:0|0:0,0:0:0:0:
128,174,82550,6,0,P|141:122|125:66,2,110
53,238,83365,2,0,P|45:265|47:292,1,55,10|0,0:0|0:0,0:0:0:0:
146,274,83692,6,0,L|256:266,1,110,4|10,0:0|0:0,0:0:0:0:
334,205,84181,2,0,L|444:213,1,110,0|0,0:0|0:0,0:0:0:0:
492,126,84671,2,0,L|487:60,1,55,10|0,0:0|0:0,0:0:0:0:
388,62,84997,6,0,L|278:54,1,110,0|10,0:0|0:0,0:0:0:0:
179,42,85486,2,0,P|154:77|163:154,1,110,0|0,0:0|0:0,0:0:0:0:
222,215,85976,1,10,0:0:0:0:
30,263,86302,5,6,0:0:0:0:
256,192,86383,12,0,88586,2:0:0:0:
