osu file format v14

[General]
AudioFilename: audio.mp3
AudioLeadIn: 0
PreviewTime: 44108
Countdown: 0
SampleSet: Soft
StackLeniency: 0
Mode: 0
LetterboxInBreaks: 0
WidescreenStoryboard: 1

[Editor]
Bookmarks: 10202,11295,12702,21452,22702,32702,40202,42702,44264,44577,45202,49733,54889,62702,67545,74889,76295,79733,82702,83795,84108,88639
DistanceSpacing: 0.1
BeatDivisor: 4
GridSize: 8
TimelineZoom: 1.7

[Metadata]
Title:Storyteller (TV Size)
TitleUnicode:Storyteller (TV Size)
Artist:TRUE
ArtistUnicode:TRUE
Creator:kennyistmull
Version:hs
Source:転生したらスライムだった件 第2期
Tags:TenSura 転スラ slime isekai That Time I Got Reincarnated as a Slime Season 2 Second 2nd Tensei shitara suraimu Datta Ken Opening 3 Three Third 3rd Rimuru Tempest リムル=テンペスト Mikami Satoru 三上 悟 Japanese Anime animation female vocals j pop j-pop jpop 唐沢 美帆 aundy kennyistmull DirtyDevil Kafaka Xushey
BeatmapID:3623556
BeatmapSetID:1759010

[Difficulty]
HPDrainRate:6
CircleSize:4.2
OverallDifficulty:8.5
ApproachRate:9.2
SliderMultiplier:1.5
SliderTickRate:1

[Events]
//Background and Video events
0,0,"storytellerBG.jpg",0,0
//Break Periods
//Storyboard Layer 0 (Background)
//Storyboard Layer 1 (Fail)
//Storyboard Layer 2 (Pass)
//Storyboard Layer 3 (Foreground)
//Storyboard Layer 4 (Overlay)
//Storyboard Sound Samples

[TimingPoints]
201,312.5,4,2,1,70,1,0
13013,-142.857142857143,4,2,1,40,0,0
20982,-250.000000000001,4,2,1,40,0,0
22544,-117.647058823529,4,2,1,50,0,0
27544,-105.263157894737,4,2,1,65,0,0
32701,-111.111111111111,4,2,1,55,0,0
40201,-100,4,2,1,60,0,0
42701,-90.9090909090909,4,2,1,70,0,0
44263,-200,4,2,1,30,0,0
44419,-200,4,2,1,30,0,0
44576,-90.9090909090909,4,2,1,50,0,0
44732,-90.9090909090909,4,2,1,5,0,0
44888,-125,4,2,1,40,0,0
45044,-125,4,2,1,5,0,0
45201,-83.3333333333333,4,2,1,70,0,1
60044,-83.3333333333333,4,2,1,70,0,0
62701,-83.3333333333333,4,2,1,50,0,0
63326,-83.3333333333333,4,2,1,60,0,0
63951,-83.3333333333333,4,2,1,70,0,0
64578,-83.3333333333333,4,2,1,80,0,0
65201,-83.3333333333333,4,2,1,70,0,1
82701,-83.3333333333333,4,2,1,70,0,0
85826,-333.333333333333,4,2,1,50,0,0
88638,-333.333333333333,4,2,1,5,0,0

[Colours]
Combo1 : 164,100,240
Combo2 : 230,110,150
Combo3 : 100,200,200
Combo4 : 130,120,255

[HitObjects]
254,190,45,5,0,1:2:0:0:
254,190,123,1,0,1:2:0:0:
254,190,201,1,6,1:2:0:0:
254,190,513,1,8,0:0:0:0:
254,190,669,1,2,1:2:0:0:
254,190,982,1,0,1:2:0:0:
254,190,1138,1,8,0:0:0:0:
254,190,1294,1,2,1:2:0:0:
254,190,1607,1,0,1:2:0:0:
254,190,1763,1,10,0:0:0:0:
254,190,2076,1,2,1:2:0:0:
254,190,2388,1,10,0:0:0:0:
254,190,2701,1,6,1:2:0:0:
254,190,3013,1,8,0:0:0:0:
254,190,3169,1,2,1:2:0:0:
254,190,3482,1,0,1:2:0:0:
254,190,3638,1,8,0:0:0:0:
254,190,3794,1,2,1:2:0:0:
254,190,4107,1,0,1:2:0:0:
254,190,4263,1,10,0:0:0:0:
254,190,4576,1,2,1:2:0:0:
254,190,4888,1,10,0:0:0:0:
254,190,5201,1,6,1:2:0:0:
254,190,5513,1,8,0:0:0:0:
254,190,5669,1,2,1:2:0:0:
254,190,5982,1,0,1:2:0:0:
254,190,6138,1,8,0:0:0:0:
254,190,6294,1,2,1:2:0:0:
254,190,6607,1,8,1:2:0:0:
254,190,6763,1,8,0:0:0:0:
254,190,6919,1,2,1:2:0:0:
254,190,7232,1,2,1:2:0:0:
254,190,7388,1,8,0:0:0:0:
254,190,7544,1,0,1:2:0:0:
254,190,7622,1,0,1:2:0:0:
254,190,7701,1,4,1:2:0:0:
254,190,8013,1,8,0:0:0:0:
254,190,8169,1,2,1:2:0:0:
254,190,8326,1,2,1:2:0:0:
254,190,8638,1,8,0:0:0:0:
254,190,8794,1,2,1:2:0:0:
254,190,9107,1,2,1:2:0:0:
254,190,9263,1,8,0:0:0:0:
254,190,9419,1,2,1:2:0:0:
254,190,9732,1,2,1:2:0:0:
254,190,9888,1,8,0:0:0:0:
254,190,10044,1,0,1:2:0:0:
254,190,10201,1,10,0:0:0:0:
254,190,10357,1,8,1:2:0:0:
254,190,10513,1,8,0:0:0:0:
254,190,10669,1,10,1:2:0:0:
254,190,10826,1,10,0:0:0:0:
254,190,10982,1,8,1:2:0:0:
254,190,11138,1,8,0:0:0:0:
254,190,11294,1,10,1:2:0:0:
254,190,11607,1,10,1:2:0:0:
254,190,11763,1,8,0:0:0:0:
254,190,11919,1,10,1:2:0:0:
254,190,12076,1,8,1:2:0:0:
254,190,12154,1,8,1:2:0:0:
254,190,12232,1,8,1:2:0:0:
254,190,12310,1,8,1:2:0:0:
254,190,12388,1,8,1:2:0:0:
254,190,12466,1,8,1:2:0:0:
254,190,12544,1,8,1:2:0:0:
254,190,12622,1,8,1:2:0:0:
254,190,12701,1,12,1:2:0:0:
254,190,13013,1,2,0:0:0:0:
254,190,13326,1,2,0:0:0:0:
254,190,13482,1,2,0:0:0:0:
254,190,13794,1,2,0:0:0:0:
254,190,14107,1,2,0:0:0:0:
254,190,14419,1,2,0:0:0:0:
254,190,14732,1,2,0:0:0:0:
254,190,15044,1,2,0:0:0:0:
254,190,15201,1,2,0:0:0:0:
254,190,15513,1,2,0:0:0:0:
254,190,15826,1,2,0:0:0:0:
254,190,15982,1,2,0:0:0:0:
254,190,16294,1,2,0:0:0:0:
254,190,16607,1,2,0:0:0:0:
254,190,16919,1,2,0:0:0:0:
254,190,17232,1,2,0:0:0:0:
254,190,17544,1,2,0:0:0:0:
254,190,17701,1,2,0:0:0:0:
254,190,18013,1,2,0:0:0:0:
254,190,18326,1,2,0:0:0:0:
254,190,18482,1,2,0:0:0:0:
254,190,18794,1,2,0:0:0:0:
254,190,19107,1,2,0:0:0:0:
254,190,19419,1,2,0:0:0:0:
254,190,19732,1,2,0:0:0:0:
254,190,20044,1,2,0:0:0:0:
254,190,20201,1,2,1:2:0:0:
254,190,20357,1,2,1:2:0:0:
254,190,20513,1,2,1:2:0:0:
254,190,20669,1,2,1:2:0:0:
254,190,20826,1,2,1:2:0:0:
254,190,20982,1,2,1:2:0:0:
254,190,21138,1,0,0:0:0:0:
254,190,21294,1,2,1:2:0:0:
254,190,21451,1,8,0:0:0:0:
254,190,21607,1,8,0:0:0:0:
254,190,21685,1,8,0:0:0:0:
254,190,21763,1,8,0:0:0:0:
254,190,21919,1,8,0:0:0:0:
254,190,22232,1,8,0:0:0:0:
254,190,22544,1,12,0:0:0:0:
254,190,22857,1,0,1:2:0:0:
254,190,23013,1,10,0:0:0:0:
254,190,23326,1,2,1:2:0:0:
254,190,23482,1,2,1:2:0:0:
254,190,23638,1,8,0:0:0:0:
254,190,23794,1,2,1:2:0:0:
254,190,24107,1,2,1:2:0:0:
254,190,24263,1,10,0:0:0:0:
254,190,24419,1,2,1:2:0:0:
254,190,24732,1,2,1:2:0:0:
254,190,24888,1,8,0:0:0:0:
254,190,25044,1,2,1:2:0:0:
254,190,25201,1,4,1:2:0:0:
254,190,25513,1,10,0:0:0:0:
254,190,25826,1,2,1:2:0:0:
254,190,25982,1,2,1:2:0:0:
254,190,26138,1,8,0:0:0:0:
254,190,26294,1,2,1:2:0:0:
254,190,26607,1,2,1:2:0:0:
254,190,26763,1,8,0:0:0:0:
254,190,26919,1,2,1:2:0:0:
254,190,27232,1,2,1:2:0:0:
254,190,27388,1,8,0:0:0:0:
254,190,27544,1,0,1:2:0:0:
254,190,27622,1,0,1:2:0:0:
254,190,27701,1,12,1:2:0:0:
254,190,28013,1,8,0:0:0:0:
254,190,28169,1,2,1:2:0:0:
254,190,28326,1,2,1:2:0:0:
254,190,28638,1,8,0:0:0:0:
254,190,28794,1,2,1:2:0:0:
254,190,28951,1,10,1:2:0:0:
254,190,29263,1,10,1:2:0:0:
254,190,29419,1,2,1:2:0:0:
254,190,29732,1,2,1:2:0:0:
254,190,29888,1,6,1:2:0:0:
254,190,30201,1,2,0:0:0:0:
254,190,30357,1,0,0:0:0:0:
254,190,30513,1,10,0:0:0:0:
254,190,30669,1,0,0:0:0:0:
254,190,30826,1,10,0:0:0:0:
254,190,30982,1,2,0:0:0:0:
254,190,31138,1,8,0:0:0:0:
254,190,31294,1,10,0:0:0:0:
254,190,31607,1,0,0:0:0:0:
254,190,31763,1,14,0:0:0:0:
254,190,32076,1,2,1:2:0:0:
254,190,32232,1,2,1:2:0:0:
254,190,32388,1,10,0:0:0:0:
254,190,32466,1,8,0:0:0:0:
254,190,32544,1,10,0:0:0:0:
254,190,32622,1,8,0:0:0:0:
254,190,32701,1,6,1:2:0:0:
254,190,32857,1,2,1:2:0:0:
254,190,33013,1,8,0:0:0:0:
254,190,33169,1,2,1:2:0:0:
254,190,33482,1,2,1:2:0:0:
254,190,33638,1,8,0:0:0:0:
254,190,33794,1,2,1:2:0:0:
254,190,34107,1,0,1:2:0:0:
254,190,34263,1,8,0:0:0:0:
254,190,34576,1,2,1:2:0:0:
254,190,34732,1,2,1:2:0:0:
254,190,34888,1,10,0:0:0:0:
254,190,35044,1,2,1:2:0:0:
254,190,35201,1,6,1:2:0:0:
254,190,35357,1,2,1:2:0:0:
254,190,35513,1,8,0:0:0:0:
254,190,35669,1,2,1:2:0:0:
254,190,35982,1,2,1:2:0:0:
259,189,36138,1,8,0:0:0:0:
254,190,36294,1,2,1:2:0:0:
254,190,36607,1,0,1:2:0:0:
254,190,36763,1,8,0:0:0:0:
259,189,37076,1,2,1:2:0:0:
257,193,37232,1,2,1:2:0:0:
257,193,37388,1,10,0:0:0:0:
257,193,37544,1,2,1:2:0:0:
257,193,37701,1,6,1:2:0:0:
259,189,37857,1,2,1:2:0:0:
259,189,38013,1,8,0:0:0:0:
257,193,38169,1,2,1:2:0:0:
257,193,38482,1,2,1:2:0:0:
257,193,38638,1,8,0:0:0:0:
259,189,38794,1,2,1:2:0:0:
257,193,39107,1,2,1:2:0:0:
257,193,39263,1,10,0:0:0:0:
257,193,39576,1,2,1:2:0:0:
257,193,39654,1,0,1:2:0:0:
259,189,39732,1,0,1:2:0:0:
259,189,39810,1,0,1:2:0:0:
257,193,39888,1,8,0:0:0:0:
257,193,40044,1,2,1:2:0:0:
257,193,40201,1,14,0:0:0:0:
257,193,40357,1,2,1:2:0:0:
257,193,40669,1,2,1:2:0:0:
259,189,40826,1,10,0:0:0:0:
257,193,41138,1,14,1:2:0:0:
257,193,41294,1,2,0:0:0:0:
257,193,41607,1,2,1:2:0:0:
259,189,41763,1,10,0:0:0:0:
257,193,42076,1,10,0:0:0:0:
257,193,42388,1,10,0:0:0:0:
259,189,42701,1,2,1:2:0:0:
257,193,42857,1,2,1:2:0:0:
257,193,43013,1,10,0:0:0:0:
257,193,43169,1,2,1:2:0:0:
257,193,43326,1,2,1:2:0:0:
259,189,43482,1,2,1:2:0:0:
259,189,43638,1,10,0:0:0:0:
257,193,43794,1,2,1:2:0:0:
257,193,43951,1,2,1:2:0:0:
257,193,44107,1,2,1:2:0:0:
257,193,44263,1,10,1:2:0:0:
259,189,44419,1,10,1:2:0:0:
259,189,44576,1,2,1:2:0:0:
257,193,44888,1,2,0:0:0:0:
261,190,45201,1,4,0:0:0:0:
259,189,45513,1,10,0:0:0:0:
257,193,45826,1,2,1:2:0:0:
261,190,45982,1,0,1:2:0:0:
261,190,46138,1,10,0:0:0:0:
259,189,46451,1,2,1:2:0:0:
257,193,46763,1,8,0:0:0:0:
261,190,47076,1,0,1:2:0:0:
259,189,47232,1,2,1:2:0:0:
259,189,47388,1,10,0:0:0:0:
257,193,47544,1,2,1:2:0:0:
261,190,47857,1,2,1:2:0:0:
261,190,48013,1,10,0:0:0:0:
259,189,48169,1,2,0:0:0:0:
259,189,48326,1,2,1:2:0:0:
257,193,48482,1,2,1:2:0:0:
261,190,48638,1,8,0:0:0:0:
261,190,48794,1,6,1:2:0:0:
259,189,49107,1,4,1:2:0:0:
259,189,49263,1,8,0:0:0:0:
257,193,49419,1,6,1:2:0:0:
261,190,49732,1,6,1:2:0:0:
259,189,49888,1,8,0:0:0:0:
259,189,50044,1,0,1:2:0:0:
259,189,50122,1,0,1:2:0:0:
259,189,50201,1,4,1:2:0:0:
261,190,50513,1,8,0:0:0:0:
259,189,50826,1,2,1:2:0:0:
259,189,50982,1,0,1:2:0:0:
259,189,51138,1,8,0:0:0:0:
261,190,51451,1,4,1:2:0:0:
259,189,51763,1,10,0:0:0:0:
259,189,52076,1,2,1:2:0:0:
261,190,52232,1,0,1:2:0:0:
261,190,52388,1,8,0:0:0:0:
259,189,52701,1,4,1:2:0:0:
259,189,53013,1,8,0:0:0:0:
261,190,53326,1,2,1:2:0:0:
259,189,53482,1,2,1:2:0:0:
259,189,53638,1,10,0:0:0:0:
259,189,53794,1,6,1:2:0:0:
261,190,54107,1,2,1:2:0:0:
261,190,54263,1,10,0:0:0:0:
259,189,54576,1,2,1:2:0:0:
261,190,54888,1,8,0:0:0:0:
261,190,54966,1,8,0:0:0:0:
261,190,55044,1,8,0:0:0:0:
261,190,55122,1,8,0:0:0:0:
261,190,55201,1,4,1:2:0:0:
259,189,55513,1,10,0:0:0:0:
255,192,55826,1,2,1:2:0:0:
255,192,55982,1,0,1:2:0:0:
255,192,56138,1,8,0:0:0:0:
259,189,56294,1,6,1:2:0:0:
255,192,56607,1,2,1:2:0:0:
255,192,56763,1,8,0:0:0:0:
255,192,57076,1,2,1:2:0:0:
259,189,57232,1,0,1:2:0:0:
255,192,57388,1,10,0:0:0:0:
255,192,57701,1,4,1:2:0:0:
255,192,58013,1,8,0:0:0:0:
255,192,58326,1,2,1:2:0:0:
255,192,58482,1,2,1:2:0:0:
255,192,58638,1,10,0:0:0:0:
255,192,58794,1,6,1:2:0:0:
255,192,59107,1,2,1:2:0:0:
255,192,59263,1,8,0:0:0:0:
255,192,59419,1,2,1:2:0:0:
255,192,59732,1,2,1:2:0:0:
255,192,59888,1,8,0:0:0:0:
255,192,59966,1,8,0:0:0:0:
255,192,60044,1,0,1:2:0:0:
255,192,60201,1,10,0:0:0:0:
255,192,60357,1,10,0:0:0:0:
255,192,60513,1,10,0:0:0:0:
255,192,60669,1,10,0:0:0:0:
255,192,60982,1,10,0:0:0:0:
255,192,61138,1,10,0:0:0:0:
255,192,61294,1,10,0:0:0:0:
255,192,61451,1,10,0:0:0:0:
255,192,61607,1,10,0:0:0:0:
255,192,61919,1,10,0:0:0:0:
255,192,62076,1,10,0:0:0:0:
255,192,62232,1,10,0:0:0:0:
255,192,62310,1,8,0:0:0:0:
255,192,62388,1,10,0:0:0:0:
255,192,62544,1,10,0:0:0:0:
255,192,62701,1,2,1:2:0:0:
255,192,62857,1,2,1:2:0:0:
255,192,63013,1,2,1:2:0:0:
255,192,63169,1,2,1:2:0:0:
255,192,63326,1,2,1:2:0:0:
255,192,63482,1,2,1:2:0:0:
255,192,63638,1,2,1:2:0:0:
255,192,63794,1,2,1:2:0:0:
255,192,63951,1,2,1:2:0:0:
255,192,64107,1,2,1:2:0:0:
255,192,64263,1,2,1:2:0:0:
255,192,64419,1,2,1:2:0:0:
255,192,64576,1,2,1:2:0:0:
255,192,64732,1,2,1:2:0:0:
255,192,64888,1,8,0:0:0:0:
255,192,64966,1,8,0:0:0:0:
255,192,65044,1,8,0:0:0:0:
255,192,65122,1,8,0:0:0:0:
255,192,65201,1,4,1:2:0:0:
255,192,65513,1,8,0:0:0:0:
255,192,65826,1,2,1:2:0:0:
255,192,65982,1,0,1:2:0:0:
255,192,66138,1,8,0:0:0:0:
255,192,66451,1,2,1:2:0:0:
255,192,66763,1,8,0:0:0:0:
255,192,67076,1,0,1:2:0:0:
255,192,67232,1,2,1:2:0:0:
255,192,67388,1,10,0:0:0:0:
255,192,67544,1,2,1:2:0:0:
255,192,67857,1,2,1:2:0:0:
255,192,68013,1,10,0:0:0:0:
255,192,68169,1,2,0:0:0:0:
255,192,68326,1,2,1:2:0:0:
255,192,68482,1,2,1:2:0:0:
255,192,68638,1,8,0:0:0:0:
255,192,68794,1,6,1:2:0:0:
255,192,69107,1,6,1:2:0:0:
255,192,69263,1,8,0:0:0:0:
255,192,69419,1,6,1:2:0:0:
255,192,69732,1,6,1:2:0:0:
255,192,69888,1,8,0:0:0:0:
255,192,70044,1,0,1:2:0:0:
255,192,70122,1,0,1:2:0:0:
255,192,70201,1,6,1:2:0:0:
255,192,70513,1,10,0:0:0:0:
255,192,70826,1,2,1:2:0:0:
255,192,70982,1,0,1:2:0:0:
255,192,71138,1,10,0:0:0:0:
255,192,71451,1,6,1:2:0:0:
255,192,71763,1,10,0:0:0:0:
255,192,72076,1,2,1:2:0:0:
255,192,72232,1,0,1:2:0:0:
255,192,72388,1,10,0:0:0:0:
249,187,72701,1,4,1:2:0:0:
249,187,73013,1,8,0:0:0:0:
249,187,73326,1,2,1:2:0:0:
249,187,73482,1,0,1:2:0:0:
249,187,73638,1,8,0:0:0:0:
249,187,73794,1,2,1:2:0:0:
249,187,73951,1,2,0:0:0:0:
249,187,74263,1,8,0:0:0:0:
254,192,74419,1,0,0:0:0:0:
249,187,74576,1,2,1:2:0:0:
249,187,74732,1,0,0:0:0:0:
249,187,74888,1,8,0:0:0:0:
249,187,74966,1,8,0:0:0:0:
249,187,75044,1,8,0:0:0:0:
249,187,75122,1,8,0:0:0:0:
249,187,75201,1,4,1:2:0:0:
249,187,75513,1,10,0:0:0:0:
249,187,75826,1,2,1:2:0:0:
249,187,76138,1,10,0:0:0:0:
249,187,76294,1,4,1:2:0:0:
249,187,76607,1,0,1:2:0:0:
249,187,76763,1,8,0:0:0:0:
249,187,77076,1,2,1:2:0:0:
249,187,77388,1,10,0:0:0:0:
249,187,77701,1,4,1:2:0:0:
249,187,78013,1,8,0:0:0:0:
249,187,78326,1,2,1:2:0:0:
249,187,78482,1,2,1:2:0:0:
249,187,78638,1,10,0:0:0:0:
249,187,78794,1,6,1:2:0:0:
249,187,79107,1,2,1:2:0:0:
249,187,79263,1,8,0:0:0:0:
249,187,79419,1,2,1:2:0:0:
249,187,79732,1,2,1:2:0:0:
249,187,80044,1,0,0:0:0:0:
249,187,80201,1,6,1:2:0:0:
249,187,80357,1,2,0:0:0:0:
249,187,80513,1,8,0:0:0:0:
249,187,80669,1,2,1:2:0:0:
249,187,80982,1,2,1:2:0:0:
249,187,81138,1,8,0:0:0:0:
249,187,81216,1,8,0:0:0:0:
249,187,81294,1,6,1:2:0:0:
249,187,81607,1,0,1:2:0:0:
249,187,81763,1,8,0:0:0:0:
249,187,82076,1,0,1:2:0:0:
249,187,82388,1,10,0:0:0:0:
249,187,82701,1,10,1:2:0:0:
249,187,82857,1,10,0:0:0:0:
249,187,83013,1,8,1:2:0:0:
249,187,83169,1,10,0:0:0:0:
249,187,83326,1,8,1:2:0:0:
249,187,83482,1,10,0:0:0:0:
249,187,83638,1,8,1:2:0:0:
249,187,83794,1,14,0:0:0:0:
249,187,84107,1,10,1:2:0:0:
249,187,84263,1,10,0:0:0:0:
249,187,84419,1,8,1:2:0:0:
249,187,84576,1,10,0:0:0:0:
249,187,84732,1,10,0:0:0:0:
249,187,84810,1,8,0:0:0:0:
249,187,84888,1,10,0:0:0:0:
249,187,84966,1,8,0:0:0:0:
249,187,85044,1,4,1:2:0:0:
249,187,85669,1,0,1:2:0:0:
249,187,85747,1,0,1:2:0:0:
249,187,85826,1,6,1:2:0:0:
