osu file format v14

[General]
AudioFilename: audio.mp3
AudioLeadIn: 0
PreviewTime: 44108
Countdown: 0
SampleSet: Soft
StackLeniency: 0.5
Mode: 0
LetterboxInBreaks: 0
WidescreenStoryboard: 0

[Editor]
DistanceSpacing: 0.7
BeatDivisor: 4
GridSize: 8
TimelineZoom: 1.7

[Metadata]
Title:Storyteller (TV Size)
TitleUnicode:Storyteller (TV Size)
Artist:TRUE
ArtistUnicode:TRUE
Creator:kennyistmull
Version:Blob
Source:転生したらスライムだった件 第2期
Tags:TenSura 転スラ slime isekai That Time I Got Reincarnated as a Slime Season 2 Second 2nd Tensei shitara suraimu Datta Ken Opening 3 Three Third 3rd Rimuru Tempest リムル=テンペスト Mikami Satoru 三上 悟 Japanese Anime animation female vocals j pop j-pop jpop 唐沢 美帆 aundy kennyistmull DirtyDevil Kafaka Xushey
BeatmapID:3600083
BeatmapSetID:1759010

[Difficulty]
HPDrainRate:6
CircleSize:4.2
OverallDifficulty:8.5
ApproachRate:9.2
SliderMultiplier:1.5
SliderTickRate:1

[Events]
//Background and Video events
0,0,"storytellerBG.jpg",0,0
//Break Periods
//Storyboard Layer 0 (Background)
//Storyboard Layer 1 (Fail)
//Storyboard Layer 2 (Pass)
//Storyboard Layer 3 (Foreground)
//Storyboard Layer 4 (Overlay)
//Storyboard Sound Samples

[TimingPoints]
201,312.5,4,2,1,60,1,0
201,-100,4,2,1,60,0,0
13013,-142.857142857143,4,2,1,40,0,0
20982,-250.000000000001,4,2,1,40,0,0
22544,-117.647058823529,4,2,1,50,0,0
27544,-105.263157894737,4,2,1,65,0,0
32701,-111.111111111111,4,2,1,55,0,0
40201,-100,4,2,1,60,0,0
42701,-90.9090909090909,4,2,1,70,0,0
44263,-200,4,2,1,30,0,0
44419,-200,4,2,1,30,0,0
44576,-90.9090909090909,4,2,1,50,0,0
44732,-90.9090909090909,4,2,1,5,0,0
44888,-125,4,2,1,40,0,0
45044,-125,4,2,1,5,0,0
45201,-83.3333333333333,4,2,1,70,0,1
60044,-83.3333333333333,4,2,1,70,0,0
62701,-83.3333333333333,4,2,1,50,0,0
63326,-83.3333333333333,4,2,1,60,0,0
63951,-83.3333333333333,4,2,1,70,0,0
64576,-83.3333333333333,4,2,1,80,0,0
65201,-83.3333333333333,4,2,1,70,0,1
82701,-83.3333333333333,4,2,1,70,0,0
85826,-333.333333333333,4,2,1,50,0,0
88638,-333.333333333333,4,2,1,5,0,0

[Colours]
Combo1 : 164,100,240
Combo2 : 230,110,150
Combo3 : 100,200,200
Combo4 : 130,120,255

[HitObjects]
75,83,201,6,0,B|157:65|143:122|229:98,1,150,6|8,1:2|0:0,0:0:0:0:
375,135,669,2,0,P|400:63|335:11,1,150,2|0,1:2|1:2,0:0:0:0:
270,272,1138,1,8,0:0:0:0:
270,272,1294,2,0,B|301:266|333:265|333:265|368:285|368:285|400:284|428:276,1,150,2|0,1:2|1:2,0:0:0:0:
355,172,1763,5,10,0:0:0:0:
301,371,1919,1,0,0:0:0:0:
186,138,2076,2,0,P|179:179|202:215,1,75,2|0,1:2|0:0,0:0:0:0:
93,247,2388,2,0,P|117:281|159:290,1,75,10|0,0:0|0:0,0:0:0:0:
452,332,2701,6,0,B|413:340|376:323|376:323|356:282|303:286,1,150,6|8,1:2|0:0,0:0:0:0:
428,74,3169,2,0,P|424:152|434:238,1,150,2|0,1:2|1:2,0:0:0:0:
295,178,3638,1,8,0:0:0:0:
295,178,3794,2,0,B|251:196|251:196|215:139|266:81,1,150,2|0,1:2|1:2,0:0:0:0:
367,27,4263,5,10,0:0:0:0:
431,165,4419,1,0,0:0:0:0:
251,99,4576,2,0,P|196:102|166:111,1,75,2|0,1:2|0:0,0:0:0:0:
96,208,4888,2,0,P|41:205|11:196,1,75,10|0,0:0|0:0,0:0:0:0:
24,20,5201,6,0,B|115:-3|94:69|194:32,1,150,6|8,1:2|0:0,0:0:0:0:
304,34,5669,2,0,B|327:25|342:0|342:0|335:104,1,150,2|0,1:2|1:2,0:0:0:0:
267,214,6138,1,8,0:0:0:0:
267,214,6294,2,0,P|224:227|180:216,1,75,2|0,1:2|0:0,0:0:0:0:
125,133,6607,1,8,1:2:0:0:
41,310,6763,1,8,0:0:0:0:
41,310,6919,2,0,P|84:323|128:312,1,75,2|0,1:2|0:0,0:0:0:0:
310,141,7232,2,0,P|267:128|223:139,1,75,2|8,1:2|0:0,0:0:0:0:
130,340,7544,5,0,1:2:0:0:
130,340,7622,1,0,1:2:0:0:
130,340,7701,2,0,P|127:254|118:175,1,150,4|8,1:2|0:0,0:0:0:0:
153,43,8169,1,2,1:2:0:0:
153,43,8326,2,0,B|65:20|82:90|-23:53,1,150,2|8,1:2|0:0,0:0:0:0:
288,238,8794,6,0,P|290:193|293:155,1,75,2|0,1:2|0:0,0:0:0:0:
367,60,9107,1,2,1:2:0:0:
425,196,9263,1,8,0:0:0:0:
174,143,9419,2,0,P|132:171|128:203,1,75,2|0,1:2|0:0,0:0:0:0:
23,178,9732,2,0,P|14:226|33:253,1,75,2|8,1:2|0:0,0:0:0:0:
180,281,10044,5,0,1:2:0:0:
86,316,10201,1,10,0:0:0:0:
174,143,10357,1,8,1:2:0:0:
275,302,10513,1,8,0:0:0:0:
252,54,10669,1,10,1:2:0:0:
193,254,10826,1,10,0:0:0:0:
373,108,10982,1,8,1:2:0:0:
438,274,11138,1,8,0:0:0:0:
279,133,11294,6,0,P|281:180|286:236,1,75,10|0,1:2|0:0,0:0:0:0:
163,58,11607,5,10,1:2:0:0:
72,288,11763,1,8,0:0:0:0:
163,80,11919,1,10,1:2:0:0:
207,308,12076,6,0,L|253:305,1,37.5,8|8,1:2|1:2,0:0:0:0:
275,198,12232,2,0,L|321:201,1,37.5,8|8,1:2|1:2,0:0:0:0:
416,327,12388,1,8,1:2:0:0:
400,328,12466,1,8,1:2:0:0:
385,330,12544,1,8,1:2:0:0:
370,331,12622,1,8,1:2:0:0:
355,333,12701,1,12,1:2:0:0:
6,245,13013,6,0,P|44:242|82:241,1,52.4999983978272,2|0,0:0|0:0,0:0:0:0:
65,322,13326,1,2,0:0:0:0:
65,322,13482,2,0,P|102:325|141:325,1,52.4999983978272,2|0,0:0|0:0,0:0:0:0:
191,298,13794,2,0,P|192:264|180:239,1,52.4999983978272,2|0,0:0|0:0,0:0:0:0:
269,247,14107,2,0,P|260:214|242:194,1,52.4999983978272,2|0,0:0|0:0,0:0:0:0:
181,111,14419,2,0,P|180:137|178:164,1,52.4999983978272,2|0,0:0|0:0,0:0:0:0:
256,63,14732,2,0,P|259:99|260:121,1,52.4999983978272,2|0,0:0|0:0,0:0:0:0:
342,106,15044,2,0,P|335:167|333:216,1,104.999996795654,2|0,0:0|0:0,0:0:0:0:
468,354,15513,6,0,P|438:352|407:348,1,52.4999983978272,2|0,0:0|0:0,0:0:0:0:
355,297,15826,1,2,0:0:0:0:
355,297,15982,2,0,P|325:298|295:302,1,52.4999983978272,2|0,0:0|0:0,0:0:0:0:
219,348,16294,2,0,P|226:315|219:279,1,52.4999983978272,2|0,0:0|0:0,0:0:0:0:
149,313,16607,2,0,P|141:280|145:245,1,52.4999983978272,2|0,0:0|0:0,0:0:0:0:
27,204,16919,2,0,P|64:209|89:214,1,52.4999983978272,2|0,0:0|0:0,0:0:0:0:
186,147,17232,2,0,P|148:152|125:157,1,52.4999983978272,2|0,0:0|0:0,0:0:0:0:
40,56,17544,2,0,P|104:63|154:75,1,104.999996795654,2|0,0:0|0:0,0:0:0:0:
264,0,18013,6,0,P|269:38|266:64,1,52.4999983978272,2|0,0:0|0:0,0:0:0:0:
347,56,18326,1,2,0:0:0:0:
347,56,18482,2,0,P|342:95|344:118,1,52.4999983978272,2|0,0:0|0:0,0:0:0:0:
419,167,18794,2,0,P|385:181|351:175,1,52.4999983978272,2|0,0:0|0:0,0:0:0:0:
393,259,19107,2,0,P|357:257|328:238,1,52.4999983978272,2|0,0:0|0:0,0:0:0:0:
278,184,19419,2,0,P|271:219|269:244,1,52.4999983978272,2|0,0:0|0:0,0:0:0:0:
194,251,19732,2,0,P|201:285|201:309,1,52.4999983978272,2|0,0:0|0:0,0:0:0:0:
201,303,20044,1,2,0:0:0:0:
162,111,20201,5,2,1:2:0:0:
90,231,20357,1,2,1:2:0:0:
278,185,20513,1,2,1:2:0:0:
77,142,20669,1,2,1:2:0:0:
179,198,20826,1,2,1:2:0:0:
252,98,20982,2,0,P|268:84|278:66,1,30,2|0,1:2|0:0,0:0:0:0:
352,144,21294,5,2,1:2:0:0:
432,5,21451,1,8,0:0:0:0:
495,229,21607,1,8,0:0:0:0:
495,229,21685,1,8,0:0:0:0:
495,229,21763,1,8,0:0:0:0:
285,29,21919,1,8,0:0:0:0:
193,314,22232,1,8,0:0:0:0:
445,170,22544,2,0,P|372:168|298:176,1,127.50000243187,12|0,0:0|1:2,0:0:0:0:
288,348,23013,6,0,P|294:314|294:270,1,63.7500012159348,10|0,0:0|0:0,0:0:0:0:
240,166,23326,1,2,1:2:0:0:
395,237,23482,2,0,P|429:243|473:243,1,63.7500012159348,2|8,1:2|0:0,0:0:0:0:
351,126,23794,2,0,P|357:92|357:48,1,63.7500012159348,2|0,1:2|0:0,0:0:0:0:
215,22,24107,1,2,1:2:0:0:
104,126,24263,1,10,0:0:0:0:
233,229,24419,2,0,P|239:195|239:151,1,63.7500012159348,2|0,1:2|0:0,0:0:0:0:
97,62,24732,6,0,P|103:96|103:140,2,63.7500012159348,2|8|2,1:2|0:0|1:2,0:0:0:0:
122,253,25201,1,4,1:2:0:0:
212,135,25357,1,0,0:0:0:0:
323,271,25513,6,0,P|328:313|329:343,1,63.7500012159348,10|0,0:0|0:0,0:0:0:0:
432,274,25826,1,2,1:2:0:0:
214,255,25982,2,0,P|219:287|220:319,1,63.7500012159348,2|8,1:2|0:0,0:0:0:0:
111,363,26294,2,0,P|76:374|50:359,1,63.7500012159348,2|0,1:2|0:0,0:0:0:0:
92,204,26607,1,2,1:2:0:0:
214,255,26763,1,8,0:0:0:0:
179,67,26919,2,0,P|169:97|176:128,1,63.7500012159348,2|0,1:2|0:0,0:0:0:0:
309,60,27232,2,0,P|319:30|312:-1,1,63.7500012159348,2|8,1:2|0:0,0:0:0:0:
430,164,27544,5,0,1:2:0:0:
430,164,27622,1,0,1:2:0:0:
430,164,27701,2,0,B|351:141|371:199|283:169,1,142.49999619484,12|8,1:2|0:0,0:0:0:0:
179,67,28169,1,2,1:2:0:0:
179,67,28326,2,0,P|128:114|132:183,1,142.49999619484,2|8,1:2|0:0,0:0:0:0:
306,314,28794,5,2,1:2:0:0:
340,77,28951,2,0,P|344:111|351:148,1,71.2499980974198,10|0,1:2|0:0,0:0:0:0:
467,244,29263,1,10,1:2:0:0:
159,189,29419,2,0,P|193:185|230:178,1,71.2499980974198,2|0,1:2|0:0,0:0:0:0:
197,307,29732,1,2,1:2:0:0:
264,94,29888,2,0,P|229:87|193:83,1,71.2499980974198,6|0,1:2|0:0,0:0:0:0:
47,13,30201,6,0,P|30:50|42:89,1,71.2499980974198,2|0,0:0|0:0,0:0:0:0:
73,203,30513,1,10,0:0:0:0:
130,49,30669,1,0,0:0:0:0:
184,206,30826,1,10,0:0:0:0:
302,94,30982,2,0,P|266:95|231:88,1,71.2499980974198,2|8,0:0|0:0,0:0:0:0:
184,206,31294,2,0,P|256:209|326:196,1,142.49999619484,10|0,0:0|0:0,0:0:0:0:
417,336,31763,2,0,P|381:337|346:330,1,71.2499980974198,14|0,0:0|0:0,0:0:0:0:
386,250,32076,5,2,1:2:0:0:
291,206,32232,1,2,1:2:0:0:
243,303,32388,1,10,0:0:0:0:
243,303,32466,1,8,0:0:0:0:
243,303,32544,1,10,0:0:0:0:
293,139,32701,5,6,1:2:0:0:
293,139,32857,2,0,P|289:175|292:210,1,67.4999979400635,2|8,1:2|0:0,0:0:0:0:
173,112,33169,1,2,1:2:0:0:
64,206,33326,1,0,0:0:0:0:
153,344,33482,2,0,P|172:292|174:252,1,67.4999979400635,2|8,1:2|0:0,0:0:0:0:
234,42,33794,2,0,P|172:19|111:44,1,134.999995880127,2|0,1:2|1:2,0:0:0:0:
185,191,34263,1,8,0:0:0:0:
81,34,34419,1,0,0:0:0:0:
17,161,34576,5,2,1:2:0:0:
17,161,34732,1,2,1:2:0:0:
103,244,34888,1,10,0:0:0:0:
103,244,35044,1,2,1:2:0:0:
15,335,35201,5,6,1:2:0:0:
15,335,35357,2,0,P|52:339|84:334,1,67.4999979400635,2|8,1:2|0:0,0:0:0:0:
191,213,35669,1,2,1:2:0:0:
241,375,35826,1,0,0:0:0:0:
295,250,35982,2,0,P|332:246|364:251,1,67.4999979400635,2|8,1:2|0:0,0:0:0:0:
508,298,36294,2,0,B|475:264|475:264|482:358,1,134.999995880127,2|0,1:2|1:2,0:0:0:0:
427,179,36763,2,0,P|467:167|493:174,1,67.4999979400635,8|0,0:0|0:0,0:0:0:0:
475,78,37076,5,2,1:2:0:0:
475,78,37232,1,2,1:2:0:0:
365,40,37388,1,10,0:0:0:0:
365,40,37544,1,2,1:2:0:0:
289,190,37701,5,6,1:2:0:0:
289,190,37857,2,0,P|293:143|291:116,1,67.4999979400635,2|8,1:2|0:0,0:0:0:0:
222,29,38169,1,2,1:2:0:0:
171,160,38326,1,0,0:0:0:0:
49,68,38482,2,0,P|86:63|121:71,1,67.4999979400635,2|8,1:2|0:0,0:0:0:0:
69,255,38794,2,0,P|70:212|76:176,1,67.4999979400635,2|0,1:2|0:0,0:0:0:0:
149,345,39107,1,2,1:2:0:0:
149,345,39263,2,0,P|190:354|222:344,1,67.4999979400635,10|0,0:0|0:0,0:0:0:0:
173,143,39576,5,2,1:2:0:0:
174,171,39654,1,0,1:2:0:0:
176,200,39732,1,0,1:2:0:0:
178,229,39810,1,0,1:2:0:0:
180,258,39888,1,8,0:0:0:0:
253,71,40044,1,2,1:2:0:0:
282,348,40201,5,14,0:0:0:0:
381,126,40357,2,0,P|372:185|368:218,1,75,2|0,1:2|0:0,0:0:0:0:
512,254,40669,1,2,1:2:0:0:
253,71,40826,2,0,P|263:125|267:158,1,75,10|0,0:0|0:0,0:0:0:0:
148,306,41138,1,14,1:2:0:0:
104,80,41294,2,0,P|67:74|31:90,1,75,2|0,0:0|0:0,0:0:0:0:
123,207,41607,1,2,1:2:0:0:
208,28,41763,2,0,P|243:22|280:37,1,75,10|0,0:0|0:0,0:0:0:0:
294,284,42076,2,0,P|301:226|302:192,1,75,10|0,0:0|0:0,0:0:0:0:
477,41,42388,2,0,P|439:35|402:50,1,75,10|0,0:0|0:0,0:0:0:0:
417,262,42701,5,2,1:2:0:0:
306,109,42857,1,2,1:2:0:0:
130,212,43013,1,10,0:0:0:0:
286,240,43169,5,2,1:2:0:0:
191,63,43326,1,2,1:2:0:0:
116,350,43482,1,2,1:2:0:0:
49,95,43638,5,10,0:0:0:0:
296,147,43794,1,2,1:2:0:0:
33,252,43951,1,2,1:2:0:0:
315,147,44107,1,2,1:2:0:0:
147,16,44263,6,0,P|144:43|149:67,1,37.5,10|10,1:2|1:2,0:0:0:0:
142,240,44576,2,0,P|170:204|170:157,1,82.5000025177003,2|0,1:2|0:0,0:0:0:0:
306,103,44888,2,0,P|281:89|242:99,1,60,2|0,0:0|0:0,0:0:0:0:
359,345,45201,6,0,P|363:289|365:205,1,134.999995880127,4|0,0:0|0:0,0:0:0:0:
483,47,45513,2,0,P|433:36|385:58,1,89.9999972534181,10|0,0:0|0:0,0:0:0:0:
261,195,45826,1,2,1:2:0:0:
239,36,45982,1,0,1:2:0:0:
421,218,46138,2,0,P|426:169|437:119,1,89.9999972534181,10|0,0:0|0:0,0:0:0:0:
302,290,46451,6,0,P|256:307|206:289,1,89.9999972534181,2|0,1:2|0:0,0:0:0:0:
23,171,46763,2,0,P|66:158|111:173,1,89.9999972534181,8|0,0:0|0:0,0:0:0:0:
66,308,47076,1,0,1:2:0:0:
210,25,47232,5,2,1:2:0:0:
261,217,47388,1,10,0:0:0:0:
417,82,47544,2,0,B|380:80|345:83|345:83|314:112|314:112|270:119|221:120,1,179.999994506836,2|2,1:2|1:2,0:0:0:0:
120,27,48013,1,10,0:0:0:0:
154,234,48169,1,2,0:0:0:0:
134,48,48326,1,2,1:2:0:0:
1,142,48482,2,0,P|46:147|91:148,1,89.9999972534181,2|8,1:2|0:0,0:0:0:0:
300,129,48794,6,0,P|306:73|244:37,1,134.999995880127,6|0,1:2|0:0,0:0:0:0:
249,216,49107,2,0,P|299:232|346:216,1,89.9999972534181,4|8,1:2|0:0,0:0:0:0:
489,157,49419,1,6,1:2:0:0:
414,32,49576,1,0,0:0:0:0:
338,312,49732,2,0,P|333:252|334:212,1,89.9999972534181,6|8,1:2|0:0,0:0:0:0:
250,96,50044,5,0,1:2:0:0:
250,96,50122,1,0,1:2:0:0:
250,96,50201,2,0,P|183:75|126:113,1,134.999995880127,4|0,1:2|0:0,0:0:0:0:
24,139,50513,2,0,P|22:94|17:49,1,89.9999972534181,8|0,0:0|0:0,0:0:0:0:
202,189,50826,1,2,1:2:0:0:
24,268,50982,1,0,1:2:0:0:
326,313,51138,2,0,B|223:276|244:356|153:322,1,179.999994506836,8|4,0:0|1:2,0:0:0:0:
115,178,51607,1,0,0:0:0:0:
237,37,51763,6,0,P|237:99|243:177,1,134.999995880127,10|0,0:0|0:0,0:0:0:0:
268,198,52076,2,0,P|312:213|358:187,1,89.9999972534181,2|0,1:2|1:2,0:0:0:0:
441,39,52388,1,8,0:0:0:0:
476,171,52544,1,0,0:0:0:0:
240,115,52701,2,0,P|280:113|338:106,1,89.9999972534181,4|0,1:2|0:0,0:0:0:0:
449,273,53013,2,0,P|409:271|351:264,1,89.9999972534181,8|0,0:0|0:0,0:0:0:0:
147,338,53326,5,2,1:2:0:0:
206,163,53482,1,2,1:2:0:0:
284,362,53638,1,10,0:0:0:0:
125,95,53794,2,0,P|202:54|284:87,1,179.999994506836,6|2,1:2|1:2,0:0:0:0:
38,350,54263,2,0,P|40:304|51:210,1,134.999995880127,10|0,0:0|0:0,0:0:0:0:
71,196,54576,2,0,P|113:182|155:196,1,89.9999972534181,2|0,1:2|0:0,0:0:0:0:
282,355,54888,5,8,0:0:0:0:
303,325,54966,1,8,0:0:0:0:
314,290,55044,1,8,0:0:0:0:
310,254,55122,1,8,0:0:0:0:
290,223,55201,2,0,P|267:170|279:132,1,89.9999972534181,4|0,1:2|0:0,0:0:0:0:
461,32,55513,6,0,P|392:25|364:89,1,134.999995880127,10|0,0:0|0:0,0:0:0:0:
472,217,55826,2,0,P|479:168|471:123,1,89.9999972534181,2|0,1:2|1:2,0:0:0:0:
281,23,56138,1,8,0:0:0:0:
211,136,56294,2,0,B|165:187|218:250|218:250|270:223,1,179.999994506836,6|2,1:2|1:2,0:0:0:0:
393,235,56763,6,0,P|430:291|396:348,1,134.999995880127,8|0,0:0|0:0,0:0:0:0:
265,225,57076,2,0,P|275:176|295:131,1,89.9999972534181,2|0,1:2|1:2,0:0:0:0:
131,233,57388,1,10,0:0:0:0:
99,47,57544,1,0,0:0:0:0:
290,139,57701,2,0,P|240:137|188:127,1,89.9999972534181,4|0,1:2|0:0,0:0:0:0:
393,34,58013,2,0,P|443:32|495:22,1,89.9999972534181,8|0,0:0|0:0,0:0:0:0:
462,317,58326,5,2,1:2:0:0:
425,123,58482,1,2,1:2:0:0:
458,339,58638,1,10,0:0:0:0:
316,135,58794,2,0,P|237:106|173:167,1,179.999994506836,6|2,1:2|1:2,0:0:0:0:
105,261,59263,1,8,0:0:0:0:
82,40,59419,2,0,P|78:88|85:141,1,89.9999972534181,2|0,1:2|0:0,0:0:0:0:
270,337,59732,2,0,P|274:289|267:236,1,89.9999972534181,2|8,1:2|0:0,0:0:0:0:
259,219,59966,1,8,0:0:0:0:
259,219,60044,1,0,1:2:0:0:
350,87,60201,5,10,0:0:0:0:
370,315,60357,1,10,0:0:0:0:
484,51,60513,1,10,0:0:0:0:
479,302,60669,1,10,0:0:0:0:
479,302,60982,5,10,0:0:0:0:
199,217,61138,1,10,0:0:0:0:
464,144,61294,1,10,0:0:0:0:
268,40,61451,1,10,0:0:0:0:
346,293,61607,1,10,0:0:0:0:
346,293,61919,5,10,0:0:0:0:
268,40,62076,1,10,0:0:0:0:
183,294,62232,1,10,0:0:0:0:
130,24,62388,1,10,0:0:0:0:
36,296,62544,1,10,0:0:0:0:
148,164,62701,5,2,1:2:0:0:
183,294,62857,1,2,1:2:0:0:
362,99,63013,1,2,1:2:0:0:
327,229,63169,1,2,1:2:0:0:
142,145,63326,5,2,1:2:0:0:
179,315,63482,1,2,1:2:0:0:
374,78,63638,1,2,1:2:0:0:
333,255,63794,1,2,1:2:0:0:
219,77,63951,5,2,1:2:0:0:
501,161,64107,1,2,1:2:0:0:
235,89,64263,1,2,1:2:0:0:
384,340,64419,5,2,1:2:0:0:
471,61,64576,1,2,1:2:0:0:
397,323,64732,1,2,1:2:0:0:
305,206,64888,5,8,0:0:0:0:
272,210,64966,1,8,0:0:0:0:
239,216,65044,1,8,0:0:0:0:
206,220,65122,1,8,0:0:0:0:
173,226,65201,6,0,P|104:233|40:248,1,134.999995880127,4|0,1:2|0:0,0:0:0:0:
31,288,65513,2,0,P|31:333|70:356,1,89.9999972534181,8|0,0:0|0:0,0:0:0:0:
127,138,65826,1,2,1:2:0:0:
199,322,65982,1,0,1:2:0:0:
323,205,66138,2,0,P|273:196|227:221,1,89.9999972534181,8|0,0:0|0:0,0:0:0:0:
370,342,66451,2,0,P|420:351|466:326,1,89.9999972534181,2|0,1:2|0:0,0:0:0:0:
496,148,66763,2,0,P|492:206|496:250,1,89.9999972534181,8|0,0:0|0:0,0:0:0:0:
295,206,67076,1,0,1:2:0:0:
374,82,67232,5,2,1:2:0:0:
413,270,67388,1,10,0:0:0:0:
445,32,67544,2,0,P|364:0|289:43,1,179.999994506836,2|2,1:2|1:2,0:0:0:0:
257,207,68013,1,10,0:0:0:0:
200,23,68169,1,2,0:0:0:0:
144,220,68326,1,2,1:2:0:0:
95,32,68482,2,0,P|52:22|9:37,1,89.9999972534181,2|8,1:2|0:0,0:0:0:0:
40,255,68794,6,0,P|26:186|64:135,1,134.999995880127,6|0,1:2|0:0,0:0:0:0:
263,152,69107,2,0,P|277:193|271:238,1,89.9999972534181,6|8,1:2|0:0,0:0:0:0:
137,302,69419,1,6,1:2:0:0:
163,97,69576,1,0,0:0:0:0:
460,200,69732,2,0,P|409:209|371:212,1,89.9999972534181,6|8,1:2|0:0,0:0:0:0:
283,19,70044,5,0,1:2:0:0:
283,19,70122,1,0,1:2:0:0:
283,19,70201,2,0,P|279:74|263:154,1,134.999995880127,6|0,1:2|0:0,0:0:0:0:
178,307,70513,2,0,P|132:314|96:293,1,89.9999972534181,10|0,0:0|0:0,0:0:0:0:
162,195,70826,1,2,1:2:0:0:
322,305,70982,1,0,1:2:0:0:
295,166,71138,2,0,B|313:50|313:50|316:95|343:115,1,179.999994506836,10|6,0:0|1:2,0:0:0:0:
428,55,71607,1,0,0:0:0:0:
195,197,71763,6,0,P|126:233|58:207,1,134.999995880127,10|0,0:0|0:0,0:0:0:0:
112,8,72076,2,0,P|119:54|120:100,1,89.9999972534181,2|0,1:2|1:2,0:0:0:0:
73,219,72388,1,10,0:0:0:0:
165,335,72544,1,0,0:0:0:0:
280,199,72701,2,0,P|232:186|193:197,1,89.9999972534181,4|0,1:2|0:0,0:0:0:0:
355,362,73013,2,0,P|358:317|363:272,1,89.9999972534181,8|0,0:0|0:0,0:0:0:0:
406,84,73326,2,0,P|447:54|443:134,1,179.999994506836,2|8,1:2|0:0,0:0:0:0:
260,119,73794,1,2,1:2:0:0:
317,310,73951,6,0,P|323:266|326:218,1,89.9999972534181,2|0,0:0|0:0,0:0:0:0:
241,24,74263,1,8,0:0:0:0:
182,247,74419,1,0,0:0:0:0:
125,117,74576,2,0,P|83:102|39:111,1,89.9999972534181,2|0,1:2|0:0,0:0:0:0:
290,217,74888,5,8,0:0:0:0:
325,220,74966,1,8,0:0:0:0:
360,224,75044,1,8,0:0:0:0:
395,228,75122,1,8,0:0:0:0:
430,234,75201,2,0,P|439:287|419:318,1,89.9999972534181,4|0,1:2|0:0,0:0:0:0:
437,129,75513,6,0,P|428:76|487:26,1,134.999995880127,10|0,0:0|0:0,0:0:0:0:
313,21,75826,2,0,P|260:12|229:32,1,89.9999972534181,2|0,1:2|0:0,0:0:0:0:
135,102,76138,1,10,0:0:0:0:
288,131,76294,2,0,B|336:200|288:252|288:252|233:227,1,179.999994506836,4|0,1:2|1:2,0:0:0:0:
45,55,76763,6,0,P|27:104|71:176,1,134.999995880127,8|0,0:0|0:0,0:0:0:0:
155,241,77076,2,0,P|213:236|250:231,1,89.9999972534181,2|0,1:2|0:0,0:0:0:0:
152,132,77388,1,10,0:0:0:0:
32,253,77544,1,0,0:0:0:0:
164,330,77701,2,0,P|159:272|154:235,1,89.9999972534181,4|0,1:2|0:0,0:0:0:0:
289,83,78013,2,0,P|284:141|279:178,1,89.9999972534181,8|0,0:0|0:0,0:0:0:0:
328,330,78326,5,2,1:2:0:0:
369,140,78482,1,2,1:2:0:0:
441,349,78638,1,10,0:0:0:0:
289,83,78794,2,0,P|368:45|451:86,1,179.999994506836,6|2,1:2|1:2,0:0:0:0:
158,25,79263,1,8,0:0:0:0:
184,241,79419,2,0,P|192:193|194:150,1,89.9999972534181,2|0,1:2|0:0,0:0:0:0:
27,329,79732,6,0,B|126:300|106:380|204:349,1,179.999994506836,2|0,1:2|0:0,0:0:0:0:
80,149,80201,1,6,1:2:0:0:
267,224,80357,2,0,P|221:245|170:234,1,89.9999972534181,2|8,0:0|0:0,0:0:0:0:
248,88,80669,2,0,P|292:84|331:104,1,89.9999972534181,2|0,1:2|0:0,0:0:0:0:
406,242,80982,1,2,1:2:0:0:
498,60,81138,5,8,0:0:0:0:
498,60,81216,1,8,0:0:0:0:
498,60,81294,2,0,B|462:58|427:65|427:65|395:98|395:98|361:106|328:105,1,179.999994506836,6|0,1:2|1:2,0:0:0:0:
167,56,81763,2,0,P|146:99|169:143,1,89.9999972534181,8|0,0:0|0:0,0:0:0:0:
58,157,82076,2,0,P|69:203|115:222,1,89.9999972534181,0|0,1:2|0:0,0:0:0:0:
340,212,82388,6,0,P|278:219|195:210,1,134.999995880127,10|0,0:0|0:0,0:0:0:0:
145,283,82701,1,10,1:2:0:0:
216,40,82857,1,10,0:0:0:0:
283,292,83013,1,8,1:2:0:0:
71,124,83169,1,10,0:0:0:0:
341,194,83326,1,8,1:2:0:0:
67,156,83482,1,10,0:0:0:0:
355,80,83638,1,8,1:2:0:0:
205,219,83794,6,0,P|213:125|216:37,1,179.999994506836,14|10,0:0|1:2,0:0:0:0:
360,241,84263,1,10,0:0:0:0:
397,10,84419,1,8,1:2:0:0:
383,221,84576,1,10,0:0:0:0:
253,11,84732,2,0,L|257:65,1,44.999998626709,10|8,0:0|0:0,0:0:0:0:
184,262,84888,2,0,L|188:208,1,44.999998626709,10|8,0:0|0:0,0:0:0:0:
119,100,85044,1,4,1:2:0:0:
460,151,85669,5,0,1:2:0:0:
460,151,85747,1,0,1:2:0:0:
460,151,85826,2,0,B|389:131|322:167|363:189|298:230|234:203|196:154|196:154|228:92|286:89,1,404.999987640381,6|0,1:2|0:0,0:0:0:0:
