osu file format v14

[General]
AudioFilename: audio.mp3
AudioLeadIn: 0
PreviewTime: 44225
Countdown: 0
SampleSet: Soft
StackLeniency: 0.7
Mode: 0
LetterboxInBreaks: 0
WidescreenStoryboard: 1

[Editor]
DistanceSpacing: 1.4
BeatDivisor: 4
GridSize: 8
TimelineZoom: 2.3

[Metadata]
Title:Storyteller (TV Size)
TitleUnicode:Storyteller (TV Size)
Artist:TRUE
ArtistUnicode:TRUE
Creator:Soue
Version:Hard
Source:転生したらスライムだった件 第2期
Tags:TenSura 転スラ slime isekai That Time I Got Reincarnated as a Slime Season 2 Second 2nd Tensei shitara Slime suraimu Datta Ken Opening 3 Three Third 3rd Rimuru Tempest リムル=テンペスト Mikami Satoru 三上 悟 Japanese Anime animation female vocals j pop j-pop jpop 唐沢 美帆 Miho Karasawa Lantis Stack
BeatmapID:2783902
BeatmapSetID:1342479

[Difficulty]
HPDrainRate:4.8
CircleSize:3.6
OverallDifficulty:6.4
ApproachRate:7.4
SliderMultiplier:1.4
SliderTickRate:1

[Events]
//Background and Video events
0,0,"background.jpg",0,0
Video,-683,"video.mp4"
//Break Periods
2,12902,20613
//Storyboard Layer 0 (Background)
//Storyboard Layer 1 (Fail)
//Storyboard Layer 2 (Pass)
//Storyboard Layer 3 (Foreground)
//Storyboard Layer 4 (Overlay)
//Storyboard Sound Samples

[TimingPoints]
202,312.5,4,2,1,60,1,0
202,-90.9090909090909,4,2,1,60,0,0
12702,-125,4,2,1,30,0,0
21452,-166.666666666667,4,2,1,40,0,0
22545,-111.111111111111,4,2,1,50,0,0
40202,-111.111111111111,4,2,1,50,0,0
42077,-90.9090909090908,4,2,1,60,0,0
42311,-90.9090909090908,4,2,1,5,0,0
42389,-90.9090909090908,4,2,1,60,0,0
42623,-90.9090909090908,4,2,1,5,0,0
42702,-100,4,2,1,60,0,0
44264,-125,4,2,1,60,0,0
44498,-125,4,2,1,5,0,0
44577,-166.666666666667,4,2,1,60,0,0
44811,-166.666666666667,4,2,1,5,0,0
44889,-166.666666666667,4,2,1,60,0,0
45123,-250.000000000001,4,2,1,5,0,0
45202,-83.3333333333333,4,2,1,70,0,1
45436,-83.3333333333333,4,2,1,5,0,1
45514,-83.3333333333333,4,2,1,70,0,1
46373,-83.3333333333333,4,2,1,5,0,1
46452,-83.3333333333333,4,2,1,70,0,1
49030,-83.3333333333333,4,2,1,5,0,1
49108,-83.3333333333333,4,2,1,70,0,1
49342,-83.3333333333333,4,2,1,5,0,1
49420,-83.3333333333333,4,2,1,70,0,1
49655,-83.3333333333333,4,2,1,5,0,1
49733,-83.3333333333333,4,2,1,70,0,1
51061,-83.3333333333333,4,2,1,5,0,1
51139,-83.3333333333333,4,2,1,70,0,1
60202,-90.9090909090909,4,2,1,70,0,0
62702,-83.3333333333333,4,2,1,60,0,0
63327,-83.3333333333333,4,2,1,70,0,0
63952,-83.3333333333333,4,2,1,80,0,0
64264,-76.9230769230769,4,2,1,80,0,0
64577,-71.4285714285714,4,2,1,90,0,0
64889,-66.6666666666667,4,2,1,90,0,0
65202,-83.3333333333333,4,2,1,70,0,1
65436,-83.3333333333333,4,2,1,5,0,1
65514,-83.3333333333333,4,2,1,70,0,1
69030,-83.3333333333333,4,2,1,5,0,1
69108,-83.3333333333333,4,2,1,70,0,1
69342,-83.3333333333333,4,2,1,5,0,1
69420,-83.3333333333333,4,2,1,70,0,1
69655,-83.3333333333333,4,2,1,5,0,1
69733,-83.3333333333333,4,2,1,70,0,1
70436,-83.3333333333333,4,2,1,5,0,1
70514,-83.3333333333333,4,2,1,70,0,1
72311,-83.3333333333333,4,2,1,5,0,1
72389,-83.3333333333333,4,2,1,70,0,1
75436,-83.3333333333333,4,2,1,5,0,1
75514,-83.3333333333333,4,2,1,70,0,1
77623,-83.3333333333333,4,2,1,5,0,1
77702,-83.3333333333333,4,2,1,70,0,1
84030,-83.3333333333333,4,2,1,5,0,1
84108,-83.3333333333333,4,2,1,70,0,1
85202,-111.111111111111,4,2,1,50,0,0
85827,-250,4,2,1,70,0,0
88483,-250,4,2,1,5,0,0

[Colours]
Combo1 : 254,218,73
Combo2 : 140,206,255
Combo3 : 127,127,127

[HitObjects]
269,337,45,5,8,0:0:0:0:
278,345,123,1,8,0:0:0:0:
278,345,202,2,0,L|430:316,1,154.000004699707,6|8,1:2|0:0,0:0:0:0:
496,241,670,2,0,P|522:171|479:100,1,154.000004699707,2|0,1:2|1:2,0:0:0:0:
406,58,1139,1,8,0:0:0:0:
334,115,1295,6,0,P|278:140|189:106,1,154.000004699707,2|0,1:2|1:2,0:0:0:0:
107,59,1764,2,0,L|180:11,1,77.0000023498536,10|0,0:0|0:0,0:0:0:0:
105,159,2077,2,0,L|27:119,1,77.0000023498536,2|0,1:2|1:2,0:0:0:0:
194,111,2389,2,0,L|199:198,1,77.0000023498536,10|8,0:0|0:0,0:0:0:0:
313,226,2702,6,0,L|303:70,1,154.000004699707,6|8,1:2|0:0,0:0:0:0:
390,100,3170,2,0,L|399:255,1,154.000004699707,2|0,1:2|1:2,0:0:0:0:
321,304,3639,1,8,0:0:0:0:
260,374,3795,6,0,P|227:307|261:236,1,154.000004699707,2|0,1:2|1:2,0:0:0:0:
336,169,4264,2,0,P|361:210|359:249,1,77.0000023498536,10|0,0:0|0:0,0:0:0:0:
242,141,4577,2,0,P|265:98|299:81,1,77.0000023498536,2|0,1:2|1:2,0:0:0:0:
257,239,4889,2,0,P|208:240|176:218,1,77.0000023498536,10|8,0:0|0:0,0:0:0:0:
100,150,5202,6,0,P|66:203|87:286,1,154.000004699707,6|8,1:2|0:0,0:0:0:0:
155,349,5670,2,0,B|218:336|218:336|254:349|254:349|310:336,1,154.000004699707,2|0,1:2|1:2,0:0:0:0:
393,363,6139,1,8,0:0:0:0:
445,287,6295,6,0,P|458:237|444:200,1,77.0000023498536,2|0,1:2|0:0,0:0:0:0:
382,150,6608,1,10,0:0:0:0:
432,72,6764,1,8,0:0:0:0:
360,14,6920,2,0,L|276:31,1,77.0000023498536,2|0,1:2|0:0,0:0:0:0:
232,106,7233,2,0,L|148:89,1,77.0000023498536,2|8,1:2|0:0,0:0:0:0:
103,0,7545,5,8,0:0:0:0:
103,0,7623,1,8,0:0:0:0:
103,0,7702,2,0,P|46:42|41:127,1,154.000004699707,6|8,1:2|0:0,0:0:0:0:
112,183,8170,1,2,0:0:0:0:
112,183,8327,2,0,L|264:213,1,154.000004699707,2|8,1:2|0:0,0:0:0:0:
413,196,8795,6,0,B|372:199|372:199|345:222,1,77.0000023498536,2|0,1:2|0:0,0:0:0:0:
401,349,9108,2,0,B|418:311|418:311|411:276,1,77.0000023498536,2|8,1:2|0:0,0:0:0:0:
272,260,9420,2,0,B|295:294|295:294|330:305,1,77.0000023498536,2|0,1:2|0:0,0:0:0:0:
428,186,9733,2,0,L|277:155,1,154.000004699707,2|8,1:2|0:0,0:0:0:0:
172,89,10202,6,0,L|322:58,1,154.000004699707,6|8,1:2|0:0,0:0:0:0:
418,50,10670,1,2,1:2:0:0:
418,50,10827,2,0,P|451:98|425:188,1,154.000004699707,2|8,1:2|0:0,0:0:0:0:
368,256,11295,6,0,L|274:230,1,77.0000023498536,2|0,1:2|0:0,0:0:0:0:
233,164,11608,2,0,L|139:190,1,77.0000023498536,2|8,1:2|0:0,0:0:0:0:
122,269,11920,2,0,L|216:295,1,77.0000023498536,2|8,1:2|0:0,0:0:0:0:
244,368,12233,2,0,P|282:322|268:226,1,154.000004699707,2|8,1:2|0:0,0:0:0:0:
251,215,12623,1,8,0:0:0:0:
251,215,12702,1,0,1:2:0:0:
91,202,21452,6,0,L|95:152,1,41.9999987182618,6|10,1:2|0:0,0:0:0:0:
99,122,21686,1,8,0:0:0:0:
99,122,21764,1,0,1:2:0:0:
188,62,21920,5,10,0:0:0:0:
314,154,22233,5,10,0:0:0:0:
442,57,22545,6,0,P|467:104|450:185,1,125.999996154785,6|0,1:2|1:2,0:0:0:0:
403,236,23014,2,0,L|413:312,1,62.9999980773926,10|0,0:0|0:0,0:0:0:0:
335,323,23327,1,2,1:2:0:0:
335,323,23483,2,0,L|325:247,1,62.9999980773926,2|8,1:2|0:0,0:0:0:0:
265,206,23795,6,0,P|230:199|199:207,1,62.9999980773926,2|0,1:2|0:0,0:0:0:0:
126,177,24108,2,0,P|119:212|127:243,1,62.9999980773926,2|8,1:2|0:0,0:0:0:0:
95,314,24420,2,0,P|130:321|161:313,1,62.9999980773926,2|0,1:2|0:0,0:0:0:0:
234,340,24733,2,0,P|241:305|233:274,1,62.9999980773926,2|8,1:2|0:0,0:0:0:0:
211,211,25045,5,2,1:2:0:0:
211,211,25123,1,0,0:0:0:0:
211,211,25202,2,0,B|158:216|158:216|139:233|139:233|86:238,2,125.999996154785,0|10|2,1:2|0:0|1:2,0:0:0:0:
263,148,25983,1,2,1:2:0:0:
373,268,26295,6,0,P|410:277|436:271,1,62.9999980773926,2|0,1:2|0:0,0:0:0:0:
497,219,26608,2,0,P|506:188|497:152,1,62.9999980773926,2|8,1:2|0:0,0:0:0:0:
445,98,26920,2,0,P|414:89|378:98,1,62.9999980773926,2|0,1:2|0:0,0:0:0:0:
320,147,27233,2,0,P|311:178|320:214,1,62.9999980773926,2|8,1:2|0:0,0:0:0:0:
375,325,27545,5,8,0:0:0:0:
375,325,27623,1,8,0:0:0:0:
375,325,27702,2,0,L|241:310,1,125.999996154785,6|8,1:2|0:0,0:0:0:0:
242,233,28170,1,2,0:0:0:0:
242,233,28327,2,0,L|387:249,1,125.999996154785,2|8,1:2|0:0,0:0:0:0:
425,188,28795,1,2,0:0:0:0:
486,242,28952,6,0,P|507:193|471:121,1,125.999996154785,2|10,1:2|0:0,0:0:0:0:
406,81,29420,2,0,P|358:107|284:83,1,125.999996154785,2|2,1:2|1:2,0:0:0:0:
199,30,29889,2,0,B|192:83|192:83|203:104|203:104|197:161,2,125.999996154785,14|0|8,0:0|1:2|0:0,0:0:0:0:
63,121,30827,5,0,1:2:0:0:
63,121,30983,2,0,L|72:192,1,62.9999980773926,0|8,1:2|0:0,0:0:0:0:
51,262,31295,2,0,P|79:276|164:229,1,125.999996154785,2|0,1:2|1:2,0:0:0:0:
191,164,31764,2,0,L|265:153,1,62.9999980773926,8|0,0:0|0:0,0:0:0:0:
328,268,32077,2,0,P|317:228|323:199,1,62.9999980773926,2|10,1:2|0:0,0:0:0:0:
391,167,32389,2,0,P|402:207|396:236,1,62.9999980773926,10|2,0:0|1:2,0:0:0:0:
319,303,32702,5,6,1:2:0:0:
319,303,32858,2,0,L|248:293,1,62.9999980773926,2|8,0:0|0:0,0:0:0:0:
202,233,33170,2,0,L|131:243,1,62.9999980773926,2|0,1:2|0:0,0:0:0:0:
149,160,33483,2,0,L|220:150,1,62.9999980773926,2|8,1:2|0:0,0:0:0:0:
288,63,33795,6,0,P|340:46|402:80,1,125.999996154785,2|0,1:2|1:2,0:0:0:0:
417,157,34264,1,8,0:0:0:0:
378,316,34577,2,0,L|389:383,2,62.9999980773926,2|2|10,1:2|1:2|0:0,0:0:0:0:
319,259,35045,1,2,0:0:0:0:
229,326,35202,6,0,P|178:347|116:314,1,125.999996154785,4|8,1:2|0:0,0:0:0:0:
97,237,35670,2,0,L|104:167,1,62.9999980773926,2|0,1:2|0:0,0:0:0:0:
179,144,35983,2,0,L|185:206,1,62.9999980773926,2|8,1:2|0:0,0:0:0:0:
292,153,36295,6,0,P|305:103|264:38,1,125.999996154785,2|0,1:2|1:2,0:0:0:0:
187,43,36764,1,8,0:0:0:0:
73,168,37077,2,0,L|1:157,2,62.9999980773926,2|2|10,1:2|1:2|0:0,0:0:0:0:
128,228,37545,1,2,0:0:0:0:
204,325,37702,5,4,1:2:0:0:
204,325,37858,2,0,L|276:320,1,62.9999980773926,2|8,0:0|0:0,0:0:0:0:
342,351,38170,2,0,P|348:311|340:286,1,62.9999980773926,2|0,1:2|0:0,0:0:0:0:
295,222,38483,2,0,P|289:182|297:157,1,62.9999980773926,2|8,1:2|0:0,0:0:0:0:
390,118,38795,6,0,P|353:130|273:85,1,125.999996154785,2|2,1:2|1:2,0:0:0:0:
233,24,39264,2,0,L|166:33,1,62.9999980773926,10|0,0:0|0:0,0:0:0:0:
140,108,39577,2,0,L|284:127,1,125.999996154785,2|8,1:2|0:0,0:0:0:0:
318,186,40045,1,2,1:2:0:0:
388,265,40202,6,0,L|457:253,2,62.9999980773926,6|2|8,1:2|1:2|0:0,0:0:0:0:
307,280,40670,2,0,L|319:349,2,62.9999980773926,2|2|8,1:2|1:2|0:0,0:0:0:0:
289,199,41139,2,0,L|220:210,2,62.9999980773926,2|2|8,1:2|1:2|0:0,0:0:0:0:
369,184,41608,2,0,L|357:115,2,62.9999980773926,2|2|8,1:2|1:2|0:0,0:0:0:0:
233,286,42077,2,0,P|193:281|162:254,1,77.0000023498536,10|0,1:2|0:0,0:0:0:0:
163,105,42389,2,0,P|203:110|234:137,1,77.0000023498536,10|0,1:2|0:0,0:0:0:0:
69,175,42702,6,0,L|55:105,2,70,6|2|10,1:2|0:0|0:0,0:0:0:0:
135,236,43170,2,0,L|121:304,2,70,2|2|2,0:0|1:2|0:0,0:0:0:0:
203,174,43639,2,0,L|189:105,2,70,10|2|2,0:0|1:2|0:0,0:0:0:0:
274,230,44108,1,10,0:0:0:0:
359,161,44264,6,0,P|396:148|440:167,1,84,2|0,1:2|0:0,0:0:0:0:
441,175,44577,2,0,L|426:239,1,62.9999980773926,2|0,0:0|0:0,0:0:0:0:
418,248,44889,2,0,L|430:311,1,62.9999980773926,2|0,0:0|0:0,0:0:0:0:
452,323,45202,6,0,P|407:355|338:336,1,125.999996154785,6|0,1:0|0:0,0:0:0:0:
318,309,45514,2,0,L|321:225,1,83.9999974365235,10|0,0:0|0:0,0:0:0:0:
232,197,45827,2,0,L|235:281,1,83.9999974365235,2|0,1:2|1:2,0:0:0:0:
165,341,46139,2,0,P|114:359|39:315,1,125.999996154785,10|0,0:0|0:0,0:0:0:0:
35,294,46452,6,0,P|76:267|121:272,1,83.9999974365235,0|0,1:2|0:0,0:0:0:0:
201,259,46764,2,0,P|242:286|287:281,1,83.9999974365235,8|0,0:0|0:0,0:0:0:0:
343,222,47077,1,0,1:2:0:0:
343,222,47233,1,2,1:2:0:0:
415,279,47389,1,10,0:0:0:0:
484,217,47545,6,0,L|503:39,1,167.999994873047,2|2,0:0|0:0,0:0:0:0:
417,11,48014,2,0,L|407:100,1,83.9999974365235,10|2,0:0|0:0,0:0:0:0:
328,139,48327,1,2,1:2:0:0:
328,139,48483,2,0,L|236:128,1,83.9999974365235,2|10,1:2|0:0,0:0:0:0:
84,82,48795,6,0,P|144:90|191:41,1,125.999996154785,6|0,1:2|0:0,0:0:0:0:
187,18,49108,6,0,L|214:158,1,125.999996154785,6|0,1:2|0:0,0:0:0:0:
235,156,49420,6,0,L|208:296,1,125.999996154785,6|0,1:2|0:0,0:0:0:0:
191,309,49733,6,0,P|144:316|110:298,1,83.9999974365235,2|8,1:2|0:0,0:0:0:0:
29,213,50045,5,8,0:0:0:0:
29,213,50123,1,8,0:0:0:0:
29,213,50202,2,0,L|20:119,1,83.9999974365235,6|0,1:2|0:0,0:0:0:0:
105,93,50514,2,0,L|113:176,1,83.9999974365235,10|0,0:0|0:0,0:0:0:0:
199,210,50827,2,0,P|262:224|319:180,1,125.999996154785,2|0,1:2|0:0,0:0:0:0:
320,157,51139,2,0,L|335:251,1,83.9999974365235,10|0,0:0|0:0,0:0:0:0:
422,281,51452,5,0,1:2:0:0:
422,281,51608,1,0,0:0:0:0:
441,190,51764,2,0,L|427:98,1,83.9999974365235,10|0,0:0|0:0,0:0:0:0:
349,58,52077,2,0,P|303:54|266:71,1,83.9999974365235,2|0,1:2|1:2,0:0:0:0:
212,141,52389,2,0,P|170:91|212:-8,1,167.999994873047,10|0,0:0|1:2,0:0:0:0:
263,73,52858,5,2,0:0:0:0:
263,73,53014,2,0,L|241:251,1,167.999994873047,10|0,0:0|1:2,0:0:0:0:
174,302,53483,1,0,1:2:0:0:
233,372,53639,1,8,0:0:0:0:
301,310,53795,6,0,L|472:285,1,167.999994873047,0|0,1:2|1:2,0:0:0:0:
508,204,54264,1,10,0:0:0:0:
508,204,54420,1,8,0:0:0:0:
436,144,54577,2,0,L|427:60,1,83.9999974365235,2|0,1:2|1:2,0:0:0:0:
342,23,54889,1,10,0:0:0:0:
301,131,55045,5,8,0:0:0:0:
301,131,55123,1,8,0:0:0:0:
301,131,55202,2,0,L|316:223,1,83.9999974365235,6|0,1:2|0:0,0:0:0:0:
249,279,55514,2,0,L|157:294,1,83.9999974365235,10|0,0:0|0:0,0:0:0:0:
96,354,55827,2,0,P|73:300|82:265,1,83.9999974365235,2|0,1:2|1:2,0:0:0:0:
139,208,56139,1,10,0:0:0:0:
59,139,56295,6,0,P|113:98|211:125,1,167.999994873047,0|0,1:2|1:2,0:0:0:0:
240,204,56764,2,0,L|322:190,1,83.9999974365235,10|0,0:0|0:0,0:0:0:0:
399,251,57077,1,2,1:2:0:0:
399,251,57233,1,0,1:2:0:0:
458,180,57389,2,0,P|468:138|447:94,1,83.9999974365235,10|0,0:0|0:0,0:0:0:0:
317,59,57702,6,0,B|363:84|404:56|386:42|427:13|470:28,2,167.999994873047,0|8|2,1:2|0:0|1:2,0:0:0:0:
243,12,58483,1,2,1:2:0:0:
243,12,58639,1,10,0:0:0:0:
184,83,58795,6,0,L|101:97,1,83.9999974365235,2|0,1:2|0:0,0:0:0:0:
19,53,59108,2,0,P|6:107|23:147,1,83.9999974365235,2|10,1:2|0:0,0:0:0:0:
84,192,59420,2,0,P|97:246|80:286,1,83.9999974365235,2|0,0:0|1:2,0:0:0:0:
26,340,59733,2,0,P|65:295|173:304,1,167.999994873047,2|10,1:2|0:0,0:0:0:0:
237,345,60202,6,0,P|280:358|314:349,1,77.0000023498536,6|2,1:2|1:2,0:0:0:0:
369,288,60514,1,10,0:0:0:0:
369,288,60670,1,10,1:2:0:0:
512,362,60983,5,2,1:2:0:0:
512,362,61139,2,0,L|503:286,1,77.0000023498536,6|2,1:2|1:2,0:0:0:0:
440,235,61452,1,10,0:0:0:0:
440,235,61608,1,10,1:2:0:0:
446,87,61920,5,2,1:2:0:0:
446,87,62077,1,6,1:2:0:0:
497,20,62233,1,2,1:2:0:0:
497,20,62389,2,0,P|463:3|411:16,1,77.0000023498536,10|2,0:0|1:2,0:0:0:0:
400,25,62623,5,2,1:2:0:0:
391,29,62702,2,0,L|304:10,1,83.9999974365235,6|2,1:2|1:2,0:0:0:0:
251,83,63014,2,0,L|164:102,1,83.9999974365235,2|2,1:2|1:2,0:0:0:0:
99,47,63327,1,8,1:2:0:0:
99,47,63483,1,8,1:2:0:0:
29,106,63639,1,8,1:2:0:0:
29,106,63795,1,8,1:2:0:0:
83,187,63952,1,8,1:2:0:0:
83,187,64108,1,8,1:2:0:0:
169,137,64264,6,0,L|260:118,1,90.9999958343508,10|8,0:0|0:0,0:0:0:0:
311,212,64577,2,0,L|216:233,1,97.9999970092774,10|8,0:0|0:0,0:0:0:0:
197,340,64889,2,0,L|305:362,1,105.000004005432,10|8,0:0|0:0,0:0:0:0:
334,357,65123,5,8,0:0:0:0:
334,357,65202,2,0,P|363:308|336:238,1,125.999996154785,6|0,1:2|0:0,0:0:0:0:
311,212,65514,2,0,P|301:167|321:126,1,83.9999974365235,10|0,0:0|0:0,0:0:0:0:
409,94,65827,1,2,1:2:0:0:
409,94,65983,1,0,1:2:0:0:
477,176,66139,2,0,L|379:178,1,83.9999974365235,10|0,0:0|0:0,0:0:0:0:
303,224,66452,6,0,P|262:242|224:233,1,83.9999974365235,0|0,1:2|0:0,0:0:0:0:
179,153,66764,2,0,P|138:135|100:144,1,83.9999974365235,8|0,0:0|0:0,0:0:0:0:
34,208,67077,1,0,1:2:0:0:
115,262,67233,1,2,1:2:0:0:
115,262,67389,1,10,0:0:0:0:
41,339,67545,6,0,P|112:368|199:315,1,167.999994873047,2|2,0:0|0:0,0:0:0:0:
233,249,68014,1,10,0:0:0:0:
233,249,68170,1,2,0:0:0:0:
187,173,68327,1,2,1:2:0:0:
187,173,68483,2,0,L|174:86,1,83.9999974365235,2|8,1:2|0:0,0:0:0:0:
275,8,68795,6,0,P|335:12|373:83,1,125.999996154785,6|0,1:2|0:0,0:0:0:0:
366,86,69108,6,0,P|414:109|478:68,1,125.999996154785,6|0,1:2|0:0,0:0:0:0:
491,54,69420,6,0,L|469:191,1,125.999996154785,6|0,1:2|0:0,0:0:0:0:
441,194,69733,6,0,L|455:285,1,83.9999974365235,2|8,1:2|0:0,0:0:0:0:
374,355,70045,5,8,0:0:0:0:
374,355,70123,1,8,0:0:0:0:
374,355,70202,2,0,P|307:369|255:326,1,125.999996154785,6|0,1:2|0:0,0:0:0:0:
250,306,70514,2,0,L|264:214,1,83.9999974365235,10|0,0:0|0:0,0:0:0:0:
321,151,70827,2,0,L|237:138,1,83.9999974365235,2|0,1:2|1:2,0:0:0:0:
173,72,71139,2,0,P|149:108|154:161,1,83.9999974365235,10|0,0:0|0:0,0:0:0:0:
197,232,71452,5,0,1:2:0:0:
197,232,71608,1,0,0:0:0:0:
250,306,71764,2,0,L|333:293,1,83.9999974365235,10|0,0:0|0:0,0:0:0:0:
406,342,72077,2,0,P|418:295|376:222,1,125.999996154785,2|0,1:2|0:0,0:0:0:0:
356,212,72389,6,0,P|427:228|481:149,2,167.999994873047,10|4|8,0:0|1:2|0:0,0:0:0:0:
245,63,73327,2,0,L|160:54,1,83.9999974365235,0|0,1:2|1:2,0:0:0:0:
83,103,73639,1,8,0:0:0:0:
128,183,73795,1,2,0:0:0:0:
68,254,73952,6,0,L|79:350,1,83.9999974365235,2|0,1:2|1:2,0:0:0:0:
167,357,74264,2,0,L|156:261,1,83.9999974365235,8|0,0:0|1:2,0:0:0:0:
235,223,74577,2,0,L|246:319,1,83.9999974365235,0|0,1:2|1:2,0:0:0:0:
322,355,74889,1,8,0:0:0:0:
418,281,75045,5,8,0:0:0:0:
418,281,75123,1,8,0:0:0:0:
418,281,75202,2,0,P|433:218|405:160,1,125.999996154785,6|0,1:2|0:0,0:0:0:0:
386,141,75514,2,0,L|294:125,1,83.9999974365235,10|0,0:0|0:0,0:0:0:0:
235,223,75827,2,0,L|327:207,1,83.9999974365235,2|0,1:2|1:2,0:0:0:0:
213,131,76139,1,10,0:0:0:0:
125,204,76295,6,0,P|57:217|-1:137,1,167.999994873047,0|0,1:2|1:2,0:0:0:0:
74,59,76764,2,0,L|80:143,1,83.9999974365235,10|0,0:0|0:0,0:0:0:0:
169,116,77077,2,0,L|163:32,1,83.9999974365235,2|0,1:2|1:2,0:0:0:0:
250,60,77389,2,0,L|259:190,1,125.999996154785,10|0,0:0|0:0,0:0:0:0:
297,212,77702,6,0,B|366:202|366:202|398:216|398:216|472:206,2,167.999994873047,4|8|2,1:2|0:0|1:2,0:0:0:0:
254,294,78483,1,2,1:2:0:0:
254,294,78639,1,10,0:0:0:0:
156,352,78795,6,0,P|136:313|143:270,1,83.9999974365235,2|0,1:2|0:0,0:0:0:0:
184,192,79108,2,0,P|204:153|197:110,1,83.9999974365235,2|8,1:2|0:0,0:0:0:0:
117,70,79420,2,0,P|97:109|104:152,1,83.9999974365235,2|0,1:2|0:0,0:0:0:0:
206,209,79733,2,0,L|376:175,1,167.999994873047,6|0,1:2|1:2,0:0:0:0:
427,256,80202,5,6,1:2:0:0:
427,256,80358,2,0,L|344:272,1,83.9999974365235,2|8,0:0|0:0,0:0:0:0:
296,351,80670,2,0,L|213:334,1,83.9999974365235,2|0,0:0|1:2,0:0:0:0:
155,262,80983,1,2,1:2:0:0:
75,358,81139,5,8,0:0:0:0:
75,358,81217,1,8,0:0:0:0:
75,358,81295,2,0,P|17:302|34:214,1,167.999994873047,2|0,1:2|1:2,0:0:0:0:
101,165,81764,2,0,L|185:182,1,83.9999974365235,8|0,0:0|0:0,0:0:0:0:
251,252,82077,1,0,1:2:0:0:
251,252,82233,1,0,1:2:0:0:
338,223,82389,2,0,P|349:178|331:137,1,83.9999974365235,10|0,0:0|0:0,0:0:0:0:
280,76,82702,5,6,1:2:0:0:
280,76,82858,2,0,L|190:55,1,83.9999974365235,10|0,0:0|1:2,0:0:0:0:
120,7,83170,2,0,L|38:26,1,83.9999974365235,10|0,0:0|1:2,0:0:0:0:
53,117,83483,2,0,L|134:136,1,83.9999974365235,10|0,1:2|1:2,0:0:0:0:
203,236,83795,6,0,P|250:262|325:235,1,125.999996154785,4|0,1:2|0:0,0:0:0:0:
336,217,84108,1,10,1:2:0:0:
424,243,84264,2,0,L|417:330,1,83.9999974365235,10|8,1:2|0:0,0:0:0:0:
338,376,84577,1,10,0:0:0:0:
259,350,84733,1,10,0:0:0:0:
259,350,84811,1,8,0:0:0:0:
259,350,84889,2,0,L|154:332,1,83.9999974365235,10|0,1:2|1:2,0:0:0:0:
50,146,85670,5,4,0:3:0:0:
50,146,85748,1,8,0:3:0:0:
50,146,85827,2,0,B|93:177|142:149|126:134|180:106|228:135|228:135|202:173|208:235|281:277|358:248|369:172|329:128,1,476,6|0,1:2|0:0,0:0:0:0:
