osu file format v14

[General]
AudioFilename: audio.mp3
AudioLeadIn: 0
PreviewTime: 44225
Countdown: 0
SampleSet: Soft
StackLeniency: 0.7
Mode: 0
LetterboxInBreaks: 0
WidescreenStoryboard: 1

[Editor]
DistanceSpacing: 1.4
BeatDivisor: 4
GridSize: 8
TimelineZoom: 2.3

[Metadata]
Title:Storyteller (TV Size)
TitleUnicode:Storyteller (TV Size)
Artist:TRUE
ArtistUnicode:TRUE
Creator:Soue
Version:Expert
Source:転生したらスライムだった件 第2期
Tags:TenSura 転スラ slime isekai That Time I Got Reincarnated as a Slime Season 2 Second 2nd Tensei shitara Slime suraimu Datta Ken Opening 3 Three Third 3rd Rimuru Tempest リムル=テンペスト Mikami Satoru 三上 悟 Japanese Anime animation female vocals j pop j-pop jpop 唐沢 美帆 Miho Karasawa Lantis Stack
BeatmapID:2785115
BeatmapSetID:1342479

[Difficulty]
HPDrainRate:5.8
CircleSize:4
OverallDifficulty:8.3
ApproachRate:9.2
SliderMultiplier:1.7
SliderTickRate:1

[Events]
//Background and Video events
0,0,"background.jpg",0,0
Video,-683,"video.mp4"
//Break Periods
//Storyboard Layer 0 (Background)
//Storyboard Layer 1 (Fail)
//Storyboard Layer 2 (Pass)
//Storyboard Layer 3 (Foreground)
//Storyboard Layer 4 (Overlay)
//Storyboard Sound Samples

[TimingPoints]
202,312.5,4,2,1,60,1,0
202,-90.9090909090909,4,2,1,60,0,0
12702,-166.666666666667,4,2,1,30,0,0
21452,-166.666666666667,4,2,1,40,0,0
22545,-111.111111111111,4,2,1,50,0,0
31998,-111.111111111111,4,2,1,50,0,0
32077,-111.111111111111,4,2,1,50,0,0
38405,-111.111111111111,4,2,1,50,0,0
38483,-111.111111111111,4,2,1,50,0,0
38717,-111.111111111111,4,2,1,50,0,0
38795,-111.111111111111,4,2,1,50,0,0
40202,-111.111111111111,4,2,1,50,0,0
42077,-90.9090909090908,4,2,1,60,0,0
42311,-90.9090909090908,4,2,1,5,0,0
42389,-90.9090909090908,4,2,1,60,0,0
42623,-90.9090909090908,4,2,1,5,0,0
42702,-100,4,2,1,60,0,0
44264,-125,4,2,1,60,0,0
44498,-125,4,2,1,5,0,0
44577,-166.666666666667,4,2,1,60,0,0
44811,-166.666666666667,4,2,1,5,0,0
44889,-250.000000000001,4,2,1,60,0,0
45123,-250.000000000001,4,2,1,5,0,0
45202,-83.3333333333333,4,2,1,70,0,1
45436,-83.3333333333333,4,2,1,5,0,1
45514,-83.3333333333333,4,2,1,70,0,1
46373,-83.3333333333333,4,2,1,5,0,1
46452,-83.3333333333333,4,2,1,70,0,1
49030,-83.3333333333333,4,2,1,5,0,1
49108,-83.3333333333333,4,2,1,70,0,1
49342,-83.3333333333333,4,2,1,5,0,1
49420,-83.3333333333333,4,2,1,70,0,1
49655,-83.3333333333333,4,2,1,5,0,1
49733,-83.3333333333333,4,2,1,70,0,1
50436,-83.3333333333333,4,2,1,5,0,1
50514,-83.3333333333333,4,2,1,70,0,1
51061,-83.3333333333333,4,2,1,5,0,1
51139,-83.3333333333333,4,2,1,70,0,1
57623,-83.3333333333333,4,2,1,70,0,1
57702,-83.3333333333333,4,2,1,70,0,1
60202,-90.9090909090909,4,2,1,70,0,0
62702,-83.3333333333333,4,2,1,60,0,0
63327,-83.3333333333333,4,2,1,70,0,0
63952,-83.3333333333333,4,2,1,80,0,0
64264,-76.9230769230769,4,2,1,80,0,0
64577,-71.4285714285714,4,2,1,90,0,0
64889,-66.6666666666667,4,2,1,90,0,0
65202,-83.3333333333333,4,2,1,70,0,1
65436,-83.3333333333333,4,2,1,5,0,1
65514,-83.3333333333333,4,2,1,70,0,1
66061,-83.3333333333333,4,2,1,5,0,1
66139,-83.3333333333333,4,2,1,70,0,1
66686,-83.3333333333333,4,2,1,5,0,1
66764,-83.3333333333333,4,2,1,70,0,1
69030,-83.3333333333333,4,2,1,5,0,1
69108,-83.3333333333333,4,2,1,70,0,1
69342,-83.3333333333333,4,2,1,5,0,1
69420,-83.3333333333333,4,2,1,70,0,1
69655,-83.3333333333333,4,2,1,5,0,1
69733,-83.3333333333333,4,2,1,70,0,1
70436,-83.3333333333333,4,2,1,5,0,1
70514,-83.3333333333333,4,2,1,70,0,1
71061,-83.3333333333333,4,2,1,5,0,1
71139,-83.3333333333333,4,2,1,70,0,1
72623,-83.3333333333333,4,2,1,5,0,1
72702,-83.3333333333333,4,2,1,70,0,1
75436,-83.3333333333333,4,2,1,5,0,1
75514,-83.3333333333333,4,2,1,70,0,1
77936,-83.3333333333333,4,2,1,5,0,1
78014,-83.3333333333333,4,2,1,70,0,1
82623,-83.3333333333333,4,2,1,5,0,1
82702,-83.3333333333333,4,2,1,70,0,1
84030,-83.3333333333333,4,2,1,5,0,1
84108,-83.3333333333333,4,2,1,70,0,1
85202,-111.111111111111,4,2,1,50,0,0
85827,-250,4,2,1,70,0,0
88483,-250,4,2,1,5,0,0

[Colours]
Combo1 : 254,218,73
Combo2 : 140,206,255
Combo3 : 127,127,127

[HitObjects]
472,127,45,5,8,0:0:0:0:
472,127,123,1,8,0:0:0:0:
472,127,202,2,0,B|509:85|461:40|461:40|396:56|406:112,1,187.000005706787,6|8,1:2|0:0,0:0:0:0:
307,188,670,2,0,B|253:194|215:145|244:144|209:95|156:95,1,187.000005706787,2|0,1:2|1:2,0:0:0:0:
16,176,1139,1,8,0:0:0:0:
104,292,1295,6,0,P|162:325|261:270,1,187.000005706787,2|0,1:2|1:2,0:0:0:0:
79,107,1764,2,0,L|97:215,1,93.5000028533936,10|0,0:0|0:0,0:0:0:0:
274,274,2077,2,0,L|289:181,1,93.5000028533936,2|0,1:2|1:2,0:0:0:0:
404,97,2389,1,10,0:0:0:0:
224,130,2545,5,8,0:0:0:0:
224,130,2623,1,8,0:0:0:0:
224,130,2702,2,0,B|155:109|155:109|109:120|109:120|43:101,1,187.000005706787,6|8,1:2|0:0,0:0:0:0:
265,45,3170,2,0,P|310:96|279:208,1,187.000005706787,2|0,1:2|1:2,0:0:0:0:
164,277,3639,1,8,0:0:0:0:
285,368,3795,6,0,L|474:343,1,187.000005706787,2|0,1:2|1:2,0:0:0:0:
284,203,4264,2,0,P|270:252|288:295,1,93.5000028533936,10|0,0:0|0:0,0:0:0:0:
417,229,4577,2,0,P|431:180|413:137,1,93.5000028533936,2|0,1:2|1:2,0:0:0:0:
315,51,4889,1,10,0:0:0:0:
185,179,5045,5,8,0:0:0:0:
185,179,5123,1,8,0:0:0:0:
185,179,5202,2,0,P|119:215|16:158,1,187.000005706787,6|8,1:2|0:0,0:0:0:0:
223,87,5670,2,0,L|205:285,1,187.000005706787,2|0,1:2|1:2,0:0:0:0:
325,381,6139,1,8,0:0:0:0:
449,234,6295,6,0,P|409:215|361:224,1,93.5000028533936,2|0,1:2|0:0,0:0:0:0:
235,370,6608,1,10,0:0:0:0:
129,209,6764,1,8,0:0:0:0:
307,310,6920,2,0,L|405:290,1,93.5000028533936,2|0,1:2|0:0,0:0:0:0:
454,146,7233,2,0,L|356:126,1,93.5000028533936,2|8,1:2|0:0,0:0:0:0:
193,24,7545,5,8,0:0:0:0:
193,24,7623,1,8,0:0:0:0:
193,24,7702,2,0,B|165:66|193:114|209:92|242:147|214:200,1,187.000005706787,6|8,1:2|0:0,0:0:0:0:
108,315,8170,1,2,0:0:0:0:
260,370,8327,2,0,L|448:340,1,187.000005706787,2|8,1:2|0:0,0:0:0:0:
215,197,8795,6,0,P|201:239|216:290,1,93.5000028533936,2|0,1:2|0:0,0:0:0:0:
309,129,9108,2,0,P|279:95|227:83,1,93.5000028533936,2|8,1:2|0:0,0:0:0:0:
322,239,9420,2,0,P|365:230|402:191,1,93.5000028533936,2|0,1:2|0:0,0:0:0:0:
187,12,9733,2,0,L|216:205,1,187.000005706787,2|8,1:2|0:0,0:0:0:0:
483,172,10202,6,0,P|427:120|324:152,1,187.000005706787,6|8,1:2|0:0,0:0:0:0:
233,278,10670,1,2,1:2:0:0:
233,278,10748,1,0,1:2:0:0:
233,278,10827,2,0,B|275:310|325:274|310:259|361:226|413:260,1,187.000005706787,2|8,1:2|0:0,0:0:0:0:
182,340,11295,6,0,P|155:297|159:249,1,93.5000028533936,2|0,1:2|0:0,0:0:0:0:
147,90,11608,2,0,P|197:88|237:115,1,93.5000028533936,2|8,1:2|0:0,0:0:0:0:
380,185,11920,2,0,P|356:229|312:250,1,93.5000028533936,2|8,1:2|0:0,0:0:0:0:
175,158,12233,1,2,1:2:0:0:
186,129,12311,1,0,1:2:0:0:
207,105,12389,1,8,0:0:0:0:
233,90,12467,1,8,0:0:0:0:
264,83,12545,1,8,0:0:0:0:
294,87,12623,1,8,0:0:0:0:
322,101,12702,5,0,1:2:0:0:
334,114,13014,6,0,L|321:177,1,50.9999984436036,2|0,1:2|0:0,0:0:0:0:
384,261,13327,1,2,1:2:0:0:
384,261,13483,2,0,L|397:200,1,50.9999984436036,2|0,0:0|1:2,0:0:0:0:
349,332,13795,2,0,P|399:344|446:316,2,101.999996887207,2|2|2,0:0|0:0|0:0,0:0:0:0:
241,239,14733,1,2,0:0:0:0:
135,334,15045,5,2,1:2:0:0:
135,334,15123,1,0,1:2:0:0:
135,334,15202,2,0,L|71:324,1,50.9999984436036,0|0,1:2|0:0,0:0:0:0:
57,251,15514,2,0,L|121:241,1,50.9999984436036,2|0,1:2|0:0,0:0:0:0:
160,146,15827,1,2,1:2:0:0:
91,116,15983,2,0,P|84:146|91:176,1,50.9999984436036,2|0,0:0|1:2,0:0:0:0:
224,103,16295,2,0,L|207:-8,2,101.999996887207,2|2|2,0:0|0:0|0:0,0:0:0:0:
356,199,17233,1,2,0:0:0:0:
463,91,17545,5,2,1:2:0:0:
463,91,17623,1,0,1:2:0:0:
463,91,17702,2,0,L|402:83,1,50.9999984436036,0|0,1:2|0:0,0:0:0:0:
349,30,18014,2,0,L|288:38,1,50.9999984436036,2|0,1:2|0:0,0:0:0:0:
247,110,18327,1,2,1:2:0:0:
247,110,18483,2,0,L|186:102,1,50.9999984436036,2|0,0:0|1:2,0:0:0:0:
112,45,18795,2,0,P|93:91|106:149,1,101.999996887207,2|2,0:0|0:0,0:0:0:0:
163,213,19264,1,0,1:2:0:0:
163,213,19420,2,0,L|221:204,1,50.9999984436036,2|0,0:0|1:2,0:0:0:0:
130,296,19733,2,0,L|72:287,1,50.9999984436036,2|0,0:0|1:2,0:0:0:0:
155,195,20045,5,2,1:2:0:0:
155,195,20123,1,0,1:2:0:0:
155,195,20202,2,0,L|213:188,1,50.9999984436036,0|0,1:2|0:0,0:0:0:0:
144,278,20514,1,0,1:2:0:0:
68,209,20670,1,0,0:0:0:0:
0,287,20827,1,0,1:2:0:0:
72,362,20983,2,0,L|132:359,1,50.9999984436036,0|0,0:0|1:2,0:0:0:0:
219,353,21295,1,2,1:2:0:0:
367,352,21452,5,6,1:2:0:0:
288,250,21608,1,10,0:0:0:0:
288,250,21686,1,8,0:0:0:0:
288,250,21764,1,0,1:2:0:0:
435,183,21920,5,10,0:0:0:0:
326,56,22233,5,10,0:0:0:0:
337,41,22545,6,0,B|279:32|279:32|242:44|242:44|178:36,1,152.999995330811,6|0,1:2|1:2,0:0:0:0:
89,105,23014,2,0,P|75:147|83:183,1,76.4999976654053,10|0,0:0|0:0,0:0:0:0:
211,250,23327,1,2,1:2:0:0:
211,250,23483,2,0,P|216:212|202:177,1,76.4999976654053,2|8,1:2|0:0,0:0:0:0:
67,318,23795,6,0,L|156:302,1,76.4999976654053,2|0,1:2|0:0,0:0:0:0:
312,379,24108,2,0,L|223:363,1,76.4999976654053,2|8,1:2|0:0,0:0:0:0:
341,246,24420,2,0,L|430:230,1,76.4999976654053,2|0,1:2|0:0,0:0:0:0:
364,323,24733,1,2,1:2:0:0:
276,204,24889,1,8,0:0:0:0:
418,256,25045,1,2,1:2:0:0:
279,351,25202,6,0,L|190:335,1,76.4999976654053,0|0,1:2|0:0,0:0:0:0:
118,232,25514,2,0,L|207:216,1,76.4999976654053,10|0,0:0|0:0,0:0:0:0:
259,100,25827,1,2,1:2:0:0:
259,100,25983,2,0,L|170:84,1,76.4999976654053,2|8,1:2|0:0,0:0:0:0:
297,187,26295,6,0,P|334:167|352:134,1,76.4999976654053,2|0,1:2|0:0,0:0:0:0:
210,173,26608,2,0,P|208:215|228:247,1,76.4999976654053,2|8,1:2|0:0,0:0:0:0:
311,279,26920,2,0,L|323:354,1,76.4999976654053,2|0,1:2|0:0,0:0:0:0:
426,319,27233,2,0,L|413:243,1,76.4999976654053,2|8,1:2|0:0,0:0:0:0:
359,129,27545,5,8,0:0:0:0:
359,129,27623,1,8,0:0:0:0:
359,129,27702,2,0,P|294:103|219:148,1,152.999995330811,6|8,1:2|0:0,0:0:0:0:
149,238,28170,1,2,0:0:0:0:
149,238,28327,2,0,L|64:224,1,76.4999976654053,2|0,1:2|1:2,0:0:0:0:
36,116,28639,2,0,L|121:102,1,76.4999976654053,8|2,0:0|0:0,0:0:0:0:
231,223,28952,6,0,P|283:261|365:214,1,152.999995330811,2|10,1:2|0:0,0:0:0:0:
447,334,29420,2,0,L|429:178,1,152.999995330811,2|2,1:2|1:2,0:0:0:0:
490,70,29889,2,0,B|451:49|408:75|425:88|384:114|340:92,1,152.999995330811,14|0,0:0|1:2,0:0:0:0:
230,33,30358,5,0,1:2:0:0:
230,33,30514,2,0,L|242:115,1,76.4999976654053,8|0,0:0|0:0,0:0:0:0:
127,199,30827,1,0,1:2:0:0:
269,244,30983,2,0,L|352:223,1,76.4999976654053,0|8,1:2|0:0,0:0:0:0:
136,120,31295,6,0,P|64:146|49:222,1,152.999995330811,2|0,1:2|1:2,0:0:0:0:
160,347,31764,2,0,L|166:271,1,76.4999976654053,8|0,0:0|0:0,0:0:0:0:
250,132,32077,1,2,1:2:0:0:
125,196,32233,1,10,0:0:0:0:
248,268,32389,1,10,0:0:0:0:
248,268,32545,1,2,1:2:0:0:
359,186,32702,5,6,1:2:0:0:
359,186,32858,2,0,L|439:178,1,76.4999976654053,2|8,0:0|0:0,0:0:0:0:
250,132,33170,2,0,L|170:124,1,76.4999976654053,2|0,1:2|0:0,0:0:0:0:
329,33,33483,2,0,P|367:20|404:28,1,76.4999976654053,2|8,1:2|0:0,0:0:0:0:
512,162,33795,6,0,L|345:131,1,152.999995330811,2|0,1:2|1:2,0:0:0:0:
246,275,34264,2,0,L|321:261,1,76.4999976654053,8|0,0:0|0:0,0:0:0:0:
216,174,34577,1,2,1:2:0:0:
166,339,34733,1,2,1:2:0:0:
75,218,34889,1,10,0:0:0:0:
75,218,35045,1,2,0:0:0:0:
272,294,35202,5,4,1:2:0:0:
272,294,35358,2,0,L|347:280,1,76.4999976654053,2|8,0:0|0:0,0:0:0:0:
454,363,35670,2,0,P|437:319|444:280,1,76.4999976654053,2|0,1:2|0:0,0:0:0:0:
483,184,35983,2,0,P|500:140|493:101,1,76.4999976654053,2|8,1:2|0:0,0:0:0:0:
421,21,36295,6,0,L|261:46,1,152.999995330811,2|0,1:2|1:2,0:0:0:0:
137,24,36764,2,0,P|154:64|151:103,1,76.4999976654053,8|0,0:0|0:0,0:0:0:0:
44,177,37077,1,2,1:2:0:0:
177,209,37233,1,2,1:2:0:0:
77,79,37389,1,10,0:0:0:0:
77,79,37545,1,2,0:0:0:0:
30,254,37702,5,4,1:2:0:0:
30,254,37858,2,0,L|45:332,1,76.4999976654053,2|8,0:0|0:0,0:0:0:0:
195,193,38170,2,0,P|156:182|119:193,1,76.4999976654053,2|0,1:2|0:0,0:0:0:0:
180,322,38483,2,0,P|216:331|252:320,1,76.4999976654053,2|8,1:2|0:0,0:0:0:0:
336,221,38795,6,0,L|349:101,1,114.749996498108,2|0,1:2|0:0,0:0:0:0:
352,75,39108,1,2,1:2:0:0:
484,155,39264,2,0,L|492:237,1,76.4999976654053,10|0,0:0|0:0,0:0:0:0:
385,319,39577,2,0,P|325:352|252:319,1,152.999995330811,2|8,1:2|0:0,0:0:0:0:
197,211,40045,1,2,1:2:0:0:
140,327,40202,5,6,1:2:0:0:
280,157,40358,2,0,L|268:233,1,76.4999976654053,2|8,1:2|0:0,0:0:0:0:
152,308,40671,5,2,1:2:0:0:
11,138,40827,2,0,L|24:214,1,76.4999976654053,2|8,1:2|0:0,0:0:0:0:
143,288,41139,5,2,1:2:0:0:
283,118,41295,2,0,L|271:194,1,76.4999976654053,2|8,1:2|0:0,0:0:0:0:
156,271,41608,5,2,1:2:0:0:
15,101,41764,2,0,L|28:177,1,76.4999976654053,2|8,1:2|0:0,0:0:0:0:
226,12,42077,6,0,L|202:150,1,140.25000428009,10|0,1:2|0:0,0:0:0:0:
211,182,42389,2,0,P|259:215|344:187,1,140.25000428009,10|0,1:2|0:0,0:0:0:0:
347,173,42702,5,6,1:2:0:0:
422,287,42858,1,2,0:0:0:0:
488,154,43014,1,10,0:0:0:0:
410,312,43170,5,2,0:0:0:0:
280,141,43327,1,2,1:2:0:0:
451,219,43483,1,2,0:0:0:0:
297,312,43639,5,10,0:0:0:0:
375,103,43795,1,2,1:2:0:0:
501,277,43952,1,2,0:0:0:0:
364,88,44108,5,10,0:0:0:0:
277,299,44264,6,0,P|235:326|176:310,1,102,2|0,1:2|0:0,0:0:0:0:
152,249,44577,6,0,L|163:169,1,76.4999976654053,2|0,0:0|0:0,0:0:0:0:
281,53,44889,6,0,L|289:113,1,51,2|0,0:0|0:0,0:0:0:0:
359,115,45202,6,0,P|302:174|225:140,1,152.999995330811,6|0,1:0|0:0,0:0:0:0:
189,101,45514,2,0,L|57:72,1,101.999996887207,10|0,0:0|0:0,0:0:0:0:
232,237,45827,1,2,1:2:0:0:
357,76,45983,1,0,1:2:0:0:
159,173,46139,2,0,P|130:234|173:313,1,152.999995330811,10|0,0:0|0:0,0:0:0:0:
232,335,46452,6,0,L|337:309,1,101.999996887207,0|0,1:2|0:0,0:0:0:0:
467,378,46764,2,0,P|437:327|453:272,1,101.999996887207,8|0,0:0|0:0,0:0:0:0:
507,159,47077,1,0,1:2:0:0:
329,216,47233,1,2,1:2:0:0:
512,318,47389,1,10,0:0:0:0:
353,127,47545,6,0,B|300:100|251:144|272:154|222:204|167:178,1,203.999993774414,2|2,0:0|0:0,0:0:0:0:
42,105,48014,1,10,0:0:0:0:
121,276,48170,1,2,0:0:0:0:
197,100,48327,1,2,1:2:0:0:
38,233,48483,2,0,P|23:283|43:333,1,101.999996887207,2|10,1:2|0:0,0:0:0:0:
236,376,48795,6,0,B|265:326|265:326|235:223,1,152.999995330811,6|0,1:2|0:0,0:0:0:0:
171,179,49108,6,0,P|216:220|303:191,1,152.999995330811,6|0,1:2|0:0,0:0:0:0:
319,120,49420,6,0,B|378:107|378:107|413:116|413:116|475:104,1,152.999995330811,6|0,1:2|0:0,0:0:0:0:
510,168,49733,5,2,1:2:0:0:
411,25,49889,1,8,0:0:0:0:
380,212,50045,5,8,0:0:0:0:
380,212,50123,1,8,0:0:0:0:
380,212,50202,2,0,L|413:372,1,152.999995330811,6|0,1:2|0:0,0:0:0:0:
486,360,50514,2,0,L|463:252,1,101.999996887207,10|0,0:0|0:0,0:0:0:0:
347,128,50827,2,0,P|294:107|208:147,1,152.999995330811,2|0,1:2|0:0,0:0:0:0:
165,202,51139,2,0,P|123:225|66:212,1,101.999996887207,10|0,0:0|0:0,0:0:0:0:
0,155,51452,5,0,1:2:0:0:
113,314,51608,1,0,0:0:0:0:
211,143,51764,2,0,L|322:123,1,101.999996887207,10|0,0:0|0:0,0:0:0:0:
413,305,52077,2,0,L|302:285,1,101.999996887207,2|0,1:2|1:2,0:0:0:0:
388,68,52389,2,0,P|411:125|399:167,1,101.999996887207,10|0,0:0|0:0,0:0:0:0:
230,260,52702,5,0,1:2:0:0:
326,122,52858,1,2,0:0:0:0:
407,292,53014,2,0,L|296:272,1,101.999996887207,10|0,0:0|0:0,0:0:0:0:
194,382,53327,1,0,1:2:0:0:
129,247,53483,1,0,1:2:0:0:
26,354,53639,1,8,0:0:0:0:
219,270,53795,6,0,P|251:212|198:87,1,203.999993774414,0|0,1:2|1:2,0:0:0:0:
24,70,54264,2,0,L|49:176,1,101.999996887207,10|8,0:0|0:0,0:0:0:0:
26,354,54577,2,0,L|125:330,1,101.999996887207,2|0,1:2|1:2,0:0:0:0:
267,356,54889,1,10,0:0:0:0:
298,368,54967,1,8,0:0:0:0:
331,368,55045,1,8,0:0:0:0:
362,353,55123,1,8,0:0:0:0:
384,328,55202,6,0,L|366:218,1,101.999996887207,6|0,1:2|0:0,0:0:0:0:
490,111,55514,2,0,L|473:211,1,101.999996887207,10|0,0:0|0:0,0:0:0:0:
353,68,55827,1,2,1:2:0:0:
512,25,55983,1,0,1:2:0:0:
357,155,56139,1,10,0:0:0:0:
210,28,56295,6,0,L|-5:7,1,203.999993774414,0|0,1:2|1:2,0:0:0:0:
187,196,56764,2,0,P|220:155|222:104,1,101.999996887207,10|0,0:0|0:0,0:0:0:0:
81,214,57077,2,0,P|100:263|143:290,1,101.999996887207,2|0,1:2|1:2,0:0:0:0:
111,120,57389,2,0,P|58:111|13:135,1,101.999996887207,10|0,0:0|0:0,0:0:0:0:
230,277,57702,6,0,L|338:252,1,101.999996887207,0|0,1:2|0:0,0:0:0:0:
483,209,58014,2,0,L|407:127,1,101.999996887207,8|0,0:0|0:0,0:0:0:0:
328,36,58327,1,2,1:2:0:0:
419,258,58483,1,2,1:2:0:0:
490,48,58639,1,10,0:0:0:0:
323,172,58795,6,0,P|268:194|214:179,1,101.999996887207,2|0,1:2|0:0,0:0:0:0:
199,12,59108,2,0,P|245:48|259:102,1,101.999996887207,2|10,1:2|0:0,0:0:0:0:
110,204,59420,2,0,P|118:145|158:106,1,101.999996887207,2|0,0:0|1:2,0:0:0:0:
183,268,59733,2,0,B|147:282|147:282|134:304|134:304|96:321,1,101.999996887207,2|8,1:2|0:0,0:0:0:0:
267,365,60045,1,10,0:0:0:0:
335,158,60202,5,6,1:2:0:0:
197,280,60358,1,2,1:2:0:0:
366,360,60514,1,10,0:0:0:0:
218,163,60670,1,10,1:2:0:0:
238,153,60983,5,2,1:2:0:0:
402,24,61139,1,6,1:2:0:0:
299,246,61295,1,2,1:2:0:0:
176,46,61452,1,10,0:0:0:0:
429,177,61608,1,10,1:2:0:0:
411,201,61920,5,2,1:2:0:0:
512,311,62077,1,6,1:2:0:0:
405,109,62233,1,2,1:2:0:0:
335,350,62389,1,10,0:0:0:0:
238,153,62545,5,2,1:2:0:0:
238,153,62623,1,2,1:2:0:0:
238,153,62702,1,6,1:2:0:0:
374,267,62858,1,2,1:2:0:0:
194,327,63014,1,2,1:2:0:0:
347,157,63170,1,2,1:2:0:0:
304,367,63327,5,8,1:2:0:0:
151,215,63483,1,8,1:2:0:0:
404,275,63639,1,8,1:2:0:0:
177,350,63795,1,8,1:2:0:0:
292,98,63952,1,8,1:2:0:0:
448,340,64108,1,8,1:2:0:0:
151,132,64264,6,0,L|26:110,1,110.499994941712,10|8,0:0|0:0,0:0:0:0:
254,376,64577,2,0,L|379:354,1,118.999996368408,10|8,0:0|0:0,0:0:0:0:
509,131,64889,1,10,0:0:0:0:
473,108,64967,1,8,0:0:0:0:
430,104,65045,1,8,0:0:0:0:
391,118,65123,1,8,0:0:0:0:
362,149,65202,6,0,P|302:183|211:143,1,152.999995330811,6|0,1:2|0:0,0:0:0:0:
212,85,65514,2,0,P|258:55|307:58,1,101.999996887207,10|0,0:0|0:0,0:0:0:0:
196,266,65827,2,0,L|37:238,1,152.999995330811,2|0,1:2|0:0,0:0:0:0:
18,310,66139,2,0,L|118:327,1,101.999996887207,10|0,0:0|0:0,0:0:0:0:
328,345,66452,6,0,P|384:369|468:314,1,152.999995330811,0|0,1:2|0:0,0:0:0:0:
478,256,66764,2,0,L|456:146,1,101.999996887207,8|0,0:0|0:0,0:0:0:0:
346,79,67077,1,0,1:2:0:0:
478,0,67233,1,2,1:2:0:0:
367,175,67389,1,10,0:0:0:0:
239,30,67545,6,0,B|162:15|162:15|116:31|116:31|29:14,1,203.999993774414,2|2,0:0|0:0,0:0:0:0:
197,211,68014,1,10,0:0:0:0:
265,102,68170,1,2,0:0:0:0:
114,185,68327,1,2,1:2:0:0:
265,289,68483,2,0,L|374:273,1,101.999996887207,2|8,1:2|0:0,0:0:0:0:
139,115,68795,6,0,P|54:139|41:205,1,152.999995330811,6|0,1:2|0:0,0:0:0:0:
92,255,69108,6,0,B|136:274|174:244|159:236|200:205|241:221,1,152.999995330811,6|0,1:2|0:0,0:0:0:0:
265,289,69420,6,0,P|320:321|400:286,1,152.999995330811,6|0,1:2|0:0,0:0:0:0:
444,226,69733,1,2,1:2:0:0:
343,117,69889,1,8,0:0:0:0:
485,303,70045,5,8,0:0:0:0:
485,303,70123,1,8,0:0:0:0:
485,303,70202,2,0,P|523:238|496:161,1,152.999995330811,6|0,1:2|0:0,0:0:0:0:
426,148,70514,2,0,P|463:100|513:93,1,101.999996887207,8|0,0:0|0:0,0:0:0:0:
322,231,70827,2,0,L|171:205,1,152.999995330811,2|0,1:2|0:0,0:0:0:0:
124,147,71139,2,0,L|17:165,1,101.999996887207,10|0,0:0|0:0,0:0:0:0:
163,286,71452,5,0,1:2:0:0:
253,133,71608,1,0,0:0:0:0:
61,252,71764,2,0,P|49:306|69:347,1,101.999996887207,10|0,0:0|0:0,0:0:0:0:
147,158,72077,2,0,P|106:120|60:117,1,101.999996887207,2|0,1:2|1:2,0:0:0:0:
182,288,72389,2,0,P|250:266|287:187,1,152.999995330811,10|0,0:0|0:0,0:0:0:0:
254,130,72702,6,0,B|311:103|358:143|335:156|380:194|440:171,2,203.999993774414,4|8|0,1:2|0:0|1:2,0:0:0:0:
388,352,73483,1,0,1:2:0:0:
388,352,73639,2,0,P|409:301|395:246,1,101.999996887207,8|2,0:0|0:0,0:0:0:0:
225,136,73952,5,2,1:2:0:0:
328,294,74108,1,0,1:2:0:0:
406,102,74264,1,8,0:0:0:0:
214,246,74420,1,0,1:2:0:0:
429,338,74577,1,0,1:2:0:0:
308,106,74733,1,0,1:2:0:0:
204,344,74889,1,8,0:0:0:0:
170,362,74967,1,8,0:0:0:0:
132,365,75045,1,8,0:0:0:0:
96,353,75123,1,8,0:0:0:0:
68,328,75202,6,0,L|83:162,1,152.999995330811,6|0,1:2|0:0,0:0:0:0:
116,109,75514,2,0,L|125:212,1,101.999996887207,10|0,0:0|0:0,0:0:0:0:
31,17,75827,1,2,1:2:0:0:
200,103,75983,1,0,1:2:0:0:
6,203,76139,1,10,0:0:0:0:
162,32,76295,6,0,B|221:2|270:37|248:55|297:86|352:58,1,203.999993774414,0|0,1:2|1:2,0:0:0:0:
496,13,76764,2,0,L|466:122,1,101.999996887207,10|0,0:0|0:0,0:0:0:0:
402,307,77077,2,0,L|322:226,1,101.999996887207,2|0,1:2|1:2,0:0:0:0:
200,103,77389,2,0,L|309:74,1,101.999996887207,10|0,0:0|0:0,0:0:0:0:
272,286,77702,6,0,P|198:328|128:278,1,152.999995330811,4|0,1:2|0:0,0:0:0:0:
101,237,78014,2,0,L|-2:220,1,101.999996887207,8|0,0:0|0:0,0:0:0:0:
203,251,78327,1,2,1:2:0:0:
70,364,78483,1,2,1:2:0:0:
183,179,78639,1,10,0:0:0:0:
298,364,78795,6,0,P|350:378|397:358,1,101.999996887207,2|0,1:2|0:0,0:0:0:0:
385,166,79108,2,0,P|346:204|340:254,1,101.999996887207,2|8,1:2|0:0,0:0:0:0:
512,339,79420,2,0,P|498:286|457:256,1,101.999996887207,2|0,1:2|0:0,0:0:0:0:
281,366,79733,6,0,B|204:349|204:349|156:362|156:362|80:347,1,203.999993774414,6|0,1:2|1:2,0:0:0:0:
251,168,80202,5,6,1:2:0:0:
251,168,80358,2,0,P|270:217|259:266,1,101.999996887207,2|8,0:0|0:0,0:0:0:0:
88,216,80670,2,0,P|69:167|80:118,1,101.999996887207,2|0,0:0|1:2,0:0:0:0:
177,4,80983,1,2,1:2:0:0:
305,114,81139,5,8,0:0:0:0:
305,114,81217,1,8,0:0:0:0:
305,114,81295,2,0,L|516:77,1,203.999993774414,2|0,1:2|1:2,0:0:0:0:
293,34,81764,1,8,0:0:0:0:
429,202,81920,1,0,0:0:0:0:
508,0,82077,2,0,L|396:19,1,101.999996887207,0|0,1:2|1:2,0:0:0:0:
241,162,82389,2,0,P|314:194|376:141,1,152.999995330811,10|0,0:0|0:0,0:0:0:0:
396,88,82702,5,6,1:2:0:0:
260,280,82858,2,0,B|213:300|213:300|164:284,1,101.999996887207,10|0,0:0|1:2,0:0:0:0:
9,173,83170,1,10,0:0:0:0:
136,368,83327,1,0,1:2:0:0:
241,162,83483,2,0,L|352:141,1,101.999996887207,10|0,1:2|1:2,0:0:0:0:
467,325,83795,2,0,B|500:269|470:208|470:208|457:225|444:236,1,152.999995330811,4|0,1:2|0:0,0:0:0:0:
392,278,84108,5,10,1:2:0:0:
228,158,84264,1,10,1:2:0:0:
408,61,84420,1,8,0:0:0:0:
275,268,84577,1,10,0:0:0:0:
140,74,84733,1,10,0:0:0:0:
165,45,84811,1,8,0:0:0:0:
199,29,84889,1,10,1:2:0:0:
237,29,84967,1,0,1:2:0:0:
272,44,85045,1,0,1:2:0:0:
497,352,85670,5,4,0:3:0:0:
497,352,85748,1,8,0:3:0:0:
497,352,85827,2,0,B|371:379|292:268|363:246|285:132|175:147|175:147|265:196|276:281,1,578,6|0,1:2|0:0,0:0:0:0:
