osu file format v14

[General]
AudioFilename: audio.mp3
AudioLeadIn: 0
PreviewTime: 44263
Countdown: 0
SampleSet: Soft
StackLeniency: 0.7
Mode: 0
LetterboxInBreaks: 0
WidescreenStoryboard: 1

[Editor]
DistanceSpacing: 1.3
BeatDivisor: 4
GridSize: 4
TimelineZoom: 1.4

[Metadata]
Title:Storyteller (TV Size)
TitleUnicode:Storyteller (TV Size)
Artist:TRUE
ArtistUnicode:TRUE
Creator:HeTo
Version:Saggin's Hard
Source:転生したらスライムだった件 第2期
Tags:tensei shitara slime datta ken That Time I Got Reincarnated as a Slime japanese pop jpop j-pop anime Saggin op opening season 2 2nd second オープニング 主題歌 short 唐沢美帆 Karasawa Miho female vocalist ver version
BeatmapID:2781628
BeatmapSetID:1342862

[Difficulty]
HPDrainRate:5
CircleSize:3.5
OverallDifficulty:7
ApproachRate:8
SliderMultiplier:1.4
SliderTickRate:1

[Events]
//Background and Video events
0,0,"bg.jpg",0,0
Video,-685,"op.avi"
//Break Periods
//Storyboard Layer 0 (Background)
//Storyboard Layer 1 (Fail)
//Storyboard Layer 2 (Pass)
//Storyboard Layer 3 (Foreground)
//Storyboard Layer 4 (Overlay)
//Storyboard Sound Samples

[TimingPoints]
201,312.5,4,2,6,65,1,0
201,-90.9090909090909,4,2,6,65,0,0
2622,-90.9090909090909,4,2,6,5,0,0
2701,-90.9090909090909,4,2,6,65,0,0
12075,-90.9090909090909,4,2,6,55,0,0
12701,-90.9090909090909,4,2,6,40,0,0
13013,-125,4,2,6,40,0,0
20201,-200,4,2,6,40,0,0
21451,-100,4,2,6,40,0,0
21919,-100,4,2,6,60,0,0
23013,-111.111111111111,4,2,6,60,0,0
26607,-111.111111111111,4,2,6,60,0,0
27701,-100,4,2,6,60,0,0
28872,-100,4,2,6,65,0,0
28951,-100,4,2,6,60,0,0
32701,-125,4,2,6,60,0,0
37701,-111.111111111111,4,2,6,60,0,0
40201,-100,4,2,6,60,0,0
42544,-100,4,2,6,65,0,0
45201,-90.9090909090909,4,2,6,70,0,0
62857,-90.9090909090909,4,2,6,50,0,0
63326,-90.9090909090909,4,2,6,55,0,0
63638,-90.9090909090909,4,2,6,60,0,0
63951,-90.9090909090909,4,2,6,65,0,0
64576,-90.9090909090909,4,2,6,70,0,0
81294,-90.9090909090909,4,2,6,70,0,0
82232,-90.9090909090909,4,2,6,70,0,0
88638,-90.9090909090909,4,2,6,5,0,0

[Colours]
Combo1 : 73,210,0
Combo2 : 250,231,56
Combo3 : 255,128,128
Combo4 : 89,172,255

[HitObjects]
421,59,201,6,0,P|410:102|399:187,1,115.50000352478,6|0,1:2|0:0,0:0:0:0:
397,195,513,1,10,0:0:0:0:
434,287,669,2,0,P|387:294|353:315,1,77.0000023498536,2|0,1:2|0:0,0:0:0:0:
250,216,982,2,0,P|284:232|322:236,1,77.0000023498536,0|10,1:2|0:0,0:0:0:0:
186,283,1294,6,0,P|161:238|200:136,1,154.000004699707,2|2,1:2|1:2,0:0:0:0:
281,105,1763,2,0,B|292:68|292:68|277:31,1,77.0000023498536,10|0,0:0|0:0,0:0:0:0:
178,18,2076,2,0,B|100:38|99:38,1,77.0000023498536,2|0,1:2|0:0,0:0:0:0:
18,114,2388,1,10,0:0:0:0:
18,114,2701,6,0,B|71:116|147:135,1,115.50000352478,2|0,1:2|0:0,0:0:0:0:
156,132,3013,1,10,0:0:0:0:
180,228,3169,2,0,P|165:271|162:323,1,77.0000023498536,2|0,1:2|0:0,0:0:0:0:
76,356,3482,2,0,P|70:317|57:281,1,77.0000023498536,2|10,0:0|0:0,0:0:0:0:
171,214,3794,6,0,B|262:206|216:269|331:259,1,154.000004699707,2|2,1:2|1:2,0:0:0:0:
408,233,4263,2,0,B|419:276|419:276|406:312,1,77.0000023498536,10|0,0:0|0:0,0:0:0:0:
341,382,4576,2,0,L|255:367,1,77.0000023498536,2|0,1:2|0:0,0:0:0:0:
183,317,4888,1,10,0:0:0:0:
183,317,5201,6,0,P|198:271|216:187,1,115.50000352478,6|0,1:2|0:0,0:0:0:0:
218,181,5513,1,10,0:0:0:0:
254,87,5669,2,0,P|297:104|334:110,1,77.0000023498536,2|0,1:2|0:0,0:0:0:0:
410,52,5982,1,0,1:2:0:0:
469,132,6138,1,10,0:0:0:0:
398,203,6294,6,0,P|409:242|416:291,1,77.0000023498536,2|0,1:2|0:0,0:0:0:0:
340,362,6607,1,2,1:2:0:0:
263,297,6763,1,8,0:0:0:0:
202,376,6919,2,0,P|158:363|48:347,1,154.000004699707,2|2,1:2|1:2,0:0:0:0:
1,259,7388,1,8,0:0:0:0:
72,189,7544,1,4,3:0:0:0:
72,189,7622,1,4,3:0:0:0:
72,189,7701,6,0,B|168:202|128:135|236:147,1,154.000004699707,6|8,1:2|0:0,0:0:0:0:
289,80,8169,1,2,0:0:0:0:
354,156,8326,2,0,P|342:205|331:256,1,77.0000023498536,2|2,1:2|1:2,0:0:0:0:
261,297,8638,1,8,0:0:0:0:
347,246,8794,6,0,P|398:245|443:328,1,154.000004699707,2|2,1:2|1:2,0:0:0:0:
356,376,9263,1,8,0:0:0:0:
261,297,9419,2,0,P|212:320|176:323,1,77.0000023498536,2|0,1:2|0:0,0:0:0:0:
109,262,9732,1,2,1:2:0:0:
109,262,9888,2,0,P|97:212|97:212,3,38.5000011749268,10|2|2|2,0:0|0:0|0:0|0:0,0:0:0:0:
91,200,10201,5,2,1:2:0:0:
9,142,10357,1,2,1:2:0:0:
71,63,10513,1,8,0:0:0:0:
151,122,10669,2,0,P|190:107|309:88,1,154.000004699707,2|2,0:0|1:2,0:0:0:0:
375,21,11138,1,8,0:0:0:0:
305,106,11294,6,0,P|319:149|329:192,1,77.0000023498536,6|0,1:2|0:0,0:0:0:0:
263,257,11607,1,2,1:2:0:0:
341,319,11763,1,10,0:0:0:0:
255,370,11919,2,0,P|211:360|172:356,1,77.0000023498536,0|10,1:2|0:0,0:0:0:0:
98,296,12232,1,8,0:0:0:0:
98,296,12310,1,8,0:0:0:0:
98,296,12388,2,0,P|91:268|82:247,3,38.5000011749268,8|8|8|8,0:0|0:0|0:0|0:0,0:0:0:0:
79,234,12701,1,0,1:0:0:0:
152,47,13013,6,0,P|192:60|265:66,1,112,2|2,1:2|1:2,0:0:0:0:
330,28,13482,2,0,P|369:36|389:52,1,56,2|0,0:0|1:2,0:0:0:0:
459,36,13794,2,0,P|421:50|394:133,1,112,2|2,0:0|0:0,0:0:0:0:
334,166,14263,1,0,1:2:0:0:
334,166,14419,2,0,P|348:213|363:289,2,112,2|2|2,0:0|0:0|0:0,0:0:0:0:
267,123,15201,1,0,1:2:0:0:
205,266,15513,6,0,B|138:272|169:224|85:232,1,112,2|2,1:2|1:2,0:0:0:0:
24,233,15982,2,0,L|34:303,1,56,2|0,0:0|1:2,0:0:0:0:
16,365,16294,2,0,P|33:335|107:317,1,112,2|2,0:0|0:0,0:0:0:0:
170,368,16763,1,0,1:0:0:0:
170,368,16919,2,0,P|212:357|297:347,2,112,2|2|2,0:0|0:0|0:0,0:0:0:0:
123,304,17701,1,0,1:2:0:0:
241,201,18013,6,0,P|230:155|221:89,1,112,2|2,1:2|1:2,0:0:0:0:
181,22,18482,2,0,P|155:37|126:45,1,56,2|0,0:0|1:2,0:0:0:0:
52,33,18794,2,0,P|97:41|117:114,1,112,2|2,0:0|0:0,0:0:0:0:
67,154,19263,1,0,1:2:0:0:
67,154,19419,2,0,P|78:188|93:276,2,112,2|2|0,0:0|0:0|0:0,0:0:0:0:
122,97,20201,6,0,P|171:77|233:191,1,210,2|6,1:2|1:2,0:0:0:0:
181,251,21294,1,2,0:0:0:0:
235,324,21451,6,0,P|272:315|316:309,1,70,10|0,0:0|1:2,0:0:0:0:
320,311,21685,1,0,1:2:0:0:
320,311,21763,1,0,1:2:0:0:
382,244,21919,2,0,P|366:300|353:389,2,140,14|14|6,0:0|0:0|1:2,0:0:0:0:
470,59,23013,6,0,P|431:46|401:43,1,62.9999980773926,10|0,0:0|0:0,0:0:0:0:
325,35,23326,1,2,1:2:0:0:
325,35,23482,2,0,P|336:80|342:110,1,62.9999980773926,2|8,1:2|0:0,0:0:0:0:
403,156,23794,2,0,P|395:196|380:298,1,125.999996154785,2|2,1:2|1:2,0:0:0:0:
322,345,24263,1,8,0:0:0:0:
256,285,24419,2,0,P|216:308|126:319,1,125.999996154785,2|2,1:2|1:2,0:0:0:0:
51,341,24888,2,0,P|45:303|35:268,1,62.9999980773926,8|2,0:0|0:0,0:0:0:0:
69,196,25201,5,0,1:0:0:0:
69,196,25513,2,0,P|107:183|138:177,1,62.9999980773926,10|0,0:0|0:0,0:0:0:0:
173,108,25826,1,2,1:2:0:0:
250,83,25982,2,0,P|288:96|319:102,1,62.9999980773926,2|8,1:2|0:0,0:0:0:0:
312,201,26294,6,0,P|323:241|309:278,1,62.9999980773926,2|0,1:2|0:0,0:0:0:0:
238,299,26607,2,0,P|229:269|238:236,1,62.9999980773926,2|8,1:2|0:0,0:0:0:0:
317,186,26919,2,0,B|399:182|349:234|443:228|442:228,1,125.999996154785,2|2,1:2|1:2,0:0:0:0:
495,165,27388,1,10,0:0:0:0:
495,165,27701,6,0,P|491:117|415:75,1,140,6|8,1:2|0:0,0:0:0:0:
324,52,28169,1,2,0:0:0:0:
292,137,28326,2,0,P|306:186|320:276,1,140,2|8,1:2|0:0,0:0:0:0:
271,353,28794,1,2,0:0:0:0:
271,353,28872,1,2,0:0:0:0:
271,353,28951,6,0,B|241:321|203:325|203:325|185:364|123:360,1,140,6|8,1:2|0:0,0:0:0:0:
63,343,29419,2,0,P|53:273|38:222,1,105,2|0,1:2|0:0,0:0:0:0:
41,219,29732,1,2,1:2:0:0:
29,133,29888,6,0,P|69:122|117:36,1,140,14|2,0:0|1:2,0:0:0:0:
195,11,30357,1,0,0:0:0:0:
195,11,30513,2,0,P|243:19|277:22,1,70,10|0,0:0|0:0,0:0:0:0:
340,71,30826,1,2,1:2:0:0:
276,136,30982,2,0,P|288:181|291:216,1,70,2|8,1:2|0:0,0:0:0:0:
386,222,31294,6,0,P|376:269|359:367,1,140,6|0,1:2|1:2,0:0:0:0:
269,374,31763,2,0,P|232:357|197:350,1,70,10|0,0:0|0:0,0:0:0:0:
120,313,32076,2,0,P|154:278|161:251,1,70,10|8,0:0|0:0,0:0:0:0:
249,276,32388,2,0,P|252:227|240:202,1,70,8|8,0:0|0:0,0:0:0:0:
172,141,32701,5,6,1:2:0:0:
243,87,32857,2,0,P|286:101|304:105,1,56,2|8,0:0|0:0,0:0:0:0:
351,176,33169,2,0,P|308:186|243:208,1,112,2|0,1:2|1:2,0:0:0:0:
162,231,33638,1,10,0:0:0:0:
162,231,33794,2,0,P|209:238|244:347,1,168,2|8,1:2|0:0,0:0:0:0:
80,364,34576,2,0,P|72:321|66:303,1,56,2|2,1:2|0:0,0:0:0:0:
7,251,34888,2,0,P|15:208|21:190,1,56,10|2,0:0|0:0,0:0:0:0:
41,115,35201,5,2,1:2:0:0:
102,171,35357,2,0,P|143:161|179:156,1,56,2|8,0:0|0:0,0:0:0:0:
206,91,35669,2,0,P|259:108|313:121,1,112,2|0,1:2|1:2,0:0:0:0:
372,181,36138,1,8,0:0:0:0:
372,181,36294,2,0,B|358:226|334:354|334:354,1,168,2|8,1:2|0:0,0:0:0:0:
178,360,37076,2,0,P|155:335|147:292,1,56,2|2,1:2|1:2,0:0:0:0:
64,321,37388,2,0,P|62:287|83:248,1,56,10|2,0:0|0:0,0:0:0:0:
122,181,37701,5,6,1:2:0:0:
197,226,37857,2,0,P|234:218|269:213,1,62.9999980773926,2|8,0:0|0:0,0:0:0:0:
320,150,38169,1,2,1:2:0:0:
320,150,38326,1,2,0:0:0:0:
250,95,38482,2,0,P|218:88|190:64,1,62.9999980773926,2|8,0:0|0:0,0:0:0:0:
103,56,38794,2,0,P|115:117|123:206,1,125.999996154785,2|0,1:2|0:0,0:0:0:0:
49,234,39263,2,0,P|58:268|65:314,1,62.9999980773926,10|0,0:0|0:0,0:0:0:0:
124,359,39576,2,0,P|151:328|252:319,1,125.999996154785,0|10,1:2|0:0,0:0:0:0:
306,265,40044,1,2,0:0:0:0:
241,199,40201,5,6,1:2:0:0:
313,253,40357,2,0,B|392:237|392:237,1,70,2|8,1:2|0:0,0:0:0:0:
446,175,40669,5,2,1:2:0:0:
371,121,40826,2,0,L|355:42,1,70,2|8,0:0|0:0,0:0:0:0:
432,0,41138,5,2,1:2:0:0:
350,41,41294,2,0,L|266:30,1,70,2|8,0:0|0:0,0:0:0:0:
194,0,41607,5,2,1:2:0:0:
148,78,41763,2,0,L|165:155,1,70,2|8,0:0|0:0,0:0:0:0:
113,217,42076,2,0,P|144:234|178:243,1,70,14|0,0:0|0:0,0:0:0:0:
282,300,42388,2,0,P|248:308|217:325,1,70,14|0,0:0|0:0,0:0:0:0:
134,374,42701,5,6,1:2:0:0:
134,374,42857,1,2,0:0:0:0:
65,304,43013,2,0,P|71:261|84:225,1,70,10|2,0:0|0:0,0:0:0:0:
17,159,43326,2,0,P|11:116|-2:80,1,70,2|2,1:2|1:2,0:0:0:0:
60,12,43638,1,10,0:0:0:0:
134,95,43794,6,0,P|173:80|214:74,1,70,6|2,1:2|0:0,0:0:0:0:
279,15,44107,1,8,0:0:0:0:
341,80,44263,1,10,0:0:0:0:
277,144,44419,1,10,0:0:0:0:
476,328,45044,5,2,0:0:0:0:
476,328,45122,1,2,0:0:0:0:
476,328,45201,2,0,P|434:308|388:301,1,77.0000023498536,6|0,1:2|0:0,0:0:0:0:
308,351,45513,2,0,P|301:303|291:261,1,77.0000023498536,10|0,0:0|0:0,0:0:0:0:
355,196,45826,1,2,1:2:0:0:
355,196,45982,1,0,1:2:0:0:
264,154,46138,2,0,P|222:174|176:181,1,77.0000023498536,10|0,0:0|0:0,0:0:0:0:
84,126,46451,6,0,P|97:186|106:262,1,115.50000352478,2|0,1:2|0:0,0:0:0:0:
92,257,46763,2,0,B|185:253|131:318|260:309,1,154.000004699707,8|0,0:0|1:2,0:0:0:0:
309,362,47232,1,2,0:0:0:0:
371,283,47388,2,0,P|378:239|395:195,1,77.0000023498536,8|2,0:0|0:0,0:0:0:0:
484,135,47701,6,0,P|439:121|404:28,1,154.000004699707,0|10,1:2|0:0,0:0:0:0:
319,2,48169,1,2,0:0:0:0:
269,89,48326,2,0,P|231:80|183:75,1,77.0000023498536,2|2,1:2|1:2,0:0:0:0:
113,15,48638,1,8,0:0:0:0:
188,99,48794,6,0,P|173:143|146:264,1,154.000004699707,6|2,1:2|1:2,0:0:0:0:
82,323,49263,1,8,0:0:0:0:
171,366,49419,2,0,P|210:358|254:350,1,77.0000023498536,6|0,1:2|0:0,0:0:0:0:
295,254,49732,2,0,P|332:260|370:268,1,77.0000023498536,2|8,1:2|0:0,0:0:0:0:
477,234,50044,5,8,0:0:0:0:
477,234,50122,1,8,0:0:0:0:
477,234,50201,2,0,P|467:190|460:147,1,77.0000023498536,6|0,1:2|0:0,0:0:0:0:
377,259,50513,2,0,P|383:296|392:334,1,77.0000023498536,10|0,0:0|0:0,0:0:0:0:
305,382,50826,1,2,1:2:0:0:
250,298,50982,1,0,1:2:0:0:
181,370,51138,2,0,P|135:355|99:352,1,77.0000023498536,10|0,0:0|0:0,0:0:0:0:
40,246,51451,6,0,B|128:252|92:198|193:191,1,154.000004699707,0|10,1:2|0:0,0:0:0:0:
267,143,51919,1,0,0:0:0:0:
267,143,52076,2,0,P|284:94|271:61,1,77.0000023498536,2|0,1:2|0:0,0:0:0:0:
152,40,52388,2,0,P|164:94|179:200,1,154.000004699707,10|0,0:0|1:2,0:0:0:0:
187,291,52857,1,2,0:0:0:0:
270,235,53013,2,0,P|312:248|346:251,1,77.0000023498536,10|0,0:0|0:0,0:0:0:0:
433,349,53326,2,0,P|394:353|358:365,1,77.0000023498536,0|0,1:2|1:2,0:0:0:0:
284,325,53638,1,8,0:0:0:0:
363,248,53794,6,0,P|354:194|335:85,1,154.000004699707,2|0,1:2|0:0,0:0:0:0:
257,34,54263,2,0,P|212:40|184:73,1,77.0000023498536,10|0,0:0|0:0,0:0:0:0:
183,83,54497,1,0,0:0:0:0:
183,83,54576,2,0,P|191:124|197:163,1,77.0000023498536,2|0,1:2|0:0,0:0:0:0:
130,234,54888,2,0,L|90:221,2,38.5000011749268,8|8|8,0:0|0:0|0:0,0:0:0:0:
185,318,55201,6,0,B|237:306|291:302|290:302,1,77.0000023498536,6|0,1:2|0:0,0:0:0:0:
318,234,55513,2,0,P|304:288|288:398,2,154.000004699707,10|2|8,0:0|1:2|0:0,0:0:0:0:
376,152,56294,2,0,P|421:148|478:234,1,154.000004699707,2|0,1:2|0:0,0:0:0:0:
463,327,56763,6,0,P|409:315|375:309,1,77.0000023498536,10|0,0:0|0:0,0:0:0:0:
325,231,57076,2,0,P|287:238|249:246,1,77.0000023498536,2|0,1:2|1:2,0:0:0:0:
178,316,57388,2,0,P|163:264|145:232,1,77.0000023498536,10|0,0:0|0:0,0:0:0:0:
111,139,57701,6,0,B|190:143|155:101|243:100,1,115.50000352478,6|0,1:2|0:0,0:0:0:0:
235,99,58013,2,0,P|218:133|209:171,1,77.0000023498536,8|0,0:0|0:0,0:0:0:0:
130,233,58326,2,0,P|86:220|48:215,1,77.0000023498536,2|2,1:2|0:0,0:0:0:0:
1,131,58638,1,8,0:0:0:0:
42,221,58794,6,0,P|24:281|6:372,1,154.000004699707,2|0,1:2|1:2,0:0:0:0:
112,325,59263,1,8,0:0:0:0:
197,376,59419,2,0,B|294:387|240:325|350:326,1,154.000004699707,2|2,0:0|1:2,0:0:0:0:
421,291,59888,2,0,P|435:246|419:206,1,77.0000023498536,10|2,0:0|0:0,0:0:0:0:
352,151,60201,5,10,0:0:0:0:
352,151,60357,1,10,0:0:0:0:
425,83,60513,1,10,0:0:0:0:
346,20,60669,1,10,0:0:0:0:
169,115,60982,5,10,0:0:0:0:
94,181,61138,2,0,L|110:271,1,77.0000023498536,10|10,0:0|0:0,0:0:0:0:
169,342,61451,1,10,0:0:0:0:
169,342,61607,1,10,0:0:0:0:
366,373,61919,5,10,0:0:0:0:
345,268,62076,2,0,L|365:179,1,77.0000023498536,10|10,0:0|0:0,0:0:0:0:
462,161,62388,2,0,L|440:72,1,77.0000023498536,8|8,0:0|0:0,0:0:0:0:
356,28,62701,5,6,1:2:0:0:
356,28,62857,1,0,1:2:0:0:
303,113,63013,2,0,P|261:98|217:92,1,77.0000023498536,0|0,1:2|1:2,0:0:0:0:
147,34,63326,1,0,1:2:0:0:
147,34,63482,1,0,1:2:0:0:
73,101,63638,2,0,L|90:195,1,77.0000023498536,0|0,1:2|1:2,0:0:0:0:
170,234,63951,5,0,1:2:0:0:
103,309,64107,1,0,1:2:0:0:
183,368,64263,2,0,P|229:357|269:351,1,77.0000023498536,10|0,0:0|1:2,0:0:0:0:
324,276,64576,1,10,0:0:0:0:
395,345,64732,1,8,0:0:0:0:
459,268,64888,2,0,L|466:226,3,38.5000011749268,8|8|4|0,0:0|0:0|3:0|3:0,0:0:0:0:
472,207,65201,6,0,P|429:195|385:191,1,77.0000023498536,6|0,1:2|0:0,0:0:0:0:
276,121,65513,2,0,P|314:116|351:105,1,77.0000023498536,10|0,0:0|0:0,0:0:0:0:
430,43,65826,1,2,1:2:0:0:
430,43,65982,1,0,1:2:0:0:
491,132,66138,2,0,P|478:173|470:220,1,77.0000023498536,10|0,0:0|0:0,0:0:0:0:
472,324,66451,6,0,P|428:309|332:296,1,115.50000352478,2|0,1:2|0:0,0:0:0:0:
340,307,66763,2,0,P|371:269|331:169,1,154.000004699707,8|0,0:0|1:2,0:0:0:0:
262,116,67232,1,2,0:0:0:0:
206,199,67388,2,0,P|161:207|124:217,1,77.0000023498536,10|2,0:0|0:0,0:0:0:0:
19,277,67701,6,0,B|109:275|65:335|176:338,1,154.000004699707,6|10,1:2|0:0,0:0:0:0:
245,378,68169,1,2,0:0:0:0:
307,299,68326,2,0,P|313:247|327:212,1,77.0000023498536,2|2,1:2|1:2,0:0:0:0:
398,160,68638,1,8,0:0:0:0:
308,216,68794,6,0,B|280:182|231:174|231:174|208:201|164:205,1,154.000004699707,6|2,1:2|1:2,0:0:0:0:
86,156,69263,1,8,0:0:0:0:
165,95,69419,2,0,P|154:53|147:15,1,77.0000023498536,6|0,1:2|0:0,0:0:0:0:
48,1,69732,2,0,P|55:38|65:75,1,77.0000023498536,2|8,1:2|0:0,0:0:0:0:
176,120,70044,1,8,0:0:0:0:
176,120,70122,1,8,0:0:0:0:
176,120,70201,6,0,P|231:106|262:103,1,77.0000023498536,6|0,1:2|0:0,0:0:0:0:
341,46,70513,2,0,P|383:61|401:98,1,77.0000023498536,10|0,0:0|0:0,0:0:0:0:
349,175,70826,1,2,1:2:0:0:
443,207,70982,1,0,1:2:0:0:
378,283,71138,2,0,P|390:319|398:357,1,77.0000023498536,10|0,0:0|0:0,0:0:0:0:
286,369,71451,6,0,P|270:326|168:296,1,154.000004699707,0|10,1:2|0:0,0:0:0:0:
99,336,71919,1,0,0:0:0:0:
99,336,72076,2,0,P|91:298|78:261,1,77.0000023498536,2|0,1:2|0:0,0:0:0:0:
24,178,72388,2,0,P|31:140|44:103,1,77.0000023498536,10|2,0:0|0:0,0:0:0:0:
130,40,72701,6,0,B|219:40|175:93|277:88,1,154.000004699707,6|8,1:2|0:0,0:0:0:0:
355,34,73169,1,0,0:0:0:0:
355,34,73326,2,0,P|392:63|398:98,1,77.0000023498536,0|0,1:2|0:0,0:0:0:0:
320,152,73638,2,0,P|335:192|344:243,1,77.0000023498536,8|2,0:0|1:2,0:0:0:0:
422,285,73951,5,2,0:0:0:0:
422,285,74107,1,0,1:2:0:0:
345,348,74263,2,10,P|309:318|254:312,1,77.0000023498536,10|0,0:0|0:0,0:0:0:0:
188,351,74576,2,0,P|179:313|165:277,1,77.0000023498536,2|0,1:2|0:0,0:0:0:0:
94,207,74888,1,8,0:0:0:0:
141,118,75044,1,8,0:0:0:0:
112,21,75201,6,0,P|165:10|213:94,1,154.000004699707,6|10,1:2|0:0,0:0:0:0:
261,172,75669,1,0,0:0:0:0:
261,172,75826,2,0,P|320:156|359:153,1,77.0000023498536,2|0,1:2|1:2,0:0:0:0:
420,100,76138,1,8,0:0:0:0:
347,169,76294,6,0,P|360:216|380:326,1,154.000004699707,2|0,1:2|0:0,0:0:0:0:
290,366,76763,2,0,P|242:348|208:341,1,77.0000023498536,10|0,0:0|0:0,0:0:0:0:
123,306,77076,2,0,P|174:274|186:252,1,77.0000023498536,2|0,1:2|0:0,0:0:0:0:
167,161,77388,2,0,P|151:109|151:84,1,77.0000023498536,10|0,0:0|0:0,0:0:0:0:
206,2,77701,6,0,B|297:-5|254:48|363:46,1,154.000004699707,6|10,1:2|0:0,0:0:0:0:
443,14,78169,1,0,0:0:0:0:
443,14,78326,2,0,P|430:63|425:97,1,77.0000023498536,2|2,1:2|1:2,0:0:0:0:
345,148,78638,1,10,0:0:0:0:
432,99,78794,6,0,P|477:112|498:209,1,154.000004699707,6|2,1:2|1:2,0:0:0:0:
399,214,79263,1,10,0:0:0:0:
437,306,79419,2,0,P|427:349|421:389,1,77.0000023498536,2|0,1:2|0:0,0:0:0:0:
321,371,79732,2,0,P|286:340|170:324,1,154.000004699707,2|0,1:2|1:0,0:0:0:0:
108,251,80201,5,14,0:0:0:0:
45,307,80357,2,0,P|56:363|60:401,1,77.0000023498536,0|10,1:2|0:0,0:0:0:0:
183,320,80669,2,0,P|188:281|196:244,1,77.0000023498536,0|10,1:2|0:0,0:0:0:0:
194,147,80982,2,0,P|227:169|266:177,1,77.0000023498536,0|10,1:2|0:0,0:0:0:0:
286,190,81216,1,0,0:0:0:0:
287,190,81294,6,0,P|264:143|304:53,1,154.000004699707,6|0,1:2|1:2,0:0:0:0:
396,23,81763,1,10,0:0:0:0:
466,94,81919,2,0,P|454:145|443:259,1,154.000004699707,6|0,1:2|1:2,0:0:0:0:
365,309,82388,2,0,P|319:292|286:287,1,77.0000023498536,10|0,0:0|0:0,0:0:0:0:
220,216,82701,5,10,0:0:0:0:
148,286,82857,2,0,P|161:337|165:373,1,77.0000023498536,10|10,0:0|0:0,0:0:0:0:
49,311,83169,2,0,P|42:273|31:236,1,77.0000023498536,10|0,0:0|1:2,0:0:0:0:
101,163,83482,1,10,0:0:0:0:
18,106,83638,1,10,0:0:0:0:
85,32,83794,6,0,P|132:24|192:103,1,154.000004699707,6|10,1:2|0:0,0:0:0:0:
183,202,84263,1,10,0:0:0:0:
265,145,84419,1,10,0:0:0:0:
326,224,84576,2,0,P|315:262|310:299,1,77.0000023498536,10|8,0:0|0:0,0:0:0:0:
313,314,84810,1,8,0:0:0:0:
313,314,84888,1,8,0:0:0:0:
226,363,85044,1,4,3:0:0:0:
428,142,85669,6,0,L|419:104,1,38.5000011749268,0|0,1:2|1:2,0:0:0:0:
414,89,85826,1,6,1:2:0:0:
256,192,85904,12,0,88638,0:0:0:0:
