osu file format v14

[General]
AudioFilename: audio.mp3
AudioLeadIn: 0
PreviewTime: 44263
Countdown: 0
SampleSet: Soft
StackLeniency: 0.7
Mode: 0
LetterboxInBreaks: 0
WidescreenStoryboard: 0

[Editor]
DistanceSpacing: 0.7
BeatDivisor: 4
GridSize: 4
TimelineZoom: 1.6

[Metadata]
Title:Storyteller (TV Size)
TitleUnicode:Storyteller (TV Size)
Artist:TRUE
ArtistUnicode:TRUE
Creator:HeTo
Version:Nameless Story
Source:転生したらスライムだった件 第2期
Tags:tensei shitara slime datta ken That Time I Got Reincarnated as a Slime japanese pop jpop j-pop anime Saggin op opening season 2 2nd second オープニング 主題歌 short 唐沢美帆 Karasawa Miho female vocalist ver version
BeatmapID:2781567
BeatmapSetID:1342862

[Difficulty]
HPDrainRate:6
CircleSize:4.3
OverallDifficulty:8.7
ApproachRate:9.3
SliderMultiplier:1.8
SliderTickRate:1

[Events]
//Background and Video events
0,0,"bg.jpg",0,0
Video,-685,"op.avi"
//Break Periods
//Storyboard Layer 0 (Background)
//Storyboard Layer 1 (Fail)
//Storyboard Layer 2 (Pass)
//Storyboard Layer 3 (Foreground)
//Storyboard Layer 4 (Overlay)
//Storyboard Sound Samples

[TimingPoints]
201,312.5,4,2,6,65,1,0
201,-103.092783505155,4,2,6,65,0,0
12076,-103.092783505155,4,2,6,55,0,0
12701,-138.888888888889,4,2,6,40,0,0
21919,-98.0392156862746,4,2,6,60,0,0
22544,-108.695652173913,4,2,6,60,0,0
42076,-89.2857142857143,4,2,6,60,0,0
42701,-108.695652173913,4,2,6,65,0,0
45201,-94.3396226415094,4,2,6,70,0,0
54888,-94.3396226415094,4,2,6,70,0,0
55201,-94.3396226415094,4,2,6,70,0,0
62857,-94.3396226415094,4,2,6,50,0,0
63326,-94.3396226415094,4,2,6,55,0,0
63638,-94.3396226415094,4,2,6,60,0,0
63951,-94.3396226415094,4,2,6,65,0,0
64576,-94.3396226415094,4,2,6,70,0,0
65201,-94.3396226415094,4,2,6,70,0,0
88638,-100,4,2,6,5,0,0

[Colours]
Combo1 : 73,210,0
Combo2 : 250,231,56
Combo3 : 255,128,128
Combo4 : 89,172,255

[HitObjects]
402,203,201,6,0,P|348:208|271:261,1,130.950003097115,6|0,1:2|0:0,0:0:0:0:
278,258,513,1,10,0:0:0:0:
115,112,669,2,0,P|124:54|122:20,1,87.3000020647431,2|0,1:2|0:0,0:0:0:0:
186,247,982,1,0,1:2:0:0:
296,92,1138,1,10,0:0:0:0:
91,262,1294,6,0,B|206:260|141:335|269:331,1,174.600004129486,2|2,1:2|1:2,0:0:0:0:
484,211,1763,2,0,B|442:203|442:203|437:194|437:194|396:186,1,87.3000020647431,10|0,0:0|0:0,0:0:0:0:
244,17,2076,2,0,P|258:74|262:114,1,87.3000020647431,2|0,1:2|0:0,0:0:0:0:
353,242,2388,2,0,P|358:198|383:104,1,130.950003097115,10|0,0:0|0:0,0:0:0:0:
393,96,2701,5,2,1:2:0:0:
224,228,2857,1,2,0:0:0:0:
406,310,3013,1,10,0:0:0:0:
283,175,3169,2,0,P|207:204|104:223,1,174.600004129486,2|2,1:2|0:0,0:0:0:0:
260,101,3638,1,10,0:0:0:0:
197,299,3794,6,0,P|115:268|28:261,1,174.600004129486,2|2,1:2|1:2,0:0:0:0:
9,270,4185,1,2,0:0:0:0:
9,270,4263,2,0,P|-7:217|6:180,1,87.3000020647431,10|0,0:0|0:0,0:0:0:0:
145,22,4576,2,0,B|137:64|137:64|143:68|143:68|133:135,1,87.3000020647431,2|0,1:2|0:0,0:0:0:0:
198,299,4888,1,10,0:0:0:0:
209,313,5201,6,0,B|260:299|260:299|274:271|274:271|338:251,1,130.950003097115,6|0,1:2|0:0,0:0:0:0:
335,262,5513,1,10,0:0:0:0:
432,88,5669,2,0,P|420:143|418:198,1,87.3000020647431,2|0,1:2|0:0,0:0:0:0:
328,37,5982,1,0,1:2:0:0:
502,167,6138,1,10,0:0:0:0:
317,256,6294,6,0,B|227:249|291:211|188:206,1,130.950003097115,2|0,1:2|0:0,0:0:0:0:
185,219,6607,1,2,1:2:0:0:
349,112,6763,1,8,0:0:0:0:
185,302,6919,2,0,P|141:306|102:325,1,87.3000020647431,2|0,1:2|0:0,0:0:0:0:
315,179,7232,1,2,1:2:0:0:
184,97,7388,1,8,0:0:0:0:
317,256,7544,1,4,3:0:0:0:
432,82,7701,6,0,P|425:133|409:270,1,174.600004129486,6|8,1:2|0:0,0:0:0:0:
324,85,8169,1,2,0:0:0:0:
496,227,8326,1,2,1:2:0:0:
290,336,8482,1,2,1:2:0:0:
400,169,8638,1,8,0:0:0:0:
509,338,8794,6,0,B|474:344|474:344|468:355|468:355|418:365,1,87.3000020647431,2|0,1:2|0:0,0:0:0:0:
337,220,9107,1,2,1:2:0:0:
409,254,9263,1,8,0:0:0:0:
221,383,9419,6,0,P|217:343|210:290,1,87.3000020647431,2|0,1:2|0:0,0:0:0:0:
306,109,9732,1,2,1:2:0:0:
352,296,9888,1,8,0:0:0:0:
183,85,10044,1,2,0:0:0:0:
178,63,10122,1,2,0:0:0:0:
192,46,10201,5,2,1:2:0:0:
389,177,10357,2,0,P|346:184|300:199,1,87.3000020647431,2|8,1:2|0:0,0:0:0:0:
113,308,10669,1,2,0:0:0:0:
221,167,10826,1,2,1:2:0:0:
285,366,10982,1,2,1:2:0:0:
83,208,11138,1,8,0:0:0:0:
315,110,11294,6,0,P|307:166|303:220,1,87.3000020647431,6|0,1:2|0:0,0:0:0:0:
193,363,11607,1,2,1:2:0:0:
394,218,11763,1,10,0:0:0:0:
148,100,11919,1,0,1:2:0:0:
275,287,12076,5,10,0:0:0:0:
275,287,12154,1,8,0:0:0:0:
275,287,12232,2,0,P|299:278|325:277,1,43.6500010323715,8|8,0:0|0:0,0:0:0:0:
494,150,12388,1,8,0:0:0:0:
494,150,12466,1,8,0:0:0:0:
494,150,12544,2,0,P|468:145|451:139,1,43.6500010323715,8|8,0:0|0:0,0:0:0:0:
384,70,12701,5,0,1:0:0:0:
384,70,13013,2,0,P|378:118|369:213,1,129.600003164063,2|2,1:2|1:2,0:0:0:0:
281,118,13482,2,0,P|286:161|290:205,1,64.8000015820313,2|0,0:0|1:2,0:0:0:0:
200,86,13794,6,0,B|111:107|168:131|82:152,1,129.600003164063,2|2,0:0|0:0,0:0:0:0:
93,254,14263,1,0,1:2:0:0:
169,256,14419,2,0,P|218:234|235:233,1,64.8000015820313,2|0,0:0|1:2,0:0:0:0:
80,65,14732,2,0,P|31:87|14:88,1,64.8000015820313,2|0,0:0|1:2,0:0:0:0:
91,149,15044,1,2,0:0:0:0:
18,234,15201,5,0,1:2:0:0:
18,234,15513,2,0,P|28:283|37:367,1,129.600003164063,2|2,1:2|1:2,0:0:0:0:
129,242,15982,2,0,P|122:275|116:331,1,64.8000015820313,2|0,0:0|1:2,0:0:0:0:
198,372,16294,6,0,P|245:357|329:345,1,129.600003164063,2|2,0:0|0:0,0:0:0:0:
226,253,16763,1,0,1:0:0:0:
287,207,16919,2,0,P|318:217|374:225,1,64.8000015820313,2|0,0:0|1:2,0:0:0:0:
200,112,17232,2,0,P|207:69|204:39,1,64.8000015820313,2|0,0:0|1:2,0:0:0:0:
145,171,17544,1,2,0:0:0:0:
282,96,17701,5,0,1:2:0:0:
282,96,18013,2,0,B|365:95|329:139|435:129,1,129.600003164063,2|2,1:2|1:2,0:0:0:0:
494,60,18482,2,0,P|460:55|422:37,1,64.8000015820313,2|0,0:0|1:2,0:0:0:0:
512,198,18794,6,0,P|478:203|380:244,1,129.600003164063,2|2,0:0|0:0,0:0:0:0:
268,148,19263,1,0,1:2:0:0:
325,101,19419,2,0,P|329:57|337:27,1,64.8000015820313,2|0,0:0|1:2,0:0:0:0:
191,146,19732,2,0,P|187:190|179:220,1,64.8000015820313,2|0,0:0|1:2,0:0:0:0:
260,308,20044,1,0,0:0:0:0:
302,238,20201,5,2,1:2:0:0:
169,310,20357,1,2,0:0:0:0:
217,372,20513,1,2,1:2:0:0:
177,222,20669,1,2,0:0:0:0:
110,371,20826,5,2,1:2:0:0:
309,232,20982,2,0,P|359:250|389:254,1,64.8000015820313,2|6,0:0|1:2,0:0:0:0:
390,326,21294,1,2,0:0:0:0:
163,144,21451,5,10,0:0:0:0:
340,46,21607,1,0,1:2:0:0:
347,67,21685,1,0,1:2:0:0:
336,86,21763,1,0,1:2:0:0:
144,296,21919,6,0,P|97:277|36:268,1,91.8000005603027,14|0,0:0|0:0,0:0:0:0:
253,75,22232,2,0,P|260:125|282:182,1,91.8000005603027,14|0,0:0|0:0,0:0:0:0:
20,95,22544,6,0,B|125:75|44:24|182:-3,1,165.599994440918,6|0,1:2|1:2,0:0:0:0:
168,222,23013,2,0,P|121:203|60:194,1,82.7999972204591,10|0,0:0|0:0,0:0:0:0:
253,75,23326,1,2,1:2:0:0:
150,4,23482,2,0,P|161:66|165:110,1,82.7999972204591,2|8,1:2|0:0,0:0:0:0:
278,235,23794,6,0,B|317:195|374:212|374:212|387:241|426:259,1,165.599994440918,2|2,1:2|1:2,0:0:0:0:
253,75,24263,1,8,0:0:0:0:
329,57,24419,2,0,P|384:47|419:31,1,82.7999972204591,2|0,1:2|0:0,0:0:0:0:
278,235,24732,1,2,1:2:0:0:
400,145,24888,1,8,0:0:0:0:
195,205,25044,1,2,0:0:0:0:
340,354,25201,6,0,P|342:292|348:253,1,82.7999972204591,0|0,1:0|0:0,0:0:0:0:
172,371,25513,2,0,P|133:356|92:352,1,82.7999972204591,10|0,0:0|0:0,0:0:0:0:
278,235,25826,1,2,1:2:0:0:
181,123,25982,2,0,P|192:185|196:229,1,82.7999972204591,2|8,1:2|0:0,0:0:0:0:
312,39,26294,6,0,B|364:45|364:45|388:69|388:69|463:77,1,124.199995830689,2|0,1:2|0:0,0:0:0:0:
498,51,26607,1,2,1:2:0:0:
338,166,26763,1,8,0:0:0:0:
498,51,26919,2,0,P|503:104|521:158,1,82.7999972204591,2|0,1:2|0:0,0:0:0:0:
371,251,27232,1,2,1:2:0:0:
494,324,27388,1,10,0:0:0:0:
455,255,27544,1,2,0:0:0:0:
289,378,27701,6,0,B|185:371|249:316|133:312,1,165.599994440918,6|8,1:2|0:0,0:0:0:0:
307,177,28169,1,2,0:0:0:0:
239,139,28326,2,0,P|191:160|140:163,1,82.7999972204591,2|0,1:2|1:2,0:0:0:0:
95,133,28638,1,8,0:0:0:0:
270,274,28794,5,2,0:0:0:0:
89,122,28951,2,0,P|97:63|96:18,1,82.7999972204591,6|0,1:2|0:0,0:0:0:0:
11,227,29263,1,8,0:0:0:0:
224,58,29419,2,0,B|273:65|273:65|294:89|294:89|355:97,1,124.199995830689,2|0,1:2|0:0,0:0:0:0:
356,83,29732,5,2,1:2:0:0:
192,243,29888,2,0,P|145:240|69:289,1,124.199995830689,14|0,0:0|0:0,0:0:0:0:
69,295,30201,6,0,P|81:348|82:380,1,82.7999972204591,2|0,1:2|0:0,0:0:0:0:
196,156,30513,2,0,P|251:178|279:178,1,82.7999972204591,10|0,0:0|0:0,0:0:0:0:
184,331,30826,5,2,1:2:0:0:
71,163,30982,2,0,P|81:122|84:81,1,82.7999972204591,2|8,1:2|0:0,0:0:0:0:
260,282,31294,6,0,B|364:266|288:215|419:197,1,165.599994440918,6|0,1:2|1:2,0:0:0:0:
252,4,31763,2,0,P|248:55|240:100,1,82.7999972204591,10|0,0:0|0:0,0:0:0:0:
394,280,32076,5,10,0:0:0:0:
466,132,32232,1,8,0:0:0:0:
255,257,32388,5,8,0:0:0:0:
453,358,32544,1,8,0:0:0:0:
397,201,32701,5,6,1:2:0:0:
253,349,32857,2,0,P|200:331|159:329,1,82.7999972204591,2|8,0:0|0:0,0:0:0:0:
313,148,33169,2,0,P|318:205|336:323,1,165.599994440918,2|0,1:2|1:2,0:0:0:0:
367,384,33638,1,10,0:0:0:0:
235,201,33794,6,0,B|124:212|193:275|73:282,1,165.599994440918,2|0,1:2|0:0,0:0:0:0:
3,126,34263,2,0,P|12:73|10:37,1,82.7999972204591,8|0,0:0|0:0,0:0:0:0:
99,199,34576,1,2,1:2:0:0:
7,266,34732,1,2,0:0:0:0:
128,116,34888,1,10,0:0:0:0:
185,292,35044,1,2,0:0:0:0:
3,126,35201,5,2,1:2:0:0:
221,24,35357,2,0,P|212:64|205:122,1,82.7999972204591,2|8,0:0|0:0,0:0:0:0:
94,280,35669,2,0,B|200:262|121:212|252:194,1,165.599994440918,2|0,1:2|1:2,0:0:0:0:
300,237,36138,1,8,0:0:0:0:
478,96,36294,6,0,P|469:43|361:35,1,165.599994440918,2|0,1:2|0:0,0:0:0:0:
504,186,36763,2,0,P|493:238|494:286,1,82.7999972204591,8|0,0:0|0:0,0:0:0:0:
339,146,37076,1,2,1:2:0:0:
411,110,37233,1,2,1:2:0:0:
323,262,37388,1,10,0:0:0:0:
234,103,37544,1,2,0:0:0:0:
420,234,37701,5,6,1:2:0:0:
257,358,37857,2,0,P|203:340|165:337,1,82.7999972204591,2|8,0:0|0:0,0:0:0:0:
280,195,38169,1,2,1:2:0:0:
323,262,38326,5,2,0:0:0:0:
150,141,38482,2,0,P|157:73|156:33,1,82.7999972204591,2|8,0:0|0:0,0:0:0:0:
356,191,38794,6,0,B|247:202|322:256|185:268,1,165.599994440918,2|0,1:2|0:0,0:0:0:0:
379,91,39263,2,0,B|418:94|418:94|426:104|426:104|469:110,1,82.7999972204591,10|0,0:0|0:0,0:0:0:0:
363,274,39576,1,0,1:2:0:0:
361,253,39654,1,0,1:2:0:0:
359,232,39732,1,0,1:2:0:0:
358,212,39810,1,0,1:2:0:0:
356,191,39888,1,10,0:0:0:0:
235,42,40044,1,2,0:0:0:0:
255,42,40122,1,2,0:0:0:0:
266,59,40201,5,6,1:2:0:0:
143,225,40357,2,0,P|106:206|48:205,1,82.7999972204591,2|8,1:2|0:0,0:0:0:0:
168,113,40669,5,2,1:2:0:0:
288,301,40825,2,0,P|325:282|383:281,1,82.7999972204591,2|8,0:0|0:0,0:0:0:0:
255,137,41138,5,2,1:2:0:0:
144,381,41294,2,0,P|140:340|129:300,1,82.7999972204591,2|8,0:0|0:0,0:0:0:0:
104,82,41607,5,2,1:2:0:0:
288,301,41763,2,0,P|292:259|302:219,1,82.7999972204591,2|8,0:0|0:0,0:0:0:0:
418,15,42076,6,0,B|462:21|462:21|471:35|471:35|526:46,1,100.800001230469,14|0,0:0|0:0,0:0:0:0:
290,212,42388,2,0,B|233:222|233:222|210:254|210:254|132:271,1,151.200001845703,14|0,0:0|0:0,0:0:0:0:
131,260,42701,5,6,1:2:0:0:
0,135,42857,1,2,0:0:0:0:
231,44,43013,1,10,0:0:0:0:
144,152,43169,1,2,0:0:0:0:
31,10,43326,5,2,1:2:0:0:
256,150,43482,1,2,1:2:0:0:
34,267,43638,1,10,0:0:0:0:
240,34,43794,5,6,1:2:0:0:
219,327,43951,1,2,0:0:0:0:
67,99,44107,1,8,0:0:0:0:
362,221,44263,5,10,0:0:0:0:
37,353,44419,1,10,0:0:0:0:
319,86,45044,5,2,0:0:0:0:
319,86,45122,1,2,0:0:0:0:
319,86,45201,2,0,B|353:50|410:62|410:62|427:86|467:96,1,143.100000218353,6|0,1:2|0:0,0:0:0:0:
452,94,45513,2,0,P|453:36|459:-7,1,95.4000001455689,10|0,0:0|0:0,0:0:0:0:
248,150,45826,2,0,P|246:207|240:251,1,95.4000001455689,2|0,1:2|0:0,0:0:0:0:
372,384,46138,2,0,B|420:372|420:372|428:361|428:361|479:349,1,95.4000001455689,10|0,0:0|0:0,0:0:0:0:
479,359,46372,1,2,0:0:0:0:
479,359,46451,6,0,B|494:221|434:291|449:171,2,190.800000291138,2|8|0,1:2|0:0|1:2,0:0:0:0:
295,204,47232,1,2,0:0:0:0:
355,158,47388,1,10,0:0:0:0:
276,318,47544,1,2,0:0:0:0:
145,132,47701,6,0,P|154:73|154:24,1,95.4000001455689,0|2,1:2|0:0,0:0:0:0:
295,204,48013,1,10,0:0:0:0:
147,295,48169,1,2,0:0:0:0:
175,222,48326,5,2,1:2:0:0:
341,368,48482,2,0,P|384:349|440:344,1,95.4000001455689,2|8,1:2|0:0,0:0:0:0:
242,133,48794,6,0,B|136:160|136:160|126:208|177:222,1,190.800000291138,6|2,1:2|1:2,0:0:0:0:
256,265,49263,1,8,0:0:0:0:
98,94,49419,2,0,P|106:31|104:-12,1,95.4000001455689,6|0,1:2|0:0,0:0:0:0:
243,133,49732,1,2,1:2:0:0:
55,254,49888,1,8,0:0:0:0:
48,177,50044,5,8,0:0:0:0:
48,177,50122,1,8,0:0:0:0:
48,177,50201,2,0,B|104:184|104:184|123:213|123:213|193:223,1,143.100000218353,6|0,1:2|0:0,0:0:0:0:
188,218,50513,2,0,P|188:265|180:315,1,95.4000001455689,10|0,0:0|0:0,0:0:0:0:
328,203,50826,2,0,P|328:156|336:106,1,95.4000001455689,2|0,1:2|0:0,0:0:0:0:
173,322,51138,6,0,B|74:326|136:380|38:386,1,143.100000218353,10|0,0:0|0:0,0:0:0:0:
33,379,51451,6,0,P|10:335|34:289,1,95.4000001455689,0|0,1:2|0:0,0:0:0:0:
159,130,51763,2,0,P|224:151|257:150,1,95.4000001455689,10|0,0:0|0:0,0:0:0:0:
64,17,52076,2,0,P|73:86|78:152,1,95.4000001455689,2|0,1:2|0:0,0:0:0:0:
189,24,52388,1,10,0:0:0:0:
18,197,52544,1,2,0:0:0:0:
3,178,52622,1,2,0:0:0:0:
14,156,52701,5,0,1:2:0:0:
189,284,52857,1,2,0:0:0:0:
136,340,53013,2,0,P|88:342|44:360,1,95.4000001455689,10|0,0:0|0:0,0:0:0:0:
241,209,53326,1,0,1:2:0:0:
100,115,53482,1,0,1:2:0:0:
140,182,53638,1,8,0:0:0:0:
321,14,53794,6,0,B|440:28|365:87|488:102,1,190.800000291138,2|0,1:2|0:0,0:0:0:0:
290,290,54263,2,0,P|231:297|194:316,1,95.4000001455689,10|0,0:0|0:0,0:0:0:0:
330,90,54576,2,0,P|341:149|350:186,1,95.4000001455689,2|0,1:2|0:0,0:0:0:0:
419,365,54888,5,8,0:0:0:0:
461,373,54966,1,8,0:0:0:0:
497,350,55044,1,8,0:0:0:0:
507,308,55122,1,8,0:0:0:0:
498,293,55201,6,0,B|456:267|418:271|418:271|400:302|350:307,1,143.100000218353,6|0,1:2|0:0,0:0:0:0:
353,310,55513,2,0,P|328:257|342:221,1,95.4000001455689,10|0,0:0|0:0,0:0:0:0:
434,66,55826,1,2,1:2:0:0:
465,139,55982,1,0,1:2:0:0:
329,25,56138,1,8,0:0:0:0:
499,24,56294,6,0,B|427:41|427:41|404:86|404:86|313:116,1,190.800000291138,2|0,1:2|0:0,0:0:0:0:
172,255,56763,2,0,P|119:204|142:145,1,143.100000218353,10|0,0:0|0:0,0:0:0:0:
153,135,57076,2,0,B|200:145|200:145|207:156|207:156|260:166,1,95.4000001455689,2|0,1:2|1:2,0:0:0:0:
35,227,57388,2,0,B|48:288|48:288|44:303|44:303|56:368,1,143.100000218353,10|0,0:0|0:0,0:0:0:0:
68,376,57701,6,0,B|179:369|117:307|251:309,2,190.800000291138,6|8|2,1:2|0:0|1:2,0:0:0:0:
223,234,58482,1,2,0:0:0:0:
163,180,58638,1,8,0:0:0:0:
326,66,58794,6,0,P|406:90|528:103,1,190.800000291138,2|0,1:2|1:2,0:0:0:0:
309,218,59263,1,8,0:0:0:0:
365,272,59419,2,0,P|415:256|492:248,1,95.4000001455689,2|0,0:0|1:2,0:0:0:0:
303,139,59732,1,2,1:2:0:0:
372,104,59888,6,0,P|407:114|460:120,1,47.7000000727844,10|0,0:0|1:2,0:0:0:0:
288,297,60044,2,0,P|264:302|242:309,1,47.7000000727844,2|0,1:2|1:2,0:0:0:0:
111,192,60201,5,10,0:0:0:0:
242,83,60357,1,10,0:0:0:0:
129,320,60513,1,10,0:0:0:0:
19,109,60669,1,10,0:0:0:0:
11,97,60982,1,10,0:0:0:0:
244,231,61138,5,10,0:0:0:0:
121,56,61294,1,10,0:0:0:0:
17,311,61451,1,10,0:0:0:0:
242,83,61607,1,10,0:0:0:0:
253,72,61919,1,10,0:0:0:0:
26,4,62076,5,10,0:0:0:0:
149,211,62232,1,10,0:0:0:0:
326,22,62388,5,8,0:0:0:0:
368,22,62466,1,8,0:0:0:0:
402,47,62544,1,8,0:0:0:0:
404,89,62622,1,8,0:0:0:0:
396,109,62701,6,0,B|355:119|355:119|348:134|348:134|291:155,1,95.4000001455689,6|0,1:2|0:0,0:0:0:0:
268,220,63013,1,0,1:2:0:0:
324,275,63169,1,0,1:2:0:0:
238,143,63326,1,0,1:2:0:0:
199,325,63482,1,0,1:2:0:0:
380,206,63638,5,0,1:0:0:0:
151,264,63794,1,0,1:2:0:0:
396,201,63951,1,0,1:2:0:0:
154,84,64107,1,0,1:2:0:0:
315,298,64263,5,10,0:0:0:0:
406,37,64419,1,0,1:2:0:0:
128,269,64576,5,10,0:0:0:0:
432,384,64732,1,8,0:0:0:0:
284,78,64888,5,8,0:0:0:0:
242,78,64966,1,8,0:0:0:0:
208,103,65044,1,4,3:0:0:0:
206,145,65122,1,0,3:0:0:0:
215,164,65201,6,0,B|275:176|275:176|291:201|291:201|356:214,1,143.100000218353,6|0,1:2|0:0,0:0:0:0:
358,206,65513,2,0,P|376:145|362:114,1,95.4000001455689,10|0,0:0|0:0,0:0:0:0:
232,286,65826,2,0,P|242:337|246:396,1,95.4000001455689,2|0,1:2|0:0,0:0:0:0:
133,188,66138,2,0,P|83:204|35:212,1,95.4000001455689,10|0,0:0|0:0,0:0:0:0:
21,204,66372,1,2,0:0:0:0:
21,204,66451,6,0,B|1:94|62:136|45:12,2,190.800000291138,2|8|0,1:2|0:0|1:2,0:0:0:0:
213,83,67232,1,2,0:0:0:0:
240,156,67388,1,10,0:0:0:0:
122,82,67544,1,2,0:0:0:0:
350,0,67701,6,0,P|341:51|341:107,1,95.4000001455689,6|0,1:2|0:0,0:0:0:0:
188,217,68013,1,10,0:0:0:0:
356,305,68169,1,2,0:0:0:0:
323,238,68326,5,2,1:2:0:0:
198,364,68482,2,0,P|143:343|99:344,1,95.4000001455689,2|8,1:2|0:0,0:0:0:0:
320,163,68794,6,0,B|359:122|419:133|419:133|443:178|502:174,1,190.800000291138,6|2,1:2|1:2,0:0:0:0:
494,99,69263,1,8,0:0:0:0:
425,266,69419,2,0,P|432:319|445:372,1,95.4000001455689,6|0,1:2|0:0,0:0:0:0:
300,253,69732,1,2,1:2:0:0:
416,132,69888,1,8,0:0:0:0:
359,74,70044,5,8,0:0:0:0:
359,74,70122,1,8,0:0:0:0:
359,74,70201,2,0,B|303:81|303:81|284:110|284:110|214:120,1,143.100000218353,6|0,1:2|0:0,0:0:0:0:
214,112,70513,2,0,P|215:50|250:18,1,95.4000001455689,10|0,0:0|0:0,0:0:0:0:
377,219,70826,1,2,1:2:0:0:
348,147,70982,1,0,1:2:0:0:
210,309,71138,6,0,B|114:307|181:264|69:259,1,143.100000218353,10|0,0:0|0:0,0:0:0:0:
66,256,71451,6,0,P|79:317|82:361,1,95.4000001455689,0|0,1:2|0:0,0:0:0:0:
241,207,71763,2,0,B|201:197|201:197|195:186|195:186|147:175,1,95.4000001455689,10|0,0:0|0:0,0:0:0:0:
275,374,72076,2,0,P|332:360|378:350,1,95.4000001455689,2|0,1:2|0:0,0:0:0:0:
241,207,72388,1,10,0:0:0:0:
310,169,72544,1,2,0:0:0:0:
310,169,72622,1,2,0:0:0:0:
310,169,72701,6,0,P|363:187|506:208,2,190.800000291138,6|8|0,1:2|0:0|1:2,0:0:0:0:
439,284,73482,1,0,0:0:0:0:
392,105,73638,1,8,0:0:0:0:
276,269,73794,5,2,1:2:0:0:
476,106,73951,2,0,P|467:61|467:11,1,95.4000001455689,2|0,0:0|1:2,0:0:0:0:
310,170,74263,2,10,P|269:152|195:151,1,95.4000001455689,10|0,0:0|0:0,0:0:0:0:
158,0,74576,1,2,1:2:0:0:
227,36,74732,1,0,0:0:0:0:
83,211,74888,5,8,0:0:0:0:
40,209,74966,1,8,0:0:0:0:
10,178,75044,1,8,0:0:0:0:
10,135,75122,1,8,0:0:0:0:
18,122,75201,6,0,B|60:96|89:106|89:106|111:138|166:136,1,143.100000218353,6|0,1:2|0:0,0:0:0:0:
156,131,75513,2,0,P|162:190|167:244,1,95.4000001455689,10|0,0:0|0:0,0:0:0:0:
344,134,75826,1,2,1:2:0:0:
287,81,75982,1,0,1:2:0:0:
344,260,76138,1,8,0:0:0:0:
402,79,76294,6,0,B|327:96|327:96|306:136|306:136|222:157,1,190.800000291138,2|0,1:2|0:0,0:0:0:0:
390,342,76763,2,0,P|446:336|448:240,1,143.100000218353,10|0,0:0|0:0,0:0:0:0:
457,245,77076,2,0,P|410:239|360:217,1,95.4000001455689,2|0,1:2|0:0,0:0:0:0:
208,384,77388,2,0,P|202:315|230:223,1,143.100000218353,10|0,0:0|0:0,0:0:0:0:
221,227,77701,6,0,B|260:214|260:214|266:200|266:200|312:186,1,95.4000001455689,6|0,1:2|0:0,0:0:0:0:
140,22,78013,2,0,P|135:79|128:121,1,95.4000001455689,10|0,0:0|0:0,0:0:0:0:
294,51,78326,1,2,1:2:0:0:
238,0,78482,1,2,1:2:0:0:
303,188,78638,1,10,0:0:0:0:
510,18,78794,6,0,B|408:23|477:71|362:77,1,143.100000218353,6|0,1:2|0:0,0:0:0:0:
369,69,79107,1,2,1:2:0:0:
198,207,79263,1,10,0:0:0:0:
151,143,79419,2,0,P|161:84|161:40,1,95.4000001455689,2|0,1:2|0:0,0:0:0:0:
407,163,79732,6,0,P|397:222|393:360,1,190.800000291138,2|0,1:2|1:0,0:0:0:0:
383,369,80122,1,0,1:2:0:0:
383,368,80201,5,14,0:0:0:0:
224,207,80357,1,0,1:2:0:0:
158,383,80513,5,10,0:0:0:0:
309,208,80669,1,0,1:2:0:0:
91,111,80826,5,10,0:0:0:0:
264,278,80982,1,0,1:2:0:0:
348,58,81138,5,10,0:0:0:0:
176,273,81294,2,0,B|104:258|104:258|79:206|79:206|8:189,1,190.800000291138,6|0,1:2|1:2,0:0:0:0:
22,267,81763,5,10,0:0:0:0:
158,0,81919,2,0,P|170:73|180:219,1,190.800000291138,6|0,1:2|0:0,0:0:0:0:
328,377,82388,2,0,B|375:367|375:367|382:357|382:357|433:346,1,95.4000001455689,10|0,0:0|1:2,0:0:0:0:
253,201,82701,5,10,0:0:0:0:
488,69,82857,1,10,0:0:0:0:
391,274,83013,1,10,0:0:0:0:
264,103,83169,2,0,P|271:42|270:-12,1,95.4000001455689,10|0,0:0|0:2,0:0:0:0:
441,196,83482,1,10,0:0:0:0:
241,328,83638,1,10,0:0:0:0:
390,132,83794,6,0,B|444:143|444:143|463:176|463:176|530:191,1,143.100000218353,6|0,1:2|0:0,0:0:0:0:
512,187,84107,1,10,0:0:0:0:
263,244,84263,1,10,0:0:0:0:
433,56,84419,1,10,0:0:0:0:
503,338,84576,1,10,0:0:0:0:
302,158,84732,5,8,0:0:0:0:
256,132,84810,1,8,0:0:0:0:
206,149,84888,1,8,0:0:0:0:
200,167,84966,1,0,1:2:0:0:
151,187,85044,1,4,3:0:0:0:
109,155,85122,1,4,3:0:0:0:
108,137,85201,5,0,1:2:0:0:
375,255,85669,6,0,P|370:284|367:309,1,47.7000000727844,0|0,1:2|1:2,0:0:0:0:
324,365,85826,1,6,1:2:0:0:
256,192,85904,12,0,88638,0:0:0:0:
