osu file format v14

[General]
AudioFilename: Euphonium2op.mp3
AudioLeadIn: 0
PreviewTime: 13432
Countdown: 1
SampleSet: Soft
StackLeniency: 0.6
Mode: 0
LetterboxInBreaks: 1
WidescreenStoryboard: 0

[Editor]
DistanceSpacing: 0.9
BeatDivisor: 4
GridSize: 32
TimelineZoom: 1

[Metadata]
Title:Soundscape(TV size)
TitleUnicode:サウンドスケープ(TV size)
Artist:TRUE
ArtistUnicode:TRUE
Creator:pishifat
Version:Insane
Source:響け!ユーフォニアム2
Tags:sound hibike euphonium season 2 anime opening
BeatmapID:1355965
BeatmapSetID:639319

[Difficulty]
HPDrainRate:6
CircleSize:4
OverallDifficulty:8
ApproachRate:9
SliderMultiplier:1
SliderTickRate:1

[Events]
//Background and Video events
0,0,"vlcsnap-00056.jpg",0,0
//Break Periods
//Storyboard Layer 0 (Background)
//Storyboard Layer 1 (Fail)
//Storyboard Layer 2 (Pass)
//Storyboard Layer 3 (Foreground)
//Storyboard Sound Samples

[TimingPoints]
609,322.58064516129,4,2,0,40,1,0
931,-80,4,2,0,60,0,0
1173,-80,4,2,0,5,0,0
1255,322.58064516129,4,2,0,80,1,0
3754,-100,4,2,0,5,0,0
3835,-100,4,2,0,80,0,0
5609,-62.5,4,2,0,80,0,0
5851,-62.5,4,2,0,55,0,0
5932,-62.5,4,2,0,60,0,0
6013,-62.5,4,2,0,65,0,0
6093,-62.5,4,2,0,70,0,0
6174,-62.5,4,2,0,75,0,0
6254,-62.5,4,2,0,80,0,0
6416,-62.5,4,2,0,80,0,0
6658,-62.5,4,2,0,5,0,0
6738,-62.5,4,2,0,80,0,0
7948,-62.5,4,2,0,5,0,0
8029,-62.5,4,2,0,80,0,0
9238,-62.5,4,2,0,5,0,0
9319,-62.5,4,2,0,80,0,0
10367,-62.5,4,2,0,5,0,0
10448,-62.5,4,2,0,80,0,0
11013,-62.5,4,2,0,5,0,0
11093,-62.5,4,2,0,80,0,0
12948,-62.5,4,2,0,5,0,0
13029,-62.5,4,2,0,60,0,0
13513,-62.5,4,2,0,80,0,0
13674,-62.5,4,2,0,60,0,0
13835,-62.5,4,2,0,70,0,0
14158,-76.9230769230769,4,2,0,60,0,0
17948,-76.9230769230769,4,2,0,5,0,0
18029,-76.9230769230769,4,2,0,60,0,0
21900,-71.4285714285714,4,2,0,60,0,0
22142,-71.4285714285714,4,2,0,5,0,0
22222,-71.4285714285714,4,2,0,60,0,0
22867,-58.8235294117647,4,2,0,70,0,0
23513,-58.8235294117647,4,2,0,5,0,0
23674,-58.8235294117647,4,2,0,80,0,0
24158,-50,4,2,0,80,0,0
24400,-50,4,2,0,5,0,0
24480,-66.6666666666667,4,2,0,70,0,0
26980,-66.6666666666667,4,2,0,5,0,0
27061,-66.6666666666667,4,2,0,70,0,0
29561,-66.6666666666667,4,2,0,5,0,0
29642,-66.6666666666667,4,2,0,70,0,0
32222,-58.8235294117647,4,2,0,80,0,0
33593,-58.8235294117647,4,2,0,5,0,0
33674,-58.8235294117647,4,2,0,80,0,0
34480,-66.6666666666667,4,2,0,80,0,0
34803,-100,4,2,0,60,0,0
38351,-66.6666666666667,4,2,0,80,0,0
38754,-66.6666666666667,4,2,0,5,0,0
38835,-66.6666666666667,4,2,0,80,0,0
39642,-76.9230769230769,4,2,0,70,0,0
39884,-76.9230769230769,4,2,0,5,0,0
39964,-76.9230769230769,4,2,0,75,0,0
40287,-66.6666666666667,4,2,0,75,0,0
41496,-66.6666666666667,4,2,0,5,0,0
41577,-66.6666666666667,4,2,0,80,0,0
43109,-66.6666666666667,4,2,0,71,0,0
43674,-50,4,2,0,80,0,0
43835,-50,4,2,0,5,0,0
43996,-50,4,2,0,80,0,0
46631,-83.3333333333333,4,2,0,60,0,0
46792,-83.3333333333333,4,2,0,5,0,0
46846,-71.4285714285714,4,2,0,65,0,0
47007,-71.4285714285714,4,2,0,5,0,0
47061,-62.5,4,2,0,70,0,0
47222,-62.5,4,2,0,5,0,0
47276,-55.5555555555556,4,2,0,75,0,0
47437,-55.5555555555556,4,2,0,5,0,0
47491,-50,4,2,0,80,0,0
47652,-50,4,2,0,5,0,0
47706,-76.9230769230769,4,2,0,85,0,0
48513,-50,4,2,0,81,0,0
48996,-100,4,2,0,71,0,0
49319,-62.5,4,2,0,81,0,1
50367,-62.5,4,2,0,5,0,1
50448,-62.5,4,2,0,81,0,1
51013,-62.5,4,2,0,5,0,1
51093,-62.5,4,2,0,81,0,1
51819,-62.5,4,2,0,5,0,1
51900,-62.5,4,2,0,81,0,1
52948,-62.5,4,2,0,5,0,1
53029,-62.5,4,2,0,81,0,1
53593,-62.5,4,2,0,5,0,1
53674,-62.5,4,2,0,81,0,1
54400,-62.5,4,2,0,5,0,1
54480,-62.5,4,2,0,81,0,1
58109,-62.5,4,2,0,5,0,1
58190,-62.5,4,2,0,75,0,1
58674,-62.5,4,2,0,85,0,1
59238,-62.5,4,2,0,5,0,1
59319,-100,4,2,0,70,0,0
59642,-62.5,4,2,0,81,0,1
60690,-62.5,4,2,0,5,0,1
60771,-62.5,4,2,0,81,0,1
61335,-62.5,4,2,0,5,0,1
61416,-62.5,4,2,0,81,0,1
63271,-62.5,4,2,0,5,0,1
63351,-62.5,4,2,0,81,0,1
63916,-62.5,4,2,0,5,0,1
63996,-62.5,4,2,0,81,0,1
64722,-62.5,4,2,0,5,0,1
64803,-62.5,4,2,0,81,0,1
66980,-62.5,4,2,0,5,0,1
67061,-62.5,4,2,0,81,0,1
68190,-50,4,2,0,81,0,1
68432,-50,4,2,0,5,0,1
68513,-50,4,2,0,81,0,1
69480,-66.6666666666667,4,2,0,70,0,1
69642,-50,4,2,0,77,0,0
71093,-50,4,2,0,61,0,0
71254,-50,4,2,0,77,0,0
72867,-50,4,2,0,99,0,0
73351,-50,4,2,0,100,0,0
74319,-50,4,2,0,77,0,0
74803,-100,4,2,0,60,0,0
77384,-100,4,2,0,70,0,0
77706,-83.3333333333333,4,2,0,55,0,0
78029,-71.4285714285714,4,2,0,60,0,0
78351,-62.5,4,2,0,65,0,0
78674,-71.4285714285714,4,2,0,70,0,0
78754,-71.4285714285714,4,2,0,55,0,0
78996,-71.4285714285714,4,2,0,60,0,0
79158,-71.4285714285714,4,2,0,65,0,0
79319,-62.5,4,2,0,70,0,0
79480,-58.8235294117647,4,2,0,75,0,0
79642,-55.5555555555556,4,2,0,80,0,0
79803,-50,4,2,0,85,0,0
79964,-50,4,2,0,80,0,0
80287,-62.5,4,2,0,80,0,0
81496,-62.5,4,2,0,5,0,0
81577,-62.5,4,2,0,80,0,0
82545,-62.5,4,2,0,80,0,0
83916,-62.5,4,2,0,5,0,0
83996,-62.5,4,2,0,80,0,0
84561,-62.5,4,2,0,5,0,0
84642,-62.5,4,2,0,80,0,0
87061,-50,4,2,0,78,0,0

[Colours]
Combo1 : 176,138,255
Combo2 : 133,225,252
Combo3 : 248,176,255
Combo4 : 146,255,140

[HitObjects]
54,150,770,6,0,L|59:180,1,25
59,175,931,2,0,B|106:167|141:207,1,93.7499986030161,0|0,1:0|0:0,0:0:0:0:
142,209,1255,5,4,1:2:0:0:
219,103,1416,1,0,1:2:0:0:
350,118,1577,1,0,1:2:0:0:
419,90,1900,1,0,1:0:0:0:
432,18,2222,1,0,1:0:0:0:
476,138,2384,5,0,1:0:0:0:
407,162,2706,1,0,1:0:0:0:
399,236,3029,1,0,1:0:0:0:
269,223,3190,1,0,1:0:0:0:
219,103,3351,1,0,1:0:0:0:
90,83,3513,2,0,B|1:91,1,75,0|0,1:0|0:0,0:0:0:0:
15,89,3835,5,0,1:0:0:0:
54,213,3996,1,0,1:0:0:0:
95,337,4158,1,0,1:0:0:0:
161,370,4480,1,0,1:0:0:0:
231,352,4803,1,0,1:0:0:0:
269,223,4964,5,0,1:0:0:0:
338,193,5287,1,0,1:0:0:0:
399,236,5609,2,0,B|407:284,1,40,0|2,1:0|0:0,0:0:0:0:
497,345,5771,5,0,1:2:0:0:
489,305,5851,1,0,1:2:0:0:
481,265,5932,1,0,1:2:0:0:
473,225,6013,1,0,1:2:0:0:
466,185,6093,1,0,1:2:0:0:
458,145,6174,1,0,1:2:0:0:
451,105,6254,1,0,1:2:0:0:
444,65,6335,1,0,1:0:0:0:
434,26,6416,6,0,B|366:4|313:67,1,120,4|0,0:0|0:0,0:0:0:0:
318,69,6738,2,0,B|227:59,1,80,0|0,1:0|0:0,0:0:0:0:
92,24,7061,2,0,B|125:50|121:94,1,80,2|0,0:0|0:0,0:0:0:0:
22,229,7384,2,0,B|27:186|68:168,1,80,0|0,1:0|0:0,0:0:0:0:
258,219,7706,6,0,B|192:235|153:180,1,120,2|0,0:0|0:0,0:0:0:0:
153,179,8029,1,0,1:0:0:0:
176,379,8190,2,0,B|164:275,1,80,2|0,0:0|0:0,0:0:0:0:
238,60,8513,2,0,B|228:139,1,80,2|0,0:0|1:0,0:0:0:0:
340,298,8835,1,2,0:0:0:0:
389,194,8996,6,0,B|454:177|493:232,1,120,4|0,0:0|0:0,0:0:0:0:
498,248,9319,2,0,B|489:356,1,80,0|0,1:0|0:0,0:0:0:0:
260,325,9642,5,4,0:3:0:0:
417,274,9803,1,0,1:0:0:0:
178,350,9964,1,0,1:0:0:0:
256,115,10125,6,0,B|295:148|295:148|280:234,1,120,6|0,0:0|0:0,0:0:0:0:
296,225,10448,2,0,B|312:129,1,80,2|0,0:0|1:0,0:0:0:0:
86,156,10771,6,0,B|119:195|119:195|205:180,1,120,4|0,0:0|0:0,0:0:0:0:
202,182,11093,1,2,0:2:0:0:
29,80,11254,2,0,B|107:66,1,80,4|0,1:3|0:0,0:0:0:0:
360,81,11577,6,0,B|393:107|389:151,1,80,4|0,0:0|0:0,0:0:0:0:
202,182,11900,1,0,1:0:0:0:
309,147,12061,1,4,0:3:0:0:
135,323,12222,5,0,1:0:0:0:
235,110,12384,1,0,1:0:0:0:
447,209,12545,1,0,1:0:0:0:
319,350,12706,6,0,B|272:213,1,120,4|0,0:0|0:0,0:0:0:0:
274,221,13029,1,0,1:0:0:0:
216,299,13190,1,0,1:0:0:0:
371,244,13351,1,0,1:0:0:0:
235,110,13513,5,2,1:2:0:0:
77,204,13674,1,4,0:3:0:0:
42,196,13754,1,4,0:3:0:0:
18,168,13835,1,4,0:3:0:0:
90,117,13996,1,4,0:3:0:0:
124,327,14158,6,0,B|112:357|80:373|42:378|7:357,2,129.999997675419,4|2|2,0:0|0:0|0:0,0:0:0:0:
53,285,14964,1,0,0:0:0:0:
194,369,15125,2,0,B|265:362,1,64.9999988377094,2|0,0:0|0:0,0:0:0:0:
398,302,15448,6,0,B|368:318|333:315|301:297|286:268,1,129.999997675419,2|2,0:0|0:0,0:0:0:0:
256,187,15932,1,0,0:0:0:0:
362,228,16093,2,0,B|389:207|386:150,1,64.9999988377094,2|0,0:0|0:0,0:0:0:0:
440,71,16416,2,0,B|435:37|384:11,1,64.9999988377094,2|0,0:0|0:0,0:0:0:0:
283,54,16738,6,0,B|135:41,2,129.999997675419,2|2|2,0:0|0:0|0:0,0:0:0:0:
358,92,17545,1,0,0:0:0:0:
146,185,17706,2,0,B|221:176,1,64.9999970245363,4|0,0:0|0:0,0:0:0:0:
286,140,18029,6,0,B|256:154|238:186|235:221|251:251,1,129.999997675419,2|2,0:0|0:0,0:0:0:0:
406,313,18513,1,2,1:3:0:0:
261,336,18674,2,0,B|339:324,1,64.9999988377094,2|0,0:0|0:0,0:0:0:0:
392,223,18996,2,0,B|314:211,1,64.9999988377094,2|0,0:0|0:0,0:0:0:0:
178,301,19319,6,0,B|147:317|112:314|80:296|65:266,1,129.999997675419,4|2,0:0|0:0,0:0:0:0:
41,184,19803,1,0,0:0:0:0:
171,114,19964,2,0,B|146:140|114:141,1,64.9999988377094,2|0,0:0|0:0,0:0:0:0:
49,28,20287,2,0,B|81:28|105:55,1,64.9999988377094,2|0,0:0|0:0,0:0:0:0:
190,209,20609,6,0,B|220:225|255:222|287:204|302:174,1,129.999997675419,2|2,0:0|0:0,0:0:0:0:
318,90,21093,1,0,0:0:0:0:
394,210,21254,2,0,B|383:136,1,64.9999988377094,2|0,0:0|0:0,0:0:0:0:
468,284,21577,2,0,B|479:210,1,64.9999988377094,2|0,0:0|0:0,0:0:0:0:
432,363,21900,6,0,B|389:336|389:336|306:352,1,104.999997496605,2|0,1:2|0:0,0:0:0:0:
318,351,22222,1,0,1:0:0:0:
264,201,22384,1,0,1:0:0:0:
279,219,22464,1,0,1:0:0:0:
287,242,22545,5,2,1:2:0:0:
251,227,22625,1,2,1:2:0:0:
212,221,22706,1,2,1:2:0:0:
173,225,22787,1,2,1:2:0:0:
136,236,22867,6,2,B|129:293,1,42.4999982267619,2|2,1:2|1:2,1:2:0:0:
37,321,23029,2,8,B|30:279,2,42.4999982267619,8|8|4,0:3|0:3|0:3,0:3:0:0:
37,321,23351,6,0,B|59:159,1,127.499994680286,2|0,1:2|0:0,0:0:0:0:
57,177,23674,1,2,0:0:0:0:
210,361,23835,5,4,1:2:0:0:
136,235,23996,1,0,1:0:0:0:
223,112,24158,2,0,B|298:134|298:134|381:85,1,150,4|0,1:2|0:0,0:0:0:0:
373,87,24480,6,0,B|358:256,2,149.999995529652,4|0|2,0:2|1:0|0:0,0:0:0:0:
436,25,25287,1,0,0:0:0:0:
481,177,25448,2,0,B|448:143|457:90,1,74.9999977648259,0|0,1:0|0:0,0:0:0:0:
443,255,25771,6,0,B|430:300|379:319,1,74.9999977648259,2|0,0:0|0:0,0:0:0:0:
277,228,26093,1,0,1:0:0:0:
359,236,26254,1,0,0:0:0:0:
268,372,26416,2,0,B|187:364,1,74.9999977648259,2|0,0:0|0:0,0:0:0:0:
22,276,26738,2,0,B|89:284|140:223,1,112.499996647239,0|0,1:0|0:0,0:0:0:0:
132,225,27061,6,0,B|113:66,2,149.999995529652,2|0|2,0:0|1:0|0:0,0:0:0:0:
202,277,27867,1,0,0:0:0:0:
341,136,28029,6,0,B|281:89|281:89|199:100,1,149.999995529652,4|0,1:2|0:0,0:0:0:0:
258,179,28513,1,0,0:0:0:0:
423,107,28674,1,0,1:0:0:0:
406,227,28835,2,0,B|415:163,1,37.4999988824129,2|2,0:0|0:0,0:0:0:0:
334,61,28996,6,0,B|342:148,1,74.9999977648259,2|0,0:0|0:0,0:0:0:0:
437,304,29319,2,0,B|396:259|334:267,1,112.499996647239,4|0,1:2|0:0,0:0:0:0:
319,271,29642,6,0,B|158:260,1,149.999995529652,4|0,0:0|1:0,0:0:0:0:
97,221,30125,1,0,0:0:0:0:
47,340,30287,2,0,B|22:310|28:269,1,74.9999977648259,2|0,0:0|0:0,0:0:0:0:
191,107,30609,2,0,B|197:147|172:177,1,74.9999977648259,0|0,1:0|0:0,0:0:0:0:
105,31,30932,6,0,B|266:20,1,149.999995529652,2|0,0:0|1:0,0:0:0:0:
327,59,31416,1,0,0:0:0:0:
473,38,31577,1,2,0:0:0:0:
395,8,31738,1,0,0:0:0:0:
379,250,31900,2,0,B|423:209|415:147,1,112.499996647239,0|0,1:0|0:0,0:0:0:0:
410,133,32222,6,0,B|313:150,1,84.9999964535238,6|0,0:0|0:0,0:0:0:0:
109,134,32545,1,0,1:0:0:0:
257,203,32706,2,0,B|173:188,1,84.9999964535238,2|0,0:0|0:0,0:0:0:0:
37,278,33029,1,8,0:3:0:0:
91,216,33190,1,8,0:3:0:0:
162,348,33351,6,0,B|192:364|227:361|259:343|274:313,1,127.499994680286,4|0,0:0|0:0,0:0:0:0:
279,298,33674,1,4,0:3:0:0:
199,275,33835,1,8,0:3:0:0:
403,360,33996,5,2,0:0:0:0:
336,239,34158,1,0,1:0:0:0:
408,281,34319,1,8,0:3:0:0:
480,242,34480,2,0,B|486:154,1,74.9999977648259,4|2,0:3|0:0,0:0:0:0:
391,27,34803,6,0,B|336:10|299:49,1,100,4|2,0:0|0:0,0:0:0:0:
299,49,35448,2,0,B|244:65|207:26,1,100,0|2,1:0|0:0,0:0:0:0:
141,82,35932,6,0,B|182:120|167:172,1,100,2|0,0:0|1:0,0:0:0:0:
70,250,36416,2,0,B|137:241,1,50,2|2,0:0|0:0,0:0:0:0:
243,292,36738,2,0,B|176:283,2,50,0|4|4,1:0|0:3|0:3,0:0:0:0:
304,356,37222,1,2,0:0:0:0:
326,140,37384,6,0,B|286:177|303:231,1,100,4|2,0:0|0:0,0:0:0:0:
303,231,38029,1,0,1:0:0:0:
460,142,38190,1,0,1:0:0:0:
397,286,38351,2,0,B|445:277,1,37.4999988824129,2|2,0:0|0:0,0:0:0:0:
503,217,38513,6,0,B|453:187|453:187|385:202,1,112.499996647239,4|0,0:0|0:0,0:0:0:0:
384,202,38835,1,0,1:0:0:0:
476,58,38996,1,0,1:0:0:0:
327,140,39158,2,0,B|254:150|254:150|186:102,1,149.999995529652,4|0,0:0|0:0,0:0:0:0:
98,56,39642,2,0,B|111:170,1,97.4999982565641,4|0,0:3|0:0,0:0:0:0:
116,175,39964,5,4,0:0:0:0:
116,175,40287,2,0,B|150:198|149:238,1,74.9999977648259,0|0,1:0|0:0,0:0:0:0:
28,301,40609,2,0,B|31:259|66:240,1,74.9999977648259,2|0,0:0|0:0,0:0:0:0:
217,293,40932,2,0,B|310:303,1,74.9999977648259,0|0,1:0|0:0,0:0:0:0:
291,93,41254,6,0,B|241:129|254:192,1,112.499996647239,2|0,0:0|0:0,0:0:0:0:
259,207,41577,2,0,B|333:198,1,74.9999977648259,0|0,1:0|0:0,0:0:0:0:
479,181,41900,1,2,0:0:0:0:
401,145,42061,1,0,0:0:0:0:
357,282,42222,2,0,B|403:268|419:214,1,74.9999977648259,0|0,1:0|0:0,0:0:0:0:
368,49,42545,6,0,B|206:40,1,149.999995529652,2|0,0:0|1:0,0:0:0:0:
218,40,43190,1,0,1:0:0:0:
253,69,43271,1,0,1:0:0:0:
272,109,43351,1,0,1:0:0:0:
279,154,43432,1,0,1:0:0:0:
271,199,43513,1,0,1:0:0:0:
20,106,43674,6,0,B|93:94|93:94|160:140,1,150,4|0,0:0|0:0,0:0:0:0:
170,149,43996,1,2,0:0:0:0:
59,284,44158,1,0,1:0:0:0:
193,235,44319,2,0,B|142:238|142:238|75:189,1,100,2|0,0:0|1:0,0:0:0:0:
305,315,44642,1,2,0:0:0:0:
271,199,44803,1,0,1:0:0:0:
137,326,44964,2,0,B|188:323|188:323|255:372,1,100,2|0,0:0|1:0,0:0:0:0:
450,346,45287,5,2,0:0:0:0:
341,242,45448,1,0,1:0:0:0:
484,209,45609,1,0,1:0:0:0:
484,209,45690,1,0,1:0:0:0:
484,209,45771,6,8,B|494:274,1,50,8|8,0:3|0:3,0:3:0:0:
474,120,45932,2,4,B|525:78,1,50,4|4,0:3|0:3,0:3:0:0:
403,174,46093,2,4,B|341:150,1,50,4|4,0:3|0:3,0:3:0:0:
201,87,46254,5,2,0:3:0:0:
219,105,46631,2,0,B|147:116,1,60.0000014305115,0|0,1:0|0:0,0:0:0:0:
159,114,46846,2,0,B|237:127,1,69.99999833107,0|0,1:0|0:0,0:0:0:0:
228,125,47061,2,0,B|141:147,1,80,0|0,1:0|0:0,0:0:0:0:
151,144,47276,2,0,B|239:175,1,89.9999957084658,0|0,1:0|0:0,0:0:0:0:
236,173,47491,2,0,B|117:207,1,100,0|0,1:0|0:0,0:0:0:0:
140,200,47706,6,0,B|238:203|266:318|212:332|162:349|135:297,1,259.999988098145,4|0,0:0|0:0,0:0:0:0:
136,300,48513,6,2,B|129:376,2,50
380,167,48996,6,0,B|386:223,1,50,4|0,0:3|0:0,0:0:0:0:
386,217,49238,1,0,0:0:0:0:
386,217,49319,6,0,B|425:198|443:163|443:163|446:120|423:80,1,160,4|0,1:2|0:0,0:0:0:0:
294,27,49803,1,0,0:0:0:0:
170,102,49964,1,0,1:0:0:0:
303,124,50125,6,0,B|156:101,1,120,4|0,0:0|0:0,0:0:0:0:
170,102,50448,1,2,0:0:0:0:
219,205,50610,1,0,1:0:0:0:
86,226,50771,2,0,B|233:203,1,120,4|0,0:0|0:0,0:0:0:0:
219,205,51094,1,2,0:0:0:0:
161,309,51254,1,0,1:0:0:0:
328,268,51416,1,4,0:0:0:0:
296,348,51577,6,0,B|364:370|417:307,1,120,2|0,0:0|0:0,0:0:0:0:
412,305,51899,2,0,B|423:219,1,80,0|0,1:0|0:0,0:0:0:0:
443,101,52222,1,2,0:0:0:0:
488,174,52384,1,0,0:0:0:0:
453,17,52545,1,0,1:0:0:0:
286,125,52706,6,0,B|241:109|241:109|227:27,1,120,4|0,0:0|0:0,0:0:0:0:
214,33,53029,2,0,B|225:116,1,80,2|0,0:0|1:0,0:0:0:0:
133,269,53351,6,0,B|149:224|149:224|231:210,1,120,4|0,0:0|0:0,0:0:0:0:
237,210,53674,1,2,0:0:0:0:
87,164,53835,1,0,1:0:0:0:
216,304,53996,1,0,1:0:0:0:
253,319,54077,1,0,1:0:0:0:
293,316,54158,6,0,B|361:294|414:357,1,120,4|0,1:2|0:0,0:0:0:0:
411,357,54480,2,0,B|498:367,1,80,0|0,1:0|0:0,0:0:0:0:
413,155,54803,1,2,0:0:0:0:
336,185,54964,1,0,0:0:0:0:
444,235,55125,1,0,1:0:0:0:
386,75,55287,6,0,B|207:96,1,160,2|0,0:0|0:0,0:0:0:0:
76,30,55771,2,0,B|118:21|147:56,1,80,0|0,1:0|0:0,0:0:0:0:
56,184,56093,2,0,B|69:143|114:135,1,80,2|0,0:0|0:0,0:0:0:0:
253,234,56416,1,0,1:0:0:0:
134,217,56577,2,0,B|188:224,1,40,2|2,0:0|0:0,0:0:0:0:
295,309,56738,5,4,0:0:0:0:
302,164,56900,1,2,0:0:0:0:
394,282,57061,5,0,1:0:0:0:
320,158,57222,1,2,0:0:0:0:
469,201,57384,5,0,1:0:0:0:
336,147,57545,1,2,0:0:0:0:
421,127,57706,1,0,1:0:0:0:
253,234,57867,6,0,B|107:214,1,120,4|0,0:0|0:0,0:0:0:0:
117,215,58190,1,8,0:3:0:0:
80,233,58271,1,8,0:3:0:0:
69,272,58351,2,0,B|80:334,1,40,4|4,0:3|0:3,0:0:0:0:
172,348,58513,2,4,B|178:308,1,40,4|4,0:3|0:3,0:3:0:0:
200,140,58674,5,0,1:0:0:0:
188,225,58835,1,2,0:0:0:0:
165,74,58996,2,0,B|225:46|276:90,1,120,0|0,1:0|0:0,0:0:0:0:
276,90,59319,6,0,B|344:98,1,50,4|0,0:3|0:0,0:0:0:0:
326,95,59561,1,0,0:0:0:0:
326,96,59642,6,0,B|310:132|317:175|317:175|339:208|380:222,1,160,4|0,1:2|0:0,0:0:0:0:
455,310,60125,1,0,0:0:0:0:
276,279,60287,1,0,1:0:0:0:
358,357,60448,6,0,B|381:210,1,120,4|0,0:0|0:0,0:0:0:0:
380,222,60771,1,2,0:0:0:0:
179,329,60933,1,0,1:0:0:0:
255,144,61094,2,0,B|278:291,1,120,4|0,0:0|0:0,0:0:0:0:
276,279,61417,1,2,0:0:0:0:
181,220,61577,1,0,1:0:0:0:
90,343,61738,1,4,0:0:0:0:
45,133,61900,6,0,B|14:163|25:206,1,80,2|0,0:0|0:0,0:0:0:0:
255,144,62222,2,0,B|265:101|235:70,1,80,0|0,1:0|0:0,0:0:0:0:
34,32,62545,1,2,0:0:0:0:
174,127,62706,1,0,1:0:0:0:
340,91,62867,1,0,1:0:0:0:
152,209,63029,6,0,B|183:246|183:246|277:231,1,120,4|0,0:0|0:0,0:0:0:0:
260,250,63351,2,0,B|166:263,1,80,2|0,0:0|1:0,0:0:0:0:
417,330,63674,6,0,B|454:299|454:299|439:205,1,120,4|0,0:0|0:0,0:0:0:0:
440,211,63996,1,2,0:0:0:0:
339,384,64158,2,0,B|325:290,1,80,4|0,1:3|0:0,0:0:0:0:
298,72,64480,6,0,B|366:58|405:110,1,120,4|0,0:0|0:0,0:0:0:0:
413,123,64803,2,0,B|505:135,1,80,0|0,1:0|0:0,0:0:0:0:
330,155,65125,1,2,0:0:0:0:
363,240,65287,1,0,0:0:0:0:
444,208,65448,1,0,1:0:0:0:
278,269,65609,6,0,B|113:251,1,160,2|0,0:0|0:0,0:0:0:0:
185,100,66093,2,0,B|215:130|204:173,1,80,0|0,1:0|0:0,0:0:0:0:
35,265,66416,2,0,B|24:222|54:191,1,80,2|0,0:0|0:0,0:0:0:0:
229,343,66738,2,0,B|99:330,1,120,0|0,1:0|0:0,0:0:0:0:
92,329,67061,5,4,0:0:0:0:
195,219,67222,1,2,0:0:0:0:
35,265,67384,5,0,1:0:0:0:
203,236,67545,1,2,0:0:0:0:
61,189,67706,5,0,1:0:0:0:
195,219,67867,1,4,0:3:0:0:
203,236,67948,1,4,0:3:0:0:
203,256,68029,1,0,1:0:0:0:
152,85,68190,6,0,B|222:59|222:59|304:99,1,150,4|0,0:0|0:0,0:0:0:0:
304,101,68513,1,0,1:0:0:0:
450,31,68674,1,0,1:0:0:0:
302,189,68835,5,2,1:2:0:0:
363,39,68996,1,0,1:0:0:0:
477,172,69158,1,8,0:3:0:0:
477,172,69238,1,8,0:3:0:0:
477,172,69319,2,4,B|469:235,1,50,4|4,0:3|0:3,0:3:0:0:
393,245,69480,2,4,B|398:282,1,37.4999988824129,4|4,0:3|0:3,0:3:0:0:
411,361,69642,5,4,1:2:0:0:
317,303,69803,1,2,0:0:0:0:
211,332,69964,1,0,1:0:0:0:
122,266,70125,1,2,0:0:0:0:
321,311,70287,5,0,1:0:0:0:
207,342,70448,1,2,0:0:0:0:
111,271,70609,1,0,1:0:0:0:
301,148,70771,5,4,0:2:0:0:
227,229,70932,1,0,1:0:0:0:
136,167,71093,1,4,0:3:0:0:
160,141,71174,1,4,0:3:0:0:
194,127,71254,1,0,1:0:0:0:
225,240,71416,5,2,0:0:0:0:
190,119,71577,1,2,1:2:0:0:
311,145,71738,1,2,0:0:0:0:
349,263,71900,2,0,B|401:272|401:272|453:244,1,100,2|2,1:2|0:2,0:0:0:0:
272,39,72222,5,4,1:2:0:0:
322,142,72384,1,2,0:0:0:0:
431,150,72545,1,0,1:0:0:0:
381,51,72706,1,2,0:0:0:0:
438,159,72867,5,2,1:2:0:0:
269,29,73029,1,2,1:2:0:0:
64,80,73190,1,2,1:2:0:0:
47,190,73351,5,2,0:0:0:0:
106,145,73674,1,2,0:0:0:0:
178,127,73996,1,2,0:0:0:0:
250,128,74319,1,2,1:2:0:0:
277,141,74400,1,0,1:0:0:0:
293,166,74480,5,0,1:0:0:0:
277,300,74642,2,0,B|285:224,1,50,0|2,1:0|0:2,0:0:0:0:
282,250,74803,6,0,B|365:224|334:295|443:263,1,150,4|0,0:0|1:0,0:0:0:0:
469,3,75609,1,8,0:3:0:0:
494,93,75771,2,0,B|426:85,1,50,4|0,0:3|0:3,0:3:0:0:
445,87,76013,1,2,0:0:0:0:
445,87,76093,6,0,B|362:61|393:132|283:100,1,150,4|4,1:2|0:3,0:0:0:0:
302,105,76658,1,4,0:3:0:0:
302,105,76738,1,4,0:3:0:0:
57,132,77384,5,4,0:2:0:0:
57,132,77706,2,0,B|66:216,1,60.0000014305115,0|0,1:0|1:0,1:0:0:0:
135,283,78029,2,0,B|143:212,1,69.99999833107,0|0,1:0|1:0,1:0:0:0:
204,88,78351,2,0,B|212:167,1,80,0|0,1:0|1:0,1:0:0:0:
247,373,78674,5,0,1:0:0:0:
240,350,78754,1,0,1:0:0:0:
238,325,78835,1,0,1:0:0:0:
241,300,78916,1,0,1:0:0:0:
248,276,78996,1,0,1:0:0:0:
261,255,79077,1,0,1:0:0:0:
277,237,79158,2,2,B|287:188,1,34.999999165535,2|2,1:2|1:2,1:2:0:0:
335,101,79319,2,2,B|348:162,1,40,2|2,1:2|1:2,1:2:0:0:
352,285,79480,2,2,B|378:233,1,42.4999982267619,2|2,1:2|1:2,1:2:0:0:
414,62,79642,2,2,B|438:128,1,44.9999978542329,2|2,1:2|1:2,1:2:0:0:
412,349,79803,2,2,B|461:303,1,50,2|2,1:2|1:2,1:2:0:0:
505,221,79964,5,4,0:0:0:0:
505,221,80287,2,0,B|472:198|429:196|429:196|392:210|370:248,1,160,4|2,1:2|0:0,0:0:0:0:
328,365,80771,1,0,0:0:0:0:
144,286,80932,1,0,1:0:0:0:
267,304,81093,2,0,B|204:295,1,40,2|2,0:0|0:0,0:0:0:0:
83,228,81254,6,0,B|37:180|58:117,1,120,4|0,0:0|0:0,0:0:0:0:
68,104,81577,1,0,1:0:0:0:
206,195,81738,2,0,B|162:192|136:158,1,80,2|0,0:0|0:0,0:0:0:0:
278,73,82061,2,0,B|253:105|209:108,1,80,2|0,0:0|1:0,0:0:0:0:
318,0,82384,1,2,0:0:0:0:
386,128,82545,6,0,B|371:297,2,160,2|0|2,0:0|1:0|0:0,0:0:0:0:
290,251,83351,1,0,1:0:0:0:
468,172,83513,1,0,1:0:0:0:
278,62,83674,6,0,B|244:87|244:87|257:194,1,120,4|0,0:0|0:0,0:0:0:0:
239,172,83996,2,0,B|228:73,1,80,2|0,0:0|1:0,0:0:0:0:
187,244,84319,6,0,B|162:278|162:278|55:265,1,120,4|0,0:0|0:0,0:0:0:0:
68,266,84642,1,2,0:0:0:0:
170,363,84803,2,0,B|71:352,1,80,4|0,1:3|0:0,0:0:0:0:
25,94,85125,6,0,B|57:61|122:80,1,80,4|0,0:0|0:0,0:0:0:0:
239,172,85448,1,0,1:0:0:0:
171,122,85609,1,2,0:0:0:0:
327,55,85771,1,2,0:0:0:0:
317,138,85932,1,2,0:0:0:0:
216,8,86093,1,0,1:0:0:0:
320,242,86254,5,4,0:0:0:0:
320,242,86577,1,0,1:0:0:0:
400,152,86738,1,0,1:0:0:0:
208,252,86900,1,0,1:0:0:0:
417,358,87061,5,0,1:0:0:0:
405,318,87142,1,0,1:0:0:0:
365,318,87222,1,0,1:0:0:0:
351,356,87303,1,0,1:0:0:0:
382,381,87384,1,0,1:0:0:0:
247,84,87545,5,4,0:0:0:0:
