osu file format v14

[General]
AudioFilename: Euphonium2op.mp3
AudioLeadIn: 0
PreviewTime: 13432
Countdown: 1
SampleSet: Soft
StackLeniency: 0.6
Mode: 0
LetterboxInBreaks: 1
WidescreenStoryboard: 1

[Editor]
DistanceSpacing: 1
BeatDivisor: 4
GridSize: 32
TimelineZoom: 1

[Metadata]
Title:Soundscape(TV size)
TitleUnicode:サウンドスケープ(TV size)
Artist:TRUE
ArtistUnicode:TRUE
Creator:pishifat
Version:Advanced
Source:響け!ユーフォニアム2
Tags:sound hibike euphonium season 2 anime opening
BeatmapID:1370512
BeatmapSetID:639319

[Difficulty]
HPDrainRate:4
CircleSize:3.5
OverallDifficulty:5
ApproachRate:6
SliderMultiplier:1.2
SliderTickRate:1

[Events]
//Background and Video events
0,0,"vlcsnap-00056.jpg",0,0
//Break Periods
//Storyboard Layer 0 (Background)
//Storyboard Layer 1 (Fail)
//Storyboard Layer 2 (Pass)
//Storyboard Layer 3 (Foreground)
//Storyboard Sound Samples

[TimingPoints]
609,322.58064516129,4,2,0,60,1,0
931,-100,4,2,0,60,0,0
1173,-100,4,2,0,5,0,0
1255,322.58064516129,4,2,0,80,1,0
1335,-100,4,2,0,80,0,0
3754,-100,4,2,0,5,0,0
3835,-100,4,2,0,80,0,0
5609,-100,4,2,0,80,0,0
5851,-100,4,2,0,55,0,0
5932,-100,4,2,0,60,0,0
6013,-100,4,2,0,65,0,0
6093,-100,4,2,0,70,0,0
6174,-100,4,2,0,75,0,0
6254,-100,4,2,0,80,0,0
6658,-100,4,2,0,5,0,0
6738,-100,4,2,0,80,0,0
7948,-100,4,2,0,5,0,0
8029,-100,4,2,0,80,0,0
9238,-100,4,2,0,5,0,0
9319,-100,4,2,0,80,0,0
10367,-100,4,2,0,5,0,0
10448,-100,4,2,0,80,0,0
11013,-100,4,2,0,5,0,0
11093,-100,4,2,0,80,0,0
12948,-100,4,2,0,5,0,0
13029,-100,4,2,0,60,0,0
13513,-100,4,2,0,80,0,0
13674,-100,4,2,0,60,0,0
13996,-100,4,2,0,70,0,0
14158,-100,4,2,0,60,0,0
17948,-100,4,2,0,5,0,0
18029,-100,4,2,0,60,0,0
21900,-100,4,2,0,60,0,0
22142,-100,4,2,0,5,0,0
22222,-100,4,2,0,60,0,0
22867,-100,4,2,0,70,0,0
23513,-100,4,2,0,5,0,0
23674,-100,4,2,0,80,0,0
24158,-100,4,2,0,80,0,0
24400,-100,4,2,0,5,0,0
24480,-100,4,2,0,70,0,0
26980,-100,4,2,0,5,0,0
27061,-100,4,2,0,70,0,0
29561,-100,4,2,0,5,0,0
29642,-100,4,2,0,70,0,0
32222,-100,4,2,0,80,0,0
33593,-100,4,2,0,5,0,0
33674,-100,4,2,0,80,0,0
34480,-100,4,2,0,80,0,0
34803,-100,4,2,0,60,0,0
38351,-100,4,2,0,80,0,0
38754,-100,4,2,0,5,0,0
38835,-100,4,2,0,80,0,0
39642,-100,4,2,0,70,0,0
39884,-100,4,2,0,5,0,0
39964,-100,4,2,0,75,0,0
40287,-100,4,2,0,75,0,0
41496,-100,4,2,0,5,0,0
41577,-100,4,2,0,80,0,0
43109,-100,4,2,0,71,0,0
43674,-100,4,2,0,80,0,0
43835,-100,4,2,0,5,0,0
43996,-100,4,2,0,80,0,0
46631,-100,4,2,0,60,0,0
46792,-100,4,2,0,5,0,0
46846,-100,4,2,0,65,0,0
47007,-100,4,2,0,5,0,0
47061,-100,4,2,0,70,0,0
47222,-100,4,2,0,5,0,0
47276,-100,4,2,0,75,0,0
47437,-100,4,2,0,5,0,0
47491,-100,4,2,0,80,0,0
47652,-100,4,2,0,5,0,0
47706,-100,4,2,0,85,0,0
48513,-100,4,2,0,81,0,0
48996,-100,4,2,0,71,0,0
49319,-100,4,2,0,81,0,1
50367,-100,4,2,0,5,0,1
50448,-100,4,2,0,81,0,1
51013,-100,4,2,0,5,0,1
51093,-100,4,2,0,81,0,1
51819,-100,4,2,0,5,0,1
51900,-100,4,2,0,81,0,1
52948,-100,4,2,0,5,0,1
53029,-100,4,2,0,81,0,1
53593,-100,4,2,0,5,0,1
53674,-100,4,2,0,81,0,1
54400,-100,4,2,0,5,0,1
54480,-100,4,2,0,81,0,1
58109,-100,4,2,0,5,0,1
58190,-100,4,2,0,75,0,1
58674,-100,4,2,0,85,0,1
59238,-100,4,2,0,5,0,1
59319,-100,4,2,0,70,0,0
59642,-100,4,2,0,81,0,1
60690,-100,4,2,0,5,0,1
60771,-100,4,2,0,81,0,1
61335,-100,4,2,0,5,0,1
61416,-100,4,2,0,81,0,1
63271,-100,4,2,0,5,0,1
63351,-100,4,2,0,81,0,1
63916,-100,4,2,0,5,0,1
63996,-100,4,2,0,81,0,1
64722,-100,4,2,0,5,0,1
64803,-100,4,2,0,81,0,1
66980,-100,4,2,0,5,0,1
67061,-100,4,2,0,81,0,1
68190,-100,4,2,0,81,0,1
68432,-100,4,2,0,5,0,1
68513,-100,4,2,0,81,0,1
69480,-100,4,2,0,70,0,1
69642,-100,4,2,0,77,0,0
71093,-100,4,2,0,61,0,0
71254,-100,4,2,0,77,0,0
72867,-100,4,2,0,99,0,0
73351,-100,4,2,0,100,0,0
74319,-100,4,2,0,77,0,0
74803,-100,4,2,0,60,0,0
77384,-100,4,2,0,70,0,0
77706,-100,4,2,0,55,0,0
78029,-100,4,2,0,60,0,0
78351,-100,4,2,0,65,0,0
78674,-100,4,2,0,70,0,0
78754,-100,4,2,0,55,0,0
78996,-100,4,2,0,60,0,0
79158,-100,4,2,0,65,0,0
79319,-100,4,2,0,70,0,0
79480,-100,4,2,0,75,0,0
79642,-100,4,2,0,80,0,0
79803,-100,4,2,0,85,0,0
79964,-100,4,2,0,80,0,0
80287,-100,4,2,0,80,0,0
81496,-100,4,2,0,5,0,0
81577,-100,4,2,0,80,0,0
82545,-100,4,2,0,80,0,0
83916,-100,4,2,0,5,0,0
83996,-100,4,2,0,80,0,0
84561,-100,4,2,0,5,0,0
84642,-100,4,2,0,80,0,0
87061,-100,4,2,0,78,0,0

[Colours]
Combo1 : 176,138,255
Combo2 : 133,225,252
Combo3 : 248,176,255
Combo4 : 146,255,140

[HitObjects]
21,369,931,5,0,1:0:0:0:
61,255,1255,2,0,L|46:174,2,60,4|0|0,1:2|1:2|1:2,0:0:0:0:
143,341,1900,1,0,1:0:0:0:
184,228,2222,1,0,1:0:0:0:
184,228,2384,1,0,1:0:0:0:
276,303,2706,1,0,1:0:0:0:
298,184,3029,2,0,L|283:103,2,60,0|0|0,1:0|1:0|1:0,0:0:0:0:
349,215,3513,1,0,1:0:0:0:
398,324,3835,6,0,L|466:336,2,60,0|0|0,1:0|1:0|1:0,0:0:0:0:
276,303,4480,1,0,1:0:0:0:
157,284,4803,1,0,1:0:0:0:
157,284,4964,1,0,1:0:0:0:
38,263,5287,1,0,1:0:0:0:
112,169,5609,1,0,1:0:0:0:
112,169,5771,2,0,P|172:171|228:128,1,120,0|0,1:2|1:2,0:0:0:0:
271,29,6416,5,4,0:0:0:0:
373,91,6738,1,0,1:0:0:0:
488,57,7061,2,0,L|477:186,1,120,2|0,0:0|1:0,0:0:0:0:
471,296,7706,2,0,P|400:294|354:336,1,120,2|0,0:0|1:0,0:0:0:0:
338,376,8190,1,2,0:0:0:0:
244,308,8513,1,2,0:0:0:0:
131,347,8835,1,2,0:0:0:0:
131,347,8996,6,0,L|119:220,1,120,4|0,0:0|1:0,0:0:0:0:
112,107,9642,1,4,0:3:0:0:
112,107,9803,2,0,L|185:98,1,60,0|0,1:0|1:0,0:0:0:0:
220,134,10125,2,0,B|270:166|270:166|340:152,1,120,6|2,0:0|0:0,0:0:0:0:
350,35,10771,2,0,B|409:23|409:23|459:55,1,120,4|2,0:0|0:2,0:0:0:0:
507,90,11254,1,4,1:3:0:0:
452,196,11577,5,4,0:0:0:0:
477,313,11900,1,0,1:0:0:0:
361,280,12222,2,0,L|352:351,2,60,0|0|0,1:0|1:0|1:0,0:0:0:0:
343,222,12706,2,0,P|289:190|218:210,1,120,4|0,0:0|1:0,0:0:0:0:
178,218,13190,2,0,P|114:192|84:140,1,120,0|0,1:0|1:0,0:0:0:0:
201,102,13835,1,4,0:3:0:0:
105,24,14158,6,0,L|-18:35,2,120,4|2|2,0:0|0:0|0:0,0:0:0:0:
223,8,15125,1,2,0:0:0:0:
329,62,15448,2,0,L|461:76,1,120,2|2,0:0|0:0,0:0:0:0:
468,193,16093,2,0,L|348:180,1,120,2|2,0:0|0:0,0:0:0:0:
363,299,16738,2,0,L|482:311,2,120,2|2|2,0:0|0:0|0:0,0:0:0:0:
251,254,17706,6,0,P|195:252|134:301,1,120,4|2,0:0|0:0,0:0:0:0:
33,334,18351,2,0,L|25:267,1,60,2|2,0:0|1:3,0:0:0:0:
18,214,18674,2,0,L|4:91,1,120,2|2,0:0|0:2,0:0:0:0:
111,40,19319,6,0,L|128:175,1,120,4|2,0:0|0:0,0:0:0:0:
188,261,19964,2,0,L|311:275,1,120,2|2,0:0|0:0,0:0:0:0:
361,168,20609,2,0,L|226:151,1,120,2|2,0:0|0:0,0:0:0:0:
294,45,21254,2,0,L|414:60,1,120,2|2,0:0|0:0,0:0:0:0:
482,159,21900,5,2,1:2:0:0:
433,268,22222,1,0,1:0:0:0:
361,168,22545,1,2,1:2:0:0:
307,274,22867,2,0,P|242:274|192:224,1,120,2|4,1:2|0:3,0:0:0:0:
178,185,23351,5,2,1:2:0:0:
58,200,23674,1,2,0:0:0:0:
58,200,23835,2,0,P|35:229|30:274,1,60,4|0,1:2|1:0,0:0:0:0:
34,310,24158,1,4,1:2:0:0:
125,379,24480,6,0,P|204:369|256:351,1,120,4|0,0:2|1:0,0:0:0:0:
338,284,25125,2,0,P|417:294|469:312,1,120,2|0,0:0|1:0,0:0:0:0:
478,188,25771,2,0,P|399:178|347:160,1,120,2|0,0:0|1:0,0:0:0:0:
249,211,26416,2,0,P|185:162|149:121,1,120,2|0,0:0|1:0,0:0:0:0:
39,147,27061,2,0,P|8:73|-2:19,2,120,2|0|2,0:0|1:0|0:0,0:0:0:0:
116,238,28029,6,0,B|148:291|148:291|130:370,1,120,4|0,1:2|0:0,0:0:0:0:
253,364,28674,2,0,L|321:358,1,60,0|2,1:0|0:0,0:0:0:0:
372,353,28996,2,0,P|453:322|497:280,1,120,2|4,0:0|1:2,0:0:0:0:
511,185,29642,6,0,P|501:106|483:54,1,120,4|0,0:0|1:0,0:0:0:0:
389,0,30287,2,0,P|383:59|366:117,1,120,2|0,0:0|1:0,0:0:0:0:
267,48,30932,2,0,P|207:53|149:70,1,120,2|0,0:0|1:0,0:0:0:0:
78,166,31577,2,0,P|137:171|195:188,1,120,2|0,0:0|1:0,0:0:0:0:
298,248,32222,5,6,0:0:0:0:
194,308,32545,1,0,1:0:0:0:
300,368,32867,2,0,L|373:359,1,60,2|8,0:0|0:3,0:0:0:0:
419,355,33190,1,8,0:3:0:0:
419,355,33351,2,0,B|409:297|409:297|440:229,1,120,4|4,0:0|0:3,0:0:0:0:
485,134,33996,2,0,P|474:55|380:61,1,180,2|4,0:0|0:3,0:0:0:0:
338,162,34803,6,0,L|86:128,1,240,4|0,0:0|1:0,0:0:0:0:
31,228,35771,1,2,0:0:0:0:
31,228,35932,2,0,L|167:246,1,120,2|0,0:0|1:0,0:0:0:0:
209,252,36416,1,2,0:0:0:0:
287,342,36738,2,0,L|419:325,1,120,0|4,1:0|0:3,0:0:0:0:
466,323,37222,1,2,0:0:0:0:
466,323,37384,5,4,0:0:0:0:
401,222,37706,1,2,0:0:0:0:
453,113,38029,2,0,L|530:122,2,60,0|0|2,1:0|1:0|0:0,0:0:0:0:
407,73,38513,2,0,B|357:45|357:45|281:61,1,120,4|0,0:0|1:0,0:0:0:0:
238,76,38996,1,0,1:0:0:0:
238,76,39158,2,0,B|176:88|176:88|126:60,1,120,4|0,0:0|0:0,0:0:0:0:
77,25,39642,1,4,0:3:0:0:
8,123,39964,5,4,0:0:0:0:
113,179,40287,2,0,P|131:253|130:324,2,120,0|2|0,1:0|0:0|1:0,0:0:0:0:
168,72,41254,2,0,P|227:75|285:91,1,120,2|0,0:0|1:0,0:0:0:0:
356,188,41900,2,0,P|415:184|473:168,1,120,2|0,0:0|1:0,0:0:0:0:
491,286,42545,2,0,P|432:290|374:306,1,120,2|0,0:0|1:0,0:0:0:0:
253,314,43190,2,0,L|243:237,2,60,0|0|0,1:0|1:0|1:0,0:0:0:0:
263,373,43674,6,0,B|210:345|210:345|134:361,1,120,4|2,0:0|0:0,0:0:0:0:
94,378,44158,1,0,1:0:0:0:
94,378,44319,2,0,L|70:249,1,120,2|2,0:0|0:0,0:0:0:0:
60,200,44803,1,0,1:0:0:0:
60,200,44964,2,0,B|113:228|113:228|189:212,1,120,2|2,0:0|0:0,0:0:0:0:
230,202,45448,1,0,1:0:0:0:
230,202,45609,1,0,1:0:0:0:
167,110,45932,2,0,L|92:101,2,60,4|4|2,0:3|0:3|0:3,0:0:0:0:
300,66,46631,6,0,P|477:101|378:199,1,400,0|4,1:0|0:0,0:0:0:0:
381,199,48674,1,2,0:0:0:0:
316,299,48996,2,0,L|250:295,1,60,4|0,0:3|0:0,0:0:0:0:
201,269,49319,6,0,P|130:266|87:304,1,120,4|0,1:2|0:0,0:0:0:0:
66,177,49964,1,0,1:0:0:0:
66,177,50125,2,0,P|124:183|173:151,1,120,4|2,0:0|0:0,0:0:0:0:
206,101,50609,1,0,1:0:0:0:
206,101,50771,2,0,P|255:68|313:75,1,120,4|2,0:0|0:0,0:0:0:0:
364,106,51254,1,0,1:0:0:0:
364,106,51416,6,0,L|346:287,1,180,4|0,0:0|1:0,0:0:0:0:
460,323,52222,2,0,L|473:197,1,120,2|0,0:0|1:0,0:0:0:0:
486,145,52706,1,4,0:0:0:0:
498,25,53029,2,0,L|429:35,1,60,2|0,0:0|1:0,0:0:0:0:
381,15,53351,1,4,0:0:0:0:
269,60,53674,2,0,L|200:50,1,60,2|0,0:0|1:0,0:0:0:0:
152,70,53996,1,0,1:0:0:0:
152,70,54158,6,0,P|118:132|134:184,1,120,4|0,1:2|1:0,0:0:0:0:
221,254,54803,2,0,L|294:244,1,60,2|0,0:0|0:0,0:0:0:0:
339,236,55125,1,0,1:0:0:0:
339,236,55287,2,0,P|408:230|456:268,1,120,2|0,0:0|0:0,0:0:0:0:
494,295,55771,2,0,L|509:153,2,120,0|2|0,1:0|0:0|1:0,0:0:0:0:
399,368,56738,5,4,0:0:0:0:
280,351,57061,1,0,1:0:0:0:
161,331,57384,1,0,1:0:0:0:
41,317,57706,1,0,1:0:0:0:
41,317,57867,2,0,B|13:265|13:265|27:186,1,120,4|8,0:0|0:3,0:0:0:0:
35,145,58351,2,0,L|113:134,1,60,4|4,0:3|0:3,0:0:0:0:
153,127,58674,1,0,1:0:0:0:
238,211,58996,1,0,1:0:0:0:
339,146,59319,2,0,L|404:152,1,60,4|0,0:3|0:0,0:0:0:0:
458,159,59642,6,0,P|484:113|478:46,1,120,4|0,1:2|0:0,0:0:0:0:
365,8,60287,1,0,1:0:0:0:
365,8,60448,2,0,P|306:46|253:38,1,120,4|2,0:0|0:0,0:0:0:0:
200,24,60932,1,0,1:0:0:0:
200,24,61093,2,0,P|141:21|94:56,1,120,4|2,0:0|0:0,0:0:0:0:
73,113,61577,1,0,1:0:0:0:
73,113,61738,6,0,L|97:303,1,180,4|0,0:0|1:0,0:0:0:0:
195,358,62545,2,0,L|259:347,1,60,2|0,0:0|1:0,0:0:0:0:
313,339,62867,1,0,1:0:0:0:
313,339,63029,1,4,0:0:0:0:
372,235,63351,2,0,L|312:226,1,60,2|0,0:0|1:0,0:0:0:0:
252,217,63674,1,4,0:0:0:0:
306,110,63996,2,0,L|365:101,1,60,2|4,0:0|1:3,0:0:0:0:
424,90,64319,1,0,0:0:0:0:
424,90,64480,6,0,P|458:133|453:197,1,120,4|0,0:0|1:0,0:0:0:0:
347,251,65125,2,0,L|272:242,1,60,2|0,0:0|0:0,0:0:0:0:
227,239,65448,1,0,1:0:0:0:
227,239,65609,2,0,L|99:256,1,120,2|0,0:0|0:0,0:0:0:0:
47,259,66093,2,0,P|21:317|32:378,2,120,0|2|0,1:0|0:0|1:0,0:0:0:0:
116,160,67061,5,4,0:0:0:0:
48,60,67384,1,0,1:0:0:0:
163,30,67706,1,0,1:0:0:0:
235,125,68029,1,0,1:0:0:0:
235,125,68190,2,0,L|356:110,1,120,4|0,0:0|1:0,0:0:0:0:
413,101,68674,1,0,1:0:0:0:
464,130,68835,2,0,L|472:207,2,60,2|0|8,1:2|1:0|0:3,0:0:0:0:
512,92,69319,1,4,0:3:0:0:
433,0,69642,5,4,1:2:0:0:
314,19,69964,1,0,1:0:0:0:
195,38,70287,1,0,1:0:0:0:
76,58,70609,2,0,P|60:89|59:138,1,60,0|4,1:0|0:2,0:0:0:0:
60,173,70932,5,0,1:0:0:0:
177,197,71254,1,0,1:0:0:0:
294,221,71577,1,2,1:2:0:0:
411,245,71900,1,2,1:2:0:0:
334,336,72222,5,4,1:2:0:0:
215,353,72545,1,0,1:0:0:0:
96,375,72867,1,2,1:2:0:0:
96,375,73029,2,0,P|85:339|86:307,1,60,2|2,1:2|1:2,0:0:0:0:
121,269,73351,6,0,L|-16:247,3,120,2|2|2|2,0:0|0:0|0:0|1:2,0:0:0:0:
44,77,74803,6,0,P|134:79|156:174,2,180,4|0|4,0:0|1:0|0:3,0:0:0:0:
60,196,76093,2,0,B|180:244|165:124|287:175,1,240,4|4,1:2|0:3,0:0:0:0:
500,378,77384,5,4,0:2:0:0:
380,365,77706,1,0,1:0:0:0:
448,266,78029,1,0,1:0:0:0:
329,252,78351,1,0,1:0:0:0:
400,153,78674,2,0,L|411:77,1,60,0|0,1:0|1:0,0:0:0:0:
414,40,78996,1,0,1:0:0:0:
414,40,79158,2,0,B|363:73|363:73|286:60,1,120,2|2,1:2|1:2,0:0:0:0:
246,50,79641,1,2,1:2:0:0:
174,146,79964,5,4,0:0:0:0:
59,181,80287,2,0,P|21:248|39:307,2,120,4|2|0,1:2|0:0|1:0,0:0:0:0:
174,146,81254,2,0,L|303:160,1,120,4|0,0:0|1:0,0:0:0:0:
352,170,81738,1,2,0:0:0:0:
467,146,82061,1,2,0:0:0:0:
437,262,82384,1,2,0:0:0:0:
437,262,82545,6,0,L|449:386,1,120,2|0,0:0|1:0,0:0:0:0:
338,332,83190,1,2,0:0:0:0:
338,332,83351,2,0,P|277:350|266:362,1,60,0|0,1:0|1:0,0:0:0:0:
225,369,83674,2,0,B|162:364|162:364|107:301,1,120,4|2,0:0|0:0,0:0:0:0:
58,220,84319,2,0,B|121:215|121:215|176:152,1,120,4|2,0:0|0:0,0:0:0:0:
186,118,84803,2,0,B|288:104|250:105,1,60,4|0,1:3|0:0,0:0:0:0:
305,104,85125,5,4,0:0:0:0:
383,194,85448,1,0,1:0:0:0:
489,146,85771,2,0,L|496:73,2,60,2|2|0,0:0|0:0|1:0,0:0:0:0:
507,202,86254,1,4,0:0:0:0:
492,321,86577,1,0,1:0:0:0:
492,321,86738,2,0,L|410:335,1,60,0|0,1:0|1:0,0:0:0:0:
381,299,87061,2,0,P|330:269|272:278,1,120,0|0,1:0|1:0,0:0:0:0:
221,311,87545,1,4,0:0:0:0:
