osu file format v14

[General]
AudioFilename: audio.mp3
AudioLeadIn: 0
PreviewTime: 5703
Countdown: 0
SampleSet: Soft
StackLeniency: 0.3
Mode: 0
LetterboxInBreaks: 0
WidescreenStoryboard: 1

[Editor]
Bookmarks: 5945,6025,6106,8687,9816,13203,13525,34493,35944,36105,36266,38042,38122,38203,39654,55460,55621,58202,63364,64171,65299,65702,67395,67718,67880,68687,69332,73687,74493,75784,78847,87718
DistanceSpacing: 1.1
BeatDivisor: 8
GridSize: 32
TimelineZoom: 3.599999

[Metadata]
Title:Soundscape (TV Size)
TitleUnicode:サウンドスケップ (TV Size)
Artist:TRUE
ArtistUnicode:TRUE
Creator:jeanbernard8865
Version:Insane
Source:響け!ユーフォニアム2
Tags:oumae kumiko kousaka reina 黄前 久美子 高坂 麗奈 hibike sound euphonium 2nd season opening op brass trumpet orchestra music arutsuki female vocalist
BeatmapID:1771533
BeatmapSetID:808396

[Difficulty]
HPDrainRate:5
CircleSize:4.2
OverallDifficulty:7.4
ApproachRate:9.3
SliderMultiplier:1.4
SliderTickRate:1

[Events]
//Background and Video events
0,0,"Konachan.com - 216698 sample.jpg",0,0
//Break Periods
//Storyboard Layer 0 (Background)
//Storyboard Layer 1 (Fail)
//Storyboard Layer 2 (Pass)
//Storyboard Layer 3 (Foreground)
//Storyboard Layer 4 (Overlay)
//Storyboard Sound Samples

[TimingPoints]
-346,322.58064516129,4,2,20,70,1,0
621,-133.333333333333,4,2,1,70,0,0
863,-133.333333333333,4,2,99,5,0,0
944,-100,4,2,1,70,0,0
6105,-100,4,2,2,70,0,0
6347,-133.333333333333,4,2,99,5,0,0
6428,-100,4,2,14,70,0,0
6670,-100,4,2,99,5,0,0
6750,-100,4,2,2,70,0,0
6992,-100,4,2,99,5,0,0
7073,-100,4,2,2,70,0,0
7315,-100,4,2,99,5,0,0
7395,-100,4,2,2,70,0,0
7637,-100,4,2,99,5,0,0
7718,-100,4,2,2,70,0,0
8686,-100,4,2,10,70,0,0
8928,-100,4,2,99,5,0,0
9008,-100,4,2,2,70,0,0
9250,-100,4,2,99,5,0,0
9331,-100,4,2,24,70,0,0
9492,-100,4,2,2,70,0,0
9815,-100,4,2,13,70,0,0
10057,-100,4,2,99,5,0,0
10137,-100,4,2,2,70,0,0
10783,-100,4,2,22,70,0,0
10944,-100,4,2,2,70,0,0
11266,-100,4,2,14,70,0,0
11428,-100,4,2,2,70,0,0
12395,-100,4,2,12,70,0,0
12637,-100,4,2,99,5,0,0
12718,-100,4,2,24,70,0,0
13202,-100,4,2,1,70,0,0
13363,-100,4,2,2,70,0,0
13766,-100,4,2,99,5,0,0
13847,-133.333333333333,4,2,14,70,0,0
14008,-133.333333333333,4,2,1,40,0,0
17395,-133.333333333333,4,2,2,40,0,0
17637,-133.333333333333,4,2,1,40,0,0
18202,-133.333333333333,4,2,2,40,0,0
18363,-133.333333333333,4,2,1,40,0,0
18686,-133.333333333333,4,2,23,40,0,0
18847,-133.333333333333,4,2,1,40,0,0
19008,-133.333333333333,4,2,10,60,0,0
19170,-133.333333333333,4,2,1,40,0,0
20621,-133.333333333333,4,2,2,50,0,0
21589,-100,4,2,13,60,0,0
21831,-100,4,2,99,5,0,0
21912,-100,4,2,1,60,0,0
23202,-100,4,2,23,60,0,0
23363,-100,4,2,1,60,0,0
23524,-100,4,2,10,60,0,0
23847,-100,4,2,13,60,0,0
24089,-83.3333333333333,4,2,99,5,0,0
24170,-111.111111111111,4,2,14,60,0,0
24331,-111.111111111111,4,2,1,50,0,0
27718,-111.111111111111,4,2,13,60,0,0
28041,-111.111111111111,4,2,1,50,0,0
29008,-111.111111111111,4,2,2,50,0,0
29250,-111.111111111111,4,2,99,5,0,0
29331,-111.111111111111,4,2,10,60,0,0
29492,-111.111111111111,4,2,1,50,0,0
31589,-111.111111111111,4,2,2,50,0,0
31912,-100,4,2,10,60,0,0
32073,-100,4,2,2,60,0,0
32718,-100,4,2,25,60,0,0
33041,-100,4,2,1,60,0,0
33363,-100,4,2,24,60,0,0
33686,-100,4,2,14,60,0,0
33847,-100,4,2,14,60,0,0
34008,-100,4,2,23,60,0,0
34170,-100,4,2,20,60,0,0
34331,-100,4,2,1,60,0,0
34492,-133.333333333333,4,2,10,60,0,0
34653,-100,4,2,1,50,0,0
35863,-100,4,2,99,5,0,0
35944,-100,4,2,1,50,0,0
36589,-100,4,2,23,50,0,0
37073,-100,4,2,12,60,0,0
37315,-100,4,2,99,5,0,0
37395,-100,4,2,1,50,0,0
38202,-100,4,2,13,60,0,0
38444,-100,4,2,99,5,0,0
38524,-100,4,2,1,60,0,0
38847,-100,4,2,10,60,0,0
39089,-100,4,2,99,5,0,0
39170,-100,4,2,22,60,0,0
39492,-100,4,2,1,60,0,0
39653,-100,4,2,14,60,0,0
39815,-100,4,2,2,60,0,0
40702,-100,4,2,99,5,0,0
40783,-100,4,2,2,60,0,0
42879,-100,4,2,2,70,0,0
43363,-100,4,2,14,70,0,0
43686,-100,4,2,2,70,0,0
45460,-100,4,2,24,70,0,0
45621,-100,4,2,22,70,0,0
45702,-100,4,2,24,70,0,0
45783,-100,4,2,21,70,0,0
45944,-133.333333333333,4,2,11,70,0,0
46105,-100,4,2,99,5,0,0
46320,-83.3333333333333,4,2,1,70,0,0
46428,-100,4,2,99,5,0,0
46535,-71.4285714285714,4,2,1,75,0,0
46643,-100,4,2,99,5,0,0
46750,-71.4285714285714,4,2,1,80,0,0
46858,-100,4,2,99,5,0,0
46965,-66.6666666666667,4,2,1,85,0,0
47073,-100,4,2,99,5,0,0
47180,-58.8235294117647,4,2,1,90,0,0
47288,-100,4,2,99,5,0,0
47395,-66.6666666666667,4,2,1,100,0,0
47718,-100,4,2,11,60,0,0
48041,-100,4,2,1,60,0,0
48686,-100,4,2,21,40,0,0
48847,-100,4,2,20,40,0,0
49008,-66.6666666666667,4,2,10,80,0,1
49331,-90.9090909090909,4,2,2,80,0,0
50057,-90.9090909090909,4,2,99,5,0,0
50137,-90.9090909090909,4,2,2,80,0,0
50702,-90.9090909090909,4,2,99,5,0,0
50782,-90.9090909090909,4,2,2,80,0,0
51508,-90.9090909090909,4,2,99,5,0,0
51589,-90.9090909090909,4,2,2,80,0,0
52395,-90.9090909090909,4,2,10,80,0,0
52637,-90.9090909090909,4,2,99,5,0,0
52718,-90.9090909090909,4,2,2,80,0,0
52960,-90.9090909090909,4,2,99,5,0,0
53041,-90.9090909090909,4,2,13,80,0,0
53283,-90.9090909090909,4,2,99,5,0,0
53363,-90.9090909090909,4,2,2,80,0,0
53847,-90.9090909090909,4,2,10,80,0,0
54089,-90.9090909090909,4,2,99,5,0,0
54170,-90.9090909090909,4,2,2,80,0,0
54412,-90.9090909090909,4,2,99,5,0,0
54493,-90.9090909090909,4,2,2,80,0,0
55218,-90.9090909090909,4,2,99,5,0,0
55299,-90.9090909090909,4,2,2,80,0,0
56428,-90.9090909090909,4,2,2,90,0,0
57557,-90.9090909090909,4,2,13,90,0,0
57879,-90.9090909090909,4,2,25,80,0,0
57960,-90.9090909090909,4,2,24,80,0,0
58041,-90.9090909090909,4,2,23,80,0,0
58121,-90.9090909090909,4,2,22,80,0,0
58202,-90.9090909090909,4,2,21,80,0,0
58283,-90.9090909090909,4,2,20,80,0,0
58363,-90.9090909090909,4,2,2,80,0,0
58605,-90.9090909090909,4,2,99,5,0,0
58686,-90.9090909090909,4,2,2,80,0,0
58928,-90.9090909090909,4,2,99,5,0,0
59008,-90.9090909090909,4,2,21,40,0,0
59170,-90.9090909090909,4,2,23,40,0,0
59331,-66.6666666666667,4,2,10,80,0,1
59653,-90.9090909090909,4,2,2,80,0,0
60379,-90.9090909090909,4,2,99,5,0,0
60460,-90.9090909090909,4,2,2,80,0,0
61024,-90.9090909090909,4,2,99,5,0,0
61105,-90.9090909090909,4,2,2,80,0,0
62718,-90.9090909090909,4,2,10,80,0,0
62960,-90.9090909090909,4,2,99,5,0,0
63041,-90.9090909090909,4,2,2,80,0,0
63283,-90.9090909090909,4,2,99,5,0,0
63363,-90.9090909090909,4,2,13,80,0,0
63605,-90.9090909090909,4,2,99,5,0,0
63686,-90.9090909090909,4,2,2,80,0,0
64170,-90.9090909090909,4,2,12,80,0,0
64412,-90.9090909090909,4,2,99,5,0,0
64492,-90.9090909090909,4,2,2,80,0,0
64734,-90.9090909090909,4,2,99,5,0,0
64814,-90.9090909090909,4,2,2,80,0,0
66750,-90.9090909090909,4,2,2,90,0,0
67879,-90.9090909090909,4,2,13,90,0,0
68121,-90.9090909090909,4,2,99,5,0,0
68202,-90.9090909090909,4,2,25,80,0,0
68444,-90.9090909090909,4,2,99,5,0,0
68524,-90.9090909090909,4,2,24,80,0,0
68686,-100,4,2,14,80,0,0
69008,-100,4,2,22,80,0,0
69250,-100,4,2,99,5,0,0
69331,-100,4,2,10,90,0,0
69492,-100,4,2,2,90,0,0
72557,-100,4,2,2,95,0,0
73041,-100,4,2,11,80,0,0
73686,-100,4,2,12,70,0,0
74492,-133.333333333333,4,2,14,50,0,0
75299,-133.333333333333,4,2,24,50,0,0
75460,-133.333333333333,4,2,22,50,0,0
75621,-100,4,2,1,50,0,0
75783,-133.333333333333,4,2,13,50,0,0
76105,-133.333333333333,4,2,1,50,0,0
76428,-133.333333333333,4,2,23,50,0,0
76589,-100,4,2,20,50,0,0
77073,-100,4,2,10,70,0,1
77315,-100,4,2,99,5,0,1
77395,-100,4,2,1,70,0,1
77718,-100,4,2,1,80,0,1
78041,-100,4,2,1,90,0,1
78363,-100,4,2,14,100,0,1
79653,-125,4,2,14,60,0,0
79895,-133.333333333333,4,2,99,5,0,0
79976,-76.9230769230769,4,2,13,80,0,1
80218,-76.9230769230769,4,2,99,5,0,1
80299,-100,4,2,2,70,0,0
81186,-100,4,2,99,5,0,0
81266,-100,4,2,2,70,0,0
82476,-100,4,2,99,5,0,0
82557,-100,4,2,2,70,0,0
82799,-100,4,2,99,5,0,0
82879,-100,4,2,24,70,0,0
83041,-100,4,2,2,70,0,0
83363,-100,4,2,10,70,0,0
83605,-100,4,2,99,5,0,0
83686,-100,4,2,2,70,0,0
84008,-100,4,2,11,70,0,0
84331,-100,4,2,2,70,0,0
84815,-100,4,2,14,70,0,0
85137,-100,4,2,2,70,0,0
85944,-100,4,2,10,70,0,0
86186,-100,4,2,99,5,0,0
86266,-100,4,2,2,70,0,0
87234,-133.333333333333,4,2,14,70,0,0
87718,-133.333333333333,4,2,14,35,0,0

[Colours]
Combo1 : 251,218,117
Combo2 : 136,196,255
Combo3 : 253,230,157
Combo4 : 66,160,255

[HitObjects]
83,348,460,5,2,3:2:0:0:
83,348,541,1,2,3:2:0:0:
83,348,621,2,0,L|168:340,1,78.7500030040742,8|0,0:2|0:2,0:2:0:0:
246,291,944,5,8,0:2:0:0:
132,233,1105,1,8,0:2:0:0:
18,299,1266,1,8,0:2:0:0:
14,307,1589,1,8,0:2:0:0:
8,320,1912,5,8,0:2:0:0:
124,229,2073,1,8,0:2:0:0:
129,222,2395,1,8,0:2:0:0:
135,208,2718,5,8,0:2:0:0:
257,257,2879,1,8,0:2:0:0:
375,179,3041,1,8,0:2:0:0:
502,228,3202,1,8,0:2:0:0:
502,237,3524,5,8,0:2:0:0:
399,146,3686,1,8,0:2:0:0:
415,22,3847,1,8,0:2:0:0:
410,17,4170,1,8,0:2:0:0:
398,10,4492,5,8,0:2:0:0:
250,46,4653,1,8,0:2:0:0:
245,51,4976,1,8,0:2:0:0:
238,57,5299,5,8,0:2:0:0:
123,6,5460,1,8,0:2:0:0:
114,8,5541,1,8,0:2:0:0:
102,13,5621,1,8,0:2:0:0:
94,18,5702,1,8,0:2:0:0:
85,25,5783,1,8,0:2:0:0:
80,35,5863,1,8,0:2:0:0:
77,43,5944,5,8,0:2:0:0:
92,74,6024,1,8,0:2:0:0:
93,112,6105,6,0,P|81:157|88:225,1,105,2|0,3:2|0:2,0:2:0:0:
69,240,6428,2,0,L|190:219,1,105,12|0,0:2|0:2,0:2:0:0:
255,271,6750,1,0,3:2:0:0:
254,151,6912,5,0,3:2:0:0:
254,151,7073,2,0,P|272:98|271:22,1,105,10|0,0:2|0:2,0:2:0:0:
251,9,7395,6,0,L|386:29,1,105,0|0,3:2|0:2,0:2:0:0:
392,101,7718,5,10,0:2:0:0:
279,120,7879,2,0,L|193:110,1,70,0|0,0:2|3:2,0:2:0:0:
360,162,8202,2,0,L|455:158,1,70,0|10,0:2|0:2,0:2:0:0:
512,103,8524,1,0,0:2:0:0:
504,197,8686,6,0,P|517:230|507:311,1,105,4|0,3:2|0:2,0:2:0:0:
509,305,9008,2,0,P|452:292|381:317,1,105,10|0,0:2|0:2,0:2:0:0:
400,308,9331,5,10,3:2:0:0:
312,384,9492,1,8,0:2:0:0:
211,319,9653,1,10,0:2:0:0:
92,384,9815,6,0,P|129:369|204:368,1,105,4|0,3:2|0:2,0:2:0:0:
280,382,10137,1,2,3:2:0:0:
267,296,10299,1,8,0:2:0:0:
146,256,10460,1,2,0:2:0:0:
140,254,10783,5,2,3:2:0:0:
200,191,10944,1,10,0:2:0:0:
181,95,11105,1,0,0:2:0:0:
99,223,11266,6,0,P|157:209|188:220,1,70,4|0,3:2|3:2,0:2:0:0:
243,255,11589,1,10,0:2:0:0:
243,255,11750,1,0,3:2:0:0:
329,220,11912,5,10,0:2:0:0:
353,100,12073,1,8,0:2:0:0:
475,32,12234,1,10,0:2:0:0:
443,166,12395,6,0,L|426:294,1,105,4|0,0:2|0:2,0:2:0:0:
424,280,12718,1,10,3:2:0:0:
347,364,12879,1,10,3:2:0:0:
322,265,13041,1,10,3:2:0:0:
243,330,13202,2,0,L|185:340,2,46.6666666666667,8|0|0,0:2|3:2|3:2,0:2:0:0:
330,337,13524,1,8,0:2:0:0:
122,358,13847,6,0,P|69:346|14:357,3,105.000004005432,4|2|2|2,3:2|3:2|3:2|3:2,0:2:0:0:
199,313,15137,2,0,P|148:301|96:309,3,105.000004005432,2|2|2|2,3:2|3:2|3:2|3:2,0:2:0:0:
37,227,16428,2,0,P|99:211|150:217,2,105.000004005432,2|2|2,3:2|3:2|3:2,0:2:0:0:
214,135,17395,6,0,P|261:149|308:142,1,78.7500030040742,2|0,3:2|0:2,0:2:0:0:
297,144,17718,1,2,3:2:0:0:
302,142,18041,1,2,3:2:0:0:
405,156,18202,2,0,L|472:148,1,52.5000020027161,10|2,0:2|3:2,0:2:0:0:
305,46,18686,1,2,3:2:0:0:
184,115,19008,6,0,P|139:100|77:115,3,105.000004005432,4|2|2|2,3:2|3:2|3:2|3:2,0:2:0:0:
235,82,20299,2,0,P|190:67|128:82,3,105.000004005432,2|2|2|2,3:2|3:2|3:2|3:2,0:2:0:0:
292,18,21589,6,0,L|275:138,1,105,4|0,3:2|0:2,0:2:0:0:
290,186,21912,2,0,L|303:237,3,35,8|8|8|8,0:2|0:2|0:2|0:2,0:2:0:0:
364,262,22234,1,8,0:2:0:0:
381,264,22315,1,8,0:2:0:0:
398,261,22395,1,8,0:2:0:0:
412,251,22476,1,8,0:2:0:0:
421,236,22557,1,8,0:2:0:0:
425,219,22637,1,8,0:2:0:0:
424,201,22718,1,8,0:2:0:0:
418,184,22799,1,8,0:2:0:0:
408,169,22879,5,0,3:2:0:0:
444,41,23041,1,8,0:2:0:0:
447,35,23363,5,0,3:2:0:0:
319,0,23524,1,12,0:2:0:0:
322,99,23686,1,6,0:2:0:0:
176,112,23847,2,0,L|64:106,1,105,12|0,0:2|0:2,0:2:0:0:
62,114,24170,6,0,P|70:170|54:246,1,125.999996154785,4|10,3:2|0:2,0:2:0:0:
2,289,24653,2,0,L|143:274,1,125.999996154785,0|0,0:2|3:2,0:2:0:0:
231,322,25137,1,10,0:2:0:0:
401,242,25460,6,0,P|332:246|258:205,1,125.999996154785,2|10,3:2|0:2,0:2:0:0:
187,247,25944,2,0,P|250:247|301:288,1,125.999996154785,0|0,0:2|3:2,0:2:0:0:
416,320,26428,1,10,0:2:0:0:
406,151,26750,6,0,L|255:167,1,125.999996154785,2|10,3:2|0:2,0:2:0:0:
216,186,27234,2,0,L|370:210,1,125.999996154785,0|0,0:2|0:2,0:2:0:0:
237,282,27718,6,0,P|299:275|359:292,1,125.999996154785,12|2,0:2|0:2,0:2:0:0:
422,357,28202,1,0,3:2:0:0:
455,273,28363,1,10,0:2:0:0:
365,237,28524,5,0,0:2:0:0:
342,230,28605,1,0,0:2:0:0:
320,224,28686,2,0,L|252:201,1,62.9999980773926,2|0,3:2|3:2,0:2:0:0:
184,236,29008,1,10,0:2:0:0:
260,91,29331,6,0,P|321:109|392:84,1,125.999996154785,4|10,3:2|0:2,0:2:0:0:
486,135,29815,2,0,P|419:122|338:151,1,125.999996154785,0|0,0:2|3:2,0:2:0:0:
263,200,30299,1,10,0:2:0:0:
142,62,30621,6,0,P|79:54|9:73,1,125.999996154785,2|10,3:2|0:2,0:2:0:0:
0,12,31105,2,0,L|14:158,1,125.999996154785,0|0,0:2|3:2,0:2:0:0:
73,241,31589,1,10,0:2:0:0:
248,122,31912,6,0,L|323:126,1,70,4|0,3:2|3:2,0:2:0:0:
413,187,32234,1,10,0:2:0:0:
296,209,32395,1,0,0:2:0:0:
268,293,32557,2,0,L|192:286,2,70,0|2|2,3:2|3:2|3:2,0:2:0:0:
369,335,33041,6,0,P|366:273|385:186,1,140,0|2,3:2|3:2,0:2:0:0:
423,131,33524,1,2,3:2:0:0:
385,20,33686,1,4,0:2:0:0:
312,73,33847,2,0,L|215:62,1,70,8|2,0:2|3:2,0:2:0:0:
163,102,34170,1,2,3:2:0:0:
210,301,34492,6,0,L|139:295,2,52.5000020027161,4|0|0,3:2|0:2|3:2,0:2:0:0:
316,271,34976,1,0,0:2:0:0:
259,182,35137,1,8,0:2:0:0:
91,254,35460,1,0,3:2:0:0:
91,254,35621,6,0,P|103:196|94:108,1,140,0|8,3:2|0:2,0:2:0:0:
56,59,36105,1,0,3:2:0:0:
133,33,36266,1,0,3:2:0:0:
127,128,36428,1,8,0:2:0:0:
41,113,36589,2,0,L|-33:100,2,70,2|2|2,3:2|3:2|3:2,0:2:0:0:
128,200,37073,6,0,P|188:184|270:196,1,140,4|0,3:2|3:2,0:2:0:0:
81,131,37718,1,8,0:2:0:0:
195,79,37879,1,8,0:2:0:0:
305,126,38041,1,8,0:2:0:0:
335,135,38121,1,0,0:2:0:0:
369,133,38202,6,0,P|428:128|511:129,1,140,4|8,3:2|0:2,0:2:0:0:
474,210,38686,1,8,0:2:0:0:
419,66,38847,6,0,P|415:144|421:207,1,140,4|2,3:2|3:2,0:2:0:0:
452,269,39331,1,2,3:2:0:0:
276,346,39653,6,0,P|206:318|117:336,2,140,4|10|2,3:2|0:2|3:2,0:2:0:0:
344,366,40460,2,0,P|336:297|346:236,1,105,0|0,3:2|0:2,0:2:0:0:
341,255,40783,1,0,0:2:0:0:
249,277,40944,6,0,L|110:254,1,140,2|10,3:2|0:2,0:2:0:0:
40,200,41428,1,0,0:2:0:0:
40,200,41508,1,0,0:2:0:0:
40,200,41589,2,0,L|52:101,1,70,2|0,3:2|3:2,0:2:0:0:
97,58,41912,2,0,L|172:68,1,70,10|0,0:0|0:0,0:0:0:0:
218,199,42234,6,0,P|292:186|365:215,1,140,2|10,3:2|0:2,0:2:0:0:
509,0,42879,1,10,0:2:0:0:
506,20,42960,1,8,0:2:0:0:
502,40,43041,1,10,0:2:0:0:
498,60,43121,1,8,0:2:0:0:
493,80,43202,1,10,0:2:0:0:
401,189,43363,6,0,P|335:182|243:182,1,140,4|0,3:2|3:2,0:2:0:0:
136,235,43847,1,10,0:2:0:0:
22,192,44008,2,0,P|10:162|10:118,1,70,0|10,3:2|0:2,0:2:0:0:
110,54,44331,5,0,3:2:0:0:
206,123,44492,1,10,0:2:0:0:
305,63,44653,2,0,L|405:76,1,70,0|10,3:2|0:2,0:2:0:0:
443,161,44976,5,0,3:2:0:0:
379,254,45137,1,10,0:2:0:0:
444,341,45299,1,8,0:2:0:0:
456,352,45379,1,8,0:2:0:0:
470,362,45460,2,0,L|551:348,2,70,2|2|2,3:2|3:2|3:2,0:2:0:0:
354,356,45944,2,0,L|284:364,1,52.5000020027161,4|0,3:2|0:2,0:2:0:0:
295,362,46320,6,0,L|285:290,1,55.9999982910157,8|0,3:2|0:2,0:2:0:0:
212,331,46535,2,0,L|219:258,1,65.3333313395183,8|0,3:2|0:2,0:2:0:0:
125,231,46750,2,0,L|142:149,1,65.3333313395183,8|0,3:2|0:2,0:2:0:0:
274,204,46965,2,0,L|308:127,1,70.0000026702882,8|0,3:2|0:2,0:2:0:0:
275,68,47180,2,0,L|287:-22,1,79.3333348464966,8|0,3:2|0:2,0:2:0:0:
251,49,47395,6,0,B|284:115|231:177|265:255,1,210.000008010865,8|4,3:2|0:2,0:2:0:0:
265,98,48041,2,0,L|334:119,1,70,2|0,0:2|3:2,0:2:0:0:
339,118,48283,1,0,3:2:0:0:
348,117,48363,2,0,L|369:113,7,17.5,8|0|0|0|0|0|0|0,0:2|0:2|0:2|0:2|0:2|0:2|0:2|0:2,0:2:0:0:
420,107,48686,5,2,3:2:0:0:
421,110,48766,1,2,3:2:0:0:
422,113,48847,1,2,3:2:0:0:
423,116,48928,1,2,3:2:0:0:
417,159,49008,6,0,B|381:58|184:159|184:159,1,210.000008010865,12|0,0:2|3:2,0:2:0:0:
157,211,49492,1,0,3:2:0:0:
151,106,49653,1,10,0:2:0:0:
241,178,49815,6,0,P|232:252|249:363,1,154.000004699707,0|0,3:2|3:2,0:2:0:0:
355,251,50299,1,10,0:2:0:0:
312,144,50460,2,0,P|290:75|287:-23,1,154.000004699707,0|0,3:2|3:2,0:2:0:0:
416,128,50944,1,10,0:2:0:0:
426,203,51105,1,0,3:2:0:0:
426,203,51266,6,0,P|359:189|305:197,1,115.50000352478,0|0,3:2|0:2,0:2:0:0:
275,156,51589,2,0,P|202:179|108:159,1,154.000004699707,10|0,0:2|3:2,0:2:0:0:
140,57,52073,1,0,3:2:0:0:
109,145,52234,1,10,0:2:0:0:
166,277,52395,6,0,P|235:286|300:267,1,115.50000352478,4|0,3:2|0:2,0:2:0:0:
357,275,52718,2,0,P|250:266|231:242,1,115.50000352478,0|0,3:2|0:2,0:2:0:0:
188,365,53041,2,0,P|235:345|296:356,1,115.50000352478,4|0,3:2|0:2,0:2:0:0:
380,356,53363,2,0,L|465:336,1,77.0000023498536,0|10,3:2|0:2,0:2:0:0:
454,227,53686,1,8,0:2:0:0:
448,200,53766,1,8,0:2:0:0:
455,173,53847,6,0,P|465:112|470:51,1,115.50000352478,4|0,3:2|0:2,0:2:0:0:
501,40,54170,2,0,P|400:57|362:55,1,115.50000352478,10|0,0:2|0:2,0:2:0:0:
310,14,54492,1,0,3:2:0:0:
310,14,54653,1,0,3:2:0:0:
231,86,54815,1,10,0:2:0:0:
257,158,54976,6,0,L|241:313,1,154.000004699707,0|0,3:2|3:2,0:2:0:0:
141,374,55460,1,10,0:2:0:0:
128,272,55621,1,0,0:2:0:0:
244,325,55783,2,0,P|317:323|406:328,1,154.000004699707,0|10,3:2|0:2,0:2:0:0:
432,257,56266,1,0,0:2:0:0:
418,231,56347,1,0,0:2:0:0:
412,195,56428,6,0,P|406:157|416:103,1,77.0000023498536,2|0,0:2|3:2,0:2:0:0:
251,18,56750,2,0,P|286:35|327:45,1,77.0000023498536,10|0,0:2|3:2,0:2:0:0:
300,174,57073,2,0,P|267:169|217:172,1,77.0000023498536,10|0,0:2|3:2,0:2:0:0:
138,264,57395,5,10,0:2:0:0:
0,161,57557,1,4,3:2:0:0:
4,165,57879,6,0,L|59:160,1,38.5000011749268,10|2,3:2|3:2,0:2:0:0:
108,128,58041,1,2,3:2:0:0:
119,128,58121,1,2,3:2:0:0:
130,128,58202,1,2,3:2:0:0:
141,129,58283,1,2,3:2:0:0:
152,130,58363,6,0,P|214:136|276:121,1,115.50000352478,10|0,0:2|0:2,0:2:0:0:
115,205,58686,2,0,L|264:191,1,115.50000352478,10|0,0:2|0:2,0:2:0:0:
322,242,59008,5,2,3:2:0:0:
321,245,59088,1,2,3:2:0:0:
320,248,59169,1,2,3:2:0:0:
319,251,59250,1,2,3:2:0:0:
325,294,59331,6,0,B|361:193|558:294|558:294,1,210.000008010865,12|0,0:2|3:2,0:2:0:0:
512,384,59815,1,0,3:2:0:0:
399,308,59976,1,10,0:2:0:0:
404,210,60137,6,0,P|411:153|413:47,1,154.000004699707,0|0,3:2|3:2,0:2:0:0:
305,106,60621,1,10,0:2:0:0:
349,209,60783,2,0,P|339:294|339:373,1,154.000004699707,0|0,3:2|3:2,0:2:0:0:
246,302,61266,1,10,0:2:0:0:
243,157,61428,6,0,P|244:83|236:4,1,154.000004699707,0|0,3:2|3:2,0:2:0:0:
151,103,61912,2,0,P|69:114|-13:96,1,154.000004699707,10|0,0:2|3:2,0:2:0:0:
123,28,62395,5,8,0:2:0:0:
233,108,62557,1,10,0:2:0:0:
219,244,62718,6,0,P|224:320|205:373,1,115.50000352478,4|0,3:2|0:2,0:2:0:0:
341,377,63041,2,0,P|335:322|361:265,1,115.50000352478,2|0,3:2|0:2,0:2:0:0:
477,302,63363,2,0,L|465:164,1,115.50000352478,4|0,3:2|0:2,0:2:0:0:
397,128,63686,2,0,L|406:49,1,77.0000023498536,0|10,3:2|0:2,0:2:0:0:
512,0,64008,1,0,0:2:0:0:
512,0,64170,6,0,P|425:14|371:11,1,115.50000352478,4|0,3:2|0:2,0:2:0:0:
370,50,64492,2,0,P|319:45|240:47,1,115.50000352478,10|0,0:2|0:2,0:2:0:0:
174,13,64815,1,0,3:2:0:0:
174,13,64976,1,0,3:2:0:0:
204,109,65137,1,10,0:2:0:0:
155,170,65299,6,0,P|157:259|162:335,1,154.000004699707,0|0,3:2|3:2,0:2:0:0:
164,329,65702,1,0,3:2:0:0:
168,335,65783,1,10,0:2:0:0:
266,276,65944,1,0,0:2:0:0:
169,256,66105,2,0,L|87:272,1,77.0000023498536,0|0,3:2|3:2,0:2:0:0:
90,276,66347,1,0,3:2:0:0:
86,283,66428,2,0,L|8:276,1,77.0000023498536,10|0,0:2|0:2,0:2:0:0:
218,161,66750,6,0,P|254:171|313:170,1,77.0000023498536,2|0,3:2|3:2,0:2:0:0:
369,318,67073,2,0,P|332:308|273:319,1,77.0000023498536,10|0,0:2|3:2,0:2:0:0:
490,298,67395,2,0,L|486:219,1,77.0000023498536,10|0,0:2|3:2,0:2:0:0:
396,171,67637,1,0,3:2:0:0:
396,171,67718,5,10,0:2:0:0:
458,0,67879,2,0,P|408:10|336:2,1,115.50000352478,4|0,3:2|0:2,0:2:0:0:
458,29,68202,2,0,P|384:32|319:18,1,115.50000352478,10|0,3:2|0:2,0:2:0:0:
280,75,68524,2,0,P|219:68|125:93,1,154.000004699707,10|8,3:2|0:2,0:2:0:0:
118,117,68928,1,8,0:2:0:0:
103,135,69008,2,8,P|99:194|87:264,1,105,10|8,3:2|0:2,0:2:0:0:
191,232,69331,6,0,L|275:210,1,70,4|0,0:2|3:2,0:2:0:0:
342,287,69653,1,10,0:2:0:0:
447,263,69815,1,0,3:2:0:0:
405,173,69976,1,10,0:2:0:0:
479,62,70137,1,0,3:2:0:0:
417,0,70299,1,10,0:2:0:0:
452,129,70460,6,0,L|442:202,1,70,0|10,3:2|0:2,0:2:0:0:
300,49,70783,2,0,L|293:149,1,70,0|10,3:2|0:2,0:2:0:0:
117,127,71105,5,0,3:2:0:0:
30,69,71266,1,10,0:2:0:0:
117,18,71428,1,0,3:2:0:0:
208,67,71589,1,10,0:2:0:0:
88,93,71750,5,0,3:2:0:0:
162,183,71912,2,0,L|130:261,1,70,10|0,0:2|3:2,0:2:0:0:
342,174,72234,2,0,L|333:258,1,70,10|0,0:2|3:2,0:2:0:0:
472,57,72557,5,10,0:2:0:0:
301,17,72718,1,8,0:2:0:0:
205,126,72879,1,8,0:2:0:0:
70,60,73041,5,4,3:2:0:0:
60,65,73363,1,4,3:2:0:0:
46,134,73686,2,0,P|56:208|56:299,1,140,4|8,3:2|0:2,0:2:0:0:
52,297,74089,1,8,0:2:0:0:
46,323,74170,1,8,0:2:0:0:
124,337,74331,2,0,L|170:344,1,35,8|0,0:2|0:2,0:2:0:0:
189,358,74492,6,0,P|259:350|350:352,2,157.500006008148,4|8|2,3:2|0:2|3:2,0:2:0:0:
139,267,75621,2,0,L|142:221,1,35,0|0,0:2|0:2,0:2:0:0:
115,259,75783,6,0,P|123:188|120:101,1,157.500006008148,4|0,3:2|3:2,0:2:0:0:
116,96,76347,1,0,3:2:0:0:
113,89,76428,1,2,3:2:0:0:
270,33,76912,2,0,L|317:37,1,35,2|2,3:2|3:2,0:2:0:0:
363,71,77073,6,0,P|357:124|366:235,1,140,4|8,3:2|0:2,0:2:0:0:
438,289,77557,1,8,0:2:0:0:
464,168,77718,5,8,0:2:0:0:
434,99,77879,1,8,0:2:0:0:
314,139,78041,5,8,0:2:0:0:
303,227,78202,1,8,0:2:0:0:
197,322,78363,6,0,L|208:244,1,70,12|8,0:2|0:2,0:2:0:0:
187,166,78605,1,8,0:2:0:0:
187,166,78686,2,0,L|175:67,1,70,8|8,0:2|0:2,0:2:0:0:
121,33,78928,5,8,0:2:0:0:
94,24,79008,1,8,0:2:0:0:
65,24,79089,1,8,0:2:0:0:
38,32,79170,1,8,0:2:0:0:
18,51,79250,1,8,0:2:0:0:
7,77,79331,1,8,0:2:0:0:
4,104,79412,1,8,0:2:0:0:
11,130,79492,1,8,0:2:0:0:
25,154,79573,1,8,0:2:0:0:
44,165,79653,6,0,P|108:163|149:168,1,84,4|0,3:2|0:2,0:2:0:0:
0,280,79976,6,0,B|13:195|193:237|193:237,1,181.999991668702,12|0,0:2|3:2,0:2:0:0:
226,345,80460,1,0,0:0:0:0:
102,349,80621,1,10,0:2:0:0:
63,257,80783,1,0,0:2:0:0:
73,233,80863,1,0,0:2:0:0:
97,218,80944,6,0,P|174:222|218:217,1,105,0|0,3:2|0:2,0:2:0:0:
295,245,81266,1,10,0:2:0:0:
375,199,81428,2,0,L|456:210,1,70,0|0,0:2|3:2,0:2:0:0:
273,114,81750,2,0,L|185:124,1,70,0|10,0:2|0:2,0:2:0:0:
135,220,82073,1,0,0:2:0:0:
135,220,82234,6,0,P|129:166|105:101,1,105,0|0,3:2|0:2,0:2:0:0:
149,82,82557,2,0,P|58:111|26:100,1,105,10|0,0:2|0:2,0:2:0:0:
5,173,82879,1,2,3:2:0:0:
121,232,83041,5,8,0:2:0:0:
221,145,83202,1,8,0:2:0:0:
355,195,83363,6,0,L|471:186,1,105,4|0,3:2|0:2,0:2:0:0:
511,115,83686,1,2,3:2:0:0:
435,89,83847,1,8,0:2:0:0:
310,125,84008,1,4,3:2:0:0:
305,132,84331,5,0,3:2:0:0:
356,199,84492,1,10,0:2:0:0:
315,293,84653,1,0,0:2:0:0:
254,176,84815,6,0,L|177:198,1,70,4|0,3:2|0:2,0:2:0:0:
93,162,85137,1,10,0:2:0:0:
93,162,85299,1,0,0:2:0:0:
148,74,85460,1,2,3:2:0:0:
66,0,85621,2,0,L|-9:-19,1,70,0|10,3:2|0:2,0:2:0:0:
251,12,85944,6,0,P|308:26|359:31,1,105,4|0,3:2|0:2,0:2:0:0:
449,40,86266,1,8,0:2:0:0:
395,163,86428,1,10,0:2:0:0:
265,157,86589,1,8,0:2:0:0:
203,42,86750,1,10,0:2:0:0:
186,37,86831,1,8,0:2:0:0:
168,34,86912,1,8,0:2:0:0:
150,34,86992,1,8,0:2:0:0:
132,37,87073,1,10,0:2:0:0:
342,56,87234,6,0,P|385:60|513:96,1,157.500006008148,4|0,3:2|0:0,0:0:0:0:
