osu file format v14

[General]
AudioFilename: audio.mp3
AudioLeadIn: 0
PreviewTime: 47716
Countdown: 0
SampleSet: Soft
StackLeniency: 0.5
Mode: 0
LetterboxInBreaks: 0
WidescreenStoryboard: 1

[Editor]
DistanceSpacing: 1.4
BeatDivisor: 4
GridSize: 16
TimelineZoom: 0.8

[Metadata]
Title:Soundscape
TitleUnicode:サウンドスケープ
Artist:TRUE
ArtistUnicode:TRUE
Creator:Syph
Version:Normal
Source:響け!ユーフォニアム2
Tags:sound hibike euphonium season 2 anime opening tv size Depths Settia Slayed Hikaru_Rose Kalibe Asaiga wajinshu
BeatmapID:1109186
BeatmapSetID:518932

[Difficulty]
HPDrainRate:4
CircleSize:3.5
OverallDifficulty:4
ApproachRate:5.6
SliderMultiplier:1.1
SliderTickRate:1

[Events]
//Background and Video events
0,0,"yuri euphonium.jpg",0,0
//Break Periods
//Storyboard Layer 0 (Background)
//Storyboard Layer 1 (Fail)
//Storyboard Layer 2 (Pass)
//Storyboard Layer 3 (Foreground)
//Storyboard Sound Samples

[TimingPoints]
942,322.58064516129,4,2,1,70,1,0
5296,-100,4,2,1,60,0,0
6103,-100,4,2,1,65,0,0
6345,-100,4,2,1,5,0,0
6425,-100,4,2,1,65,0,0
7312,-100,4,2,1,5,0,0
7392,-100,4,2,1,65,0,0
7635,-100,4,2,1,5,0,0
7715,-100,4,2,1,65,0,0
8925,-100,4,2,1,5,0,0
9005,-100,4,2,1,65,0,0
12716,-100,4,2,1,60,0,0
13764,-100,4,2,1,5,0,0
13845,-100,4,2,1,60,0,0
14087,-100,4,2,1,5,0,0
14167,-100,4,2,1,60,0,0
15054,-100,4,2,1,5,0,0
15134,-100,4,2,1,60,0,0
21506,-100,4,2,1,5,0,0
21586,-100,4,2,1,60,0,0
23038,-100,4,2,1,70,0,0
23845,-100,4,2,1,65,0,0
24087,-100,4,2,1,5,0,0
24167,-100,4,2,1,60,0,0
26022,-100,4,2,1,5,0,0
26103,-100,4,2,1,60,0,0
26667,-100,4,2,1,5,0,0
26748,-100,4,2,1,60,0,0
29248,-100,4,2,1,5,0,0
29329,-100,4,2,1,60,0,0
29571,-100,4,2,1,5,0,0
29652,-100,4,2,1,60,0,0
30538,-100,4,2,1,5,0,0
30619,-100,4,2,1,60,0,0
31829,-100,4,2,1,5,0,0
31910,-100,4,2,1,65,0,0
33280,-100,4,2,1,5,0,0
33361,-100,4,2,1,60,0,0
34732,-100,4,2,1,5,0,0
34813,-100,4,2,1,60,0,0
37716,-100,4,2,1,65,0,0
39167,-100,4,2,1,60,0,0
39893,-100,4,2,1,5,0,0
39974,-100,4,2,1,60,0,0
41183,-100,4,2,1,5,0,0
41264,-100,4,2,1,60,0,0
43603,-100,4,2,1,5,0,0
43684,-100,4,2,1,70,0,0
48200,-100,4,2,0,60,0,0
48683,-100,4,2,1,60,0,0
49006,-100,4,2,1,75,0,1
49248,-100,4,2,1,5,0,1
49329,-100,4,2,1,75,0,1
55216,-100,4,2,1,5,0,1
55296,-100,4,2,1,75,0,1
57554,-100,4,2,1,75,0,0
59329,-100,4,2,1,75,0,1
74490,-100,4,2,1,60,0,0
77312,-100,4,2,1,5,0,0
77393,-100,4,2,1,65,0,0
79651,-100,4,2,1,65,0,1
81183,-100,4,2,1,5,0,1
81264,-100,4,2,1,65,0,1
87232,-100,4,2,1,65,0,0

[Colours]
Combo1 : 251,238,151
Combo2 : 253,210,179
Combo3 : 145,186,255
Combo4 : 188,159,131
SliderBorder : 135,158,220
SliderTrackOverride : 27,67,62

[HitObjects]
128,96,942,6,0,L|62:98,2,55,12|8|8,0:0|0:0|0:0,0:0:0:0:
2,186,1587,2,0,L|119:181,1,110,8|8,0:0|0:0,0:0:0:0:
152,247,2071,2,0,P|152:191|200:151,1,110,12|8,0:0|0:0,0:0:0:0:
335,107,2716,1,8,0:0:0:0:
335,107,2877,2,0,L|409:119,1,55,8|8,0:0|0:0,0:0:0:0:
464,132,3200,1,12,0:0:0:0:
379,260,3522,6,0,L|391:334,2,55,12|8|8,0:0|0:0|0:0,0:0:0:0:
244,335,4167,2,0,P|216:291|218:230,1,110,8|8,0:0|0:0,0:0:0:0:
281,193,4651,2,0,P|249:165|177:170,1,110,12|8,0:0|0:0,0:0:0:0:
72,271,5296,1,8,0:0:0:0:
72,271,5458,2,0,P|54:242|52:209,1,55,8|8,0:0|0:0,0:0:0:0:
26,149,5780,2,0,P|31:116|53:90,1,55,10|2,0:0|0:0,0:0:0:0:
86,34,6103,6,0,P|143:15|197:35,2,110,6|8|6,0:0|0:0|0:0,0:0:0:0:
137,179,7071,1,8,0:0:0:0:
267,97,7393,2,0,P|319:73|378:98,1,110,6|8,0:0|0:0,0:0:0:0:
323,151,7877,1,8,0:0:0:0:
194,236,8200,1,0,3:0:0:0:
66,151,8522,6,0,P|137:100|140:144,1,165,6|8,0:0|0:0,0:0:0:0:
181,276,9329,2,0,L|172:349,2,55,8|12|8,0:0|0:0|0:0,0:0:0:0:
243,231,9812,2,0,B|280:215|280:215|361:225,1,110,6|12,0:0|0:0,0:0:0:0:
491,161,10458,1,6,0:0:0:0:
371,65,10780,2,0,B|334:49|334:49|253:59,1,110,2|2,0:0|0:0,0:0:0:0:
190,32,11264,6,0,P|186:59|193:86,1,55,6|2,0:0|0:0,0:0:0:0:
253,134,11587,1,8,0:0:0:0:
185,272,11909,2,0,P|158:276|132:270,2,55,10|2|8,0:0|0:0|0:0,0:0:0:0:
262,267,12393,2,0,B|318:263|360:298|360:298|408:290|430:258|430:258|466:285|514:270,1,275,14|8,0:0|0:0,0:0:0:0:
487,118,13522,1,8,0:0:0:0:
366,214,13845,6,0,B|356:159|356:159|369:97,2,110,6|2|2,0:0|0:0|0:0,0:0:0:0:
240,125,14812,1,8,0:0:0:0:
144,248,15135,2,0,B|89:258|89:258|27:245,1,110,2|2,0:0|0:0,0:0:0:0:
165,331,15780,1,2,0:0:0:0:
226,189,16103,1,2,0:0:0:0:
316,313,16425,6,0,B|371:323|371:323|433:310,1,110,6|8,0:0|0:0,0:0:0:0:
505,178,17071,1,2,0:0:0:0:
463,30,17393,2,0,P|413:11|358:31,1,110,6|8,0:0|0:0,0:0:0:0:
228,104,18038,2,0,L|172:89,2,55,2|8|2,0:0|0:0|0:0,0:0:0:0:
349,199,18683,1,2,0:0:0:0:
280,337,19006,6,0,B|251:332|232:337|232:337|196:321|196:321|141:356|69:329,1,220,6|2,0:0|0:0,0:0:0:0:
111,180,19974,1,2,0:0:0:0:
243,258,20296,2,0,B|244:108|244:108|249:144|284:172,1,220,6|2,0:0|0:0,0:0:0:0:
422,222,21264,1,2,0:0:0:0:
325,102,21587,6,0,P|303:45|259:19,1,110,6|2,0:0|0:0,0:0:0:0:
149,123,22232,2,0,L|216:115,1,55,8|8,0:0|0:0,0:0:0:0:
220,191,22554,2,0,L|346:175,1,110,8|8,0:0|0:0,0:0:0:0:
385,230,23038,2,0,P|368:187|391:126,1,110,12|8,0:0|0:0,0:0:0:0:
445,181,23522,2,0,L|512:173,1,55,12|8,0:0|0:0,0:0:0:0:
485,98,23845,1,12,0:0:0:0:
352,18,24167,6,0,P|297:4|242:20,2,110,6|8|2,0:0|0:0|0:0,0:0:0:0:
408,161,25135,2,0,L|405:219,1,55,8|2,0:0|0:0,0:0:0:0:
328,228,25458,2,0,P|278:238|214:218,1,110,2|8,0:0|0:0,0:0:0:0:
94,136,26103,1,2,0:0:0:0:
82,289,26425,1,8,0:0:0:0:
221,222,26748,6,0,P|168:207|115:217,1,110,6|8,0:0|0:0,0:0:0:0:
38,350,27393,1,2,0:0:0:0:
4,199,27716,2,0,L|9:87,2,110,6|8|2,0:0|0:0|0:0,0:0:0:0:
108,311,28683,2,0,L|173:307,1,55,2|2,0:0|0:0,0:0:0:0:
224,354,29006,1,8,0:0:0:0:
368,300,29329,6,0,P|398:261|396:202,1,110,6|8,0:0|0:0,0:0:0:0:
356,53,29974,2,0,L|291:49,1,55,2|2,0:0|0:0,0:0:0:0:
240,96,30297,1,8,0:0:0:0:
104,168,30619,2,0,P|91:114|117:66,1,110,6|8,0:0|0:0,0:0:0:0:
264,27,31264,2,0,P|290:19|317:22,1,55,2|2,0:0|0:0,0:0:0:0:
363,84,31587,2,0,P|366:117|356:142,1,55,12|0,0:0|0:0,0:0:0:0:
294,178,31909,6,0,P|240:160|183:175,1,110,6|8,0:0|0:0,0:0:0:0:
143,318,32554,2,0,P|117:320|87:312,2,55,2|2|8,0:0|0:0|0:0,0:0:0:0:
212,283,33038,2,0,B|256:292|256:292|326:281,1,110,6|8,0:0|3:0,0:0:0:0:
397,273,33522,1,8,3:0:0:0:
397,273,33683,2,0,P|438:198|376:63,1,220,6|8,0:0|3:0,0:0:0:0:
331,35,34490,6,0,L|213:28,2,110,6|2|8,0:0|0:0|0:0,0:0:0:0:
213,134,35458,1,2,0:0:0:0:
213,134,35619,2,0,B|216:186|216:186|205:238|205:238|211:297,1,165,6|2,0:0|0:0,0:0:0:0:
99,192,36425,1,8,0:0:0:0:
179,60,36748,2,0,P|151:53|124:58,1,55,2|0,0:0|0:0,0:0:0:0:
65,9,37071,6,0,P|48:60|69:110,1,110,6|8,0:0|0:0,0:0:0:0:
175,221,37716,2,0,B|216:235|216:235|291:229,1,110,8|8,0:0|0:0,0:0:0:0:
295,153,38200,2,0,B|335:139|335:139|410:145,1,110,6|8,0:0|0:0,0:0:0:0:
467,185,38683,1,8,0:0:0:0:
399,222,38845,2,0,B|386:273|386:273|403:325|403:325|394:387,1,165,6|8,0:0|3:0,0:0:0:0:
244,344,39651,6,0,L|273:237,1,110,6|8,0:0|0:0,0:0:0:0:
172,120,40296,2,0,L|143:227,1,110,2|8,0:0|0:0,0:0:0:0:
150,380,40941,2,0,L|43:351,1,110,6|8,0:0|0:0,0:0:0:0:
37,197,41586,2,0,L|144:226,1,110,2|8,0:0|0:0,0:0:0:0:
294,258,42232,6,0,L|323:365,1,110,6|8,0:0|0:0,0:0:0:0:
459,293,42877,1,8,0:0:0:0:
459,293,43038,2,0,L|445:239,1,55,8|8,0:0|0:0,0:0:0:0:
397,180,43361,6,0,B|455:189|455:189|512:180,1,110,6|2,0:0|0:0,0:0:0:0:
505,103,43845,1,8,0:0:0:0:
428,110,44006,2,0,L|315:91,1,110,2|12,0:0|0:0,0:0:0:0:
246,65,44490,1,8,0:0:0:0:
171,82,44651,2,0,B|158:195,1,110,2|2,0:0|0:0,0:0:0:0:
83,210,45135,2,0,L|77:264,1,55,12|10,0:0|0:0,0:0:0:0:
124,326,45458,2,0,L|178:331,2,55,8|2|8,0:0|0:0|0:0,0:0:0:0:
47,336,45941,1,14,0:0:0:0:
209,262,46318,6,0,P|218:216|198:173,1,73.3333333333333,12|8,0:0|0:0,0:0:0:0:
116,150,46748,2,0,P|107:196|127:239,2,73.3333333333333,8|8|8,0:0|0:0|0:0,0:0:0:0:
136,49,47393,5,12,0:0:0:0:
290,71,47716,2,0,P|238:87|208:131,2,110,2|2|2,0:0|0:0|0:0,0:0:0:0:
222,209,48683,2,0,P|186:208|159:192,1,55,8|8,0:0|0:0,0:0:0:0:
121,261,49006,6,0,P|146:198|82:129,1,165,14|2,0:0|0:0,0:0:0:0:
37,72,49651,1,8,0:0:0:0:
94,20,49812,6,0,P|145:2|203:19,1,110,6|2,0:0|0:0,0:0:0:0:
309,122,50458,2,0,P|360:140|418:123,1,110,6|2,0:0|0:0,0:0:0:0:
505,4,51103,1,2,0:0:0:0:
505,4,51264,2,0,P|523:55|506:113,1,110,6|2,0:0|0:0,0:0:0:0:
407,222,51909,1,2,0:0:0:0:
275,140,52232,1,8,0:0:0:0:
275,140,52393,6,0,L|166:137,1,110,6|6,0:0|0:0,0:0:0:0:
55,245,53038,2,0,L|168:242,1,110,6|6,0:0|0:0,0:0:0:0:
297,162,53683,1,8,0:0:0:0:
297,162,53845,2,0,P|312:106|285:64,1,110,6|8,0:0|0:0,0:0:0:0:
145,0,54490,1,2,0:0:0:0:
112,150,54812,1,8,0:0:0:0:
112,150,54974,6,0,B|118:275,1,110,4|2,0:0|0:0,0:0:0:0:
86,330,55458,2,0,P|125:338|145:332,1,55,8|0,0:0|0:0,0:0:0:0:
196,283,55780,2,0,P|235:275|255:281,1,55,2|0,0:0|0:0,0:0:0:0:
293,341,56103,1,8,0:0:0:0:
411,243,56425,6,0,L|407:119,1,110,14|8,0:0|0:0,0:0:0:0:
321,5,57071,2,0,P|263:-8|213:9,1,110,8|8,0:0|0:0,0:0:0:0:
162,61,57554,1,6,0:0:0:0:
190,212,57877,2,0,P|248:225|298:208,1,110,2|2,0:0|0:0,0:0:0:0:
371,199,58361,6,0,B|373:168|373:168|368:144,1,55,6|0,0:0|0:0,0:0:0:0:
315,89,58683,2,0,B|284:87|284:87|260:92,1,55,6|0,0:0|0:0,0:0:0:0:
185,104,59006,1,2,0:0:0:0:
260,238,59329,6,0,P|292:286|241:375,1,165,14|2,0:0|0:0,0:0:0:0:
215,302,59974,1,8,0:0:0:0:
139,312,60135,2,0,L|26:303,1,110,6|2,0:0|0:0,0:0:0:0:
172,241,60780,2,0,L|285:250,1,110,6|2,0:0|0:0,0:0:0:0:
152,165,61425,1,2,0:0:0:0:
152,165,61587,6,0,B|167:110|167:110|161:52,1,110,6|8,0:0|0:0,0:0:0:0:
25,130,62232,2,0,B|10:185|10:185|16:243,1,110,8|8,0:0|0:0,0:0:0:0:
79,280,62716,2,0,B|117:289|145:273|145:273|169:284|202:280,1,110,14|8,0:0|0:0,0:0:0:0:
308,187,63361,2,0,P|254:170|202:185,1,110,14|2,0:0|0:0,0:0:0:0:
336,263,64006,1,0,0:0:0:0:
336,263,64167,6,0,P|385:216|385:165,1,110,6|8,0:0|0:0,0:0:0:0:
281,65,64812,1,2,0:0:0:0:
176,178,65135,1,8,0:0:0:0:
176,178,65296,2,0,B|45:173,1,110,6|2,0:0|0:0,0:0:0:0:
20,236,65780,2,0,P|-3:286|21:348,2,110,8|2|8,0:0|0:0|0:0,0:0:0:0:
152,156,66748,6,0,L|151:44,2,110,14|8|2,0:0|0:0|0:0,0:0:0:0:
311,166,67716,1,8,0:0:0:0:
311,166,67877,2,0,L|301:282,1,110,6|8,0:0|0:0,0:0:0:0:
226,292,68361,1,8,0:0:0:0:
226,292,68522,2,0,L|236:176,1,110,6|8,0:0|0:0,0:0:0:0:
244,105,69006,1,2,0:0:0:0:
148,225,69329,6,0,B|108:237|108:237|33:226,1,110,14|8,0:0|0:0,0:0:0:0:
87,80,69974,2,0,L|94:25,2,55,8|2|8,0:0|0:0|0:0,0:0:0:0:
128,144,70458,2,0,P|180:131|226:159,1,110,6|2,0:0|0:0,0:0:0:0:
171,212,70941,1,8,0:0:0:0:
171,212,71103,2,0,P|211:189|271:200,1,110,6|2,0:0|0:0,0:0:0:0:
229,264,71587,1,12,0:0:0:0:
348,166,71909,6,0,L|424:156,2,55,12|2|8,0:0|0:0|0:0,0:0:0:0:
280,128,72392,1,2,0:0:0:0:
214,87,72554,2,0,L|138:77,2,55,12|2|8,0:0|0:0|0:0,0:0:0:0:
201,163,73038,2,0,L|192:288,1,110,14|12,0:0|0:0,0:0:0:0:
86,383,73683,1,12,0:0:0:0:
0,255,74006,2,0,L|9:130,1,110,8|8,0:0|0:0,0:0:0:0:
45,77,74490,6,0,L|210:53,2,165,6|2|2,0:0|0:0|0:0,0:0:0:0:
102,219,75780,2,0,L|267:243,2,165,6|2|2,0:0|0:0|0:0,0:0:0:0:
243,158,77071,6,0,P|276:163|301:159,1,55,6|0,0:0|0:0,0:0:0:0:
357,111,77393,2,0,P|362:78|358:53,1,55,8|0,0:0|0:0,0:0:0:0:
306,1,77716,2,0,P|273:-4|248:0,1,55,12|0,0:0|0:0,0:0:0:0:
192,48,78038,2,0,P|187:81|191:106,1,55,8|0,0:0|0:0,0:0:0:0:
219,174,78361,2,0,P|188:136|160:273,1,330,6|2,0:0|0:0,0:0:0:0:
308,278,79651,5,6,0:0:0:0:
385,144,79974,2,0,B|413:182|413:182|401:305,1,165,14|0,0:0|0:0,0:0:0:0:
392,376,80619,1,8,0:0:0:0:
273,281,80941,2,0,P|226:263|170:284,1,110,6|8,0:0|0:0,0:0:0:0:
223,341,81425,1,6,0:0:0:0:
262,192,81748,1,6,0:0:0:0:
112,231,82071,6,0,P|79:131|150:141,1,220,14|2,0:0|0:0,0:0:0:0:
227,273,83039,2,0,L|281:271,1,55,14|8,0:0|0:0,0:0:0:0:
348,231,83361,2,0,P|362:188|332:126,2,110,14|2|6,0:0|0:0|0:0,0:0:0:0:
246,346,84329,2,0,P|203:360|141:330,1,110,6|2,0:0|0:0,0:0:0:0:
152,259,84812,6,0,P|195:245|257:275,1,110,6|8,0:0|0:0,0:0:0:0:
320,305,85296,1,2,0:0:0:0:
330,229,85458,2,0,P|330:201|341:176,1,55,8|6,0:0|0:0,0:0:0:0:
404,133,85780,1,8,0:0:0:0:
404,133,85941,6,0,B|397:196|397:196|405:233|405:233|400:302,1,165,14|8,0:0|0:0,0:0:0:0:
260,363,86748,2,0,B|246:323|246:323|251:247,1,110,8|8,0:0|0:0,0:0:0:0:
261,179,87232,1,12,0:0:0:0:
