osu file format v14

[General]
AudioFilename: audio.mp3
AudioLeadIn: 0
PreviewTime: 124156
Countdown: 0
SampleSet: Soft
StackLeniency: 0.7
Mode: 0
LetterboxInBreaks: 0
WidescreenStoryboard: 1

[Editor]
Bookmarks: 24560,49398,80366,100689,125527,156173,187140,214076,231334,256818
DistanceSpacing: 1.2
BeatDivisor: 4
GridSize: 4
TimelineZoom: 2.499999

[Metadata]
Title:Soundscape
TitleUnicode:サウンドスケープ
Artist:TRUE
ArtistUnicode:TRUE
Creator:SkyFlame
Version:Skybleru's Hard
Source:響け!ユーフォニアム2
Tags:sound hibike euphonium season 2 opening full size anime -laura- akitoshi corinn kalibe kibbleru kowari meg iMage-- japanese OP ver. version female vocal pop jpop
BeatmapID:1748365
BeatmapSetID:534054

[Difficulty]
HPDrainRate:5
CircleSize:4
OverallDifficulty:6
ApproachRate:8
SliderMultiplier:1.4
SliderTickRate:1

[Events]
//Background and Video events
0,0,"bg hard.jpg",0,0
//Break Periods
2,264760,266390
//Storyboard Layer 0 (Background)
//Storyboard Layer 1 (Fail)
//Storyboard Layer 2 (Pass)
//Storyboard Layer 3 (Foreground)
//Storyboard Layer 4 (Overlay)
//Storyboard Sound Samples

[TimingPoints]
44,322.58064516129,4,2,1,60,1,0
6495,-100,4,2,1,70,0,0
13592,-100,4,2,1,60,0,0
14237,-133.333333333333,4,2,1,50,0,0
22302,-100,4,2,1,60,0,0
34882,-133.333333333333,4,2,1,60,0,0
38108,-100,4,2,1,60,0,0
38592,-100,4,2,1,50,0,0
44075,-100,4,2,1,70,0,0
46011,-100,4,2,1,50,0,0
46173,-100,4,2,1,45,0,0
46253,-100,4,2,1,50,0,0
46334,-100,4,2,1,70,0,0
46710,-100,4,2,1,50,0,0
46925,-100,4,2,1,55,0,0
47140,-100,4,2,1,60,0,0
47355,-100,4,2,1,65,0,0
47570,-100,4,2,1,70,0,0
47785,-100,4,2,1,80,0,0
48592,-100,4,2,1,60,0,0
49076,-100,4,2,1,70,0,0
49398,-100,4,2,1,90,0,1
49720,-100,4,2,1,80,0,1
59398,-100,4,2,1,80,0,0
59721,-100,4,2,1,90,0,1
60043,-100,4,2,1,80,0,1
69640,-100,4,2,1,80,0,0
69721,-100,4,2,1,80,0,1
74882,-133.333333333333,4,2,1,60,0,0
77463,-100,4,2,1,80,0,1
80043,-100,4,2,1,60,0,0
80366,-100,4,2,1,90,0,1
80527,-100,4,2,1,60,0,0
90366,-133.333333333333,4,2,1,50,0,0
98431,-100,4,2,1,65,0,0
100366,-100,4,2,1,60,0,0
100607,-100,4,2,1,5,0,0
100689,-100,4,2,1,60,0,0
111011,-133.333333333333,4,2,1,55,0,0
114237,-100,4,2,1,55,0,0
114721,-100,4,2,1,60,0,0
120204,-100,4,2,1,70,0,0
122140,-100,4,2,1,50,0,0
122302,-100,4,2,1,45,0,0
122382,-100,4,2,1,50,0,0
122463,-100,4,2,1,70,0,0
122785,-100,4,2,1,50,0,0
123053,-100,4,2,1,55,0,0
123269,-100,4,2,1,60,0,0
123484,-100,4,2,1,65,0,0
123699,-100,4,2,1,70,0,0
123914,-100,4,2,1,80,0,0
124721,-100,4,2,1,60,0,0
125205,-100,4,2,1,70,0,0
125527,-100,4,2,1,90,0,1
125849,-100,4,2,1,80,0,1
135527,-100,4,2,1,80,0,0
135850,-100,4,2,1,90,0,1
136172,-100,4,2,1,80,0,1
145769,-100,4,2,1,80,0,0
145850,-100,4,2,1,80,0,1
151011,-100,4,2,1,60,0,0
153592,-100,4,2,1,80,0,1
156173,-133.333333333333,4,2,1,60,0,0
160043,-100,4,2,1,60,0,0
161334,-100,4,2,1,65,0,0
163914,-100,4,2,1,70,0,0
166576,-100,4,2,1,5,0,0
166656,-100,4,2,1,70,0,0
176818,-100,4,2,1,74,0,0
181979,-100,4,2,1,68,0,0
184560,-100,4,2,1,62,0,0
185689,-100,4,2,1,70,0,0
187140,-100,4,2,1,72,0,0
194882,-100,4,2,1,76,0,0
196495,-100,4,2,1,75,0,0
197463,-100,4,2,1,70,0,0
200043,-100,4,2,1,72,0,0
202624,-100,4,2,1,60,0,0
202947,-100,4,2,1,90,0,0
203269,-100,4,2,1,60,0,0
203592,-100,4,2,1,90,0,0
203914,-100,4,2,1,60,0,0
204237,-100,4,2,1,90,0,0
204560,-100,4,2,1,60,0,0
204882,-100,4,2,1,90,0,0
205205,-100,4,2,1,80,0,0
207785,-100,4,2,1,85,0,0
210366,-100,4,2,1,45,0,0
213592,-100,4,2,1,70,0,0
214076,-100,4,2,1,80,0,1
215447,-100,4,2,1,80,0,0
215527,-100,4,2,1,80,0,1
220689,-100,4,2,1,80,0,0
221011,-100,4,2,1,90,0,1
221333,-100,4,2,1,80,0,1
231011,-100,4,2,1,80,0,0
231334,-100,4,2,1,90,0,1
231656,-100,4,2,1,85,0,1
241334,-100,4,2,1,85,0,0
241656,-100,4,2,1,92,0,1
246495,-100,4,2,1,80,0,1
251576,-100,4,2,1,80,0,0
251656,-100,4,2,1,85,0,1
256818,-133.333333333333,4,2,1,60,0,0
259398,-133.333333333333,4,2,1,80,0,1
260043,-100,4,2,1,80,0,1
261979,-100,4,2,1,90,0,1
264560,-100,4,2,1,45,0,0
267140,-100,4,2,1,75,0,1
268431,-100,4,2,1,80,0,1
269721,-100,4,2,1,70,0,0
276011,-100,4,2,1,65,0,0
277463,-100,4,2,1,70,0,0
279882,-100,4,2,1,72,0,0
283914,-100,4,2,1,5,0,0

[Colours]
Combo1 : 138,104,155
Combo2 : 92,132,204
Combo3 : 231,200,109
Combo4 : 189,141,163

[HitObjects]
259,218,1011,6,0,L|190:210,1,70.1259999999999,12|0,2:0|2:0,2:0:0:0:
121,260,1334,5,14,2:0:0:0:
37,260,1495,1,10,2:0:0:0:
0,184,1656,1,10,2:0:0:0:
88,40,1979,1,10,2:0:0:0:
226,136,2302,1,10,2:0:0:0:
226,136,2463,6,0,L|383:122,2,140.035,10|10|10,2:0|2:0|2:0,2:0:0:0:
149,170,3269,1,10,2:0:0:0:
66,154,3431,1,10,2:0:0:0:
42,73,3592,1,10,2:0:0:0:
206,39,3914,5,10,2:0:0:0:
279,81,4076,1,10,2:0:0:0:
294,163,4237,1,10,2:0:0:0:
139,228,4560,1,10,2:0:0:0:
227,370,4882,1,10,2:0:0:0:
227,370,5043,6,0,L|384:356,2,140.035,10|10|10,2:0|2:0|2:0,2:0:0:0:
180,308,5850,2,0,L|191:268,3,35.1353333333333,10|8|8|8,2:0|2:0|2:0|2:0,2:0:0:0:
178,236,6173,2,0,L|167:196,3,35.1353333333333,10|8|8|8,2:0|2:0|2:0|2:0,2:0:0:0:
172,162,6495,6,0,P|238:147|310:175,1,140.252,6|8,3:2|2:0,2:0:0:0:
386,318,7140,2,0,L|394:235,1,70.1259999999999,2|0,3:2|2:0,2:0:0:0:
454,192,7463,2,0,L|446:109,1,70.1259999999999,10|0,2:0|2:0,2:0:0:0:
389,62,7785,6,0,P|333:31|254:70,1,140.252,2|10,3:2|2:0,2:0:0:0:
228,132,8269,2,0,L|221:201,1,70.1259999999999,2|0,2:0|3:2,2:0:0:0:
259,275,8592,2,0,P|303:275|332:264,1,70.1259999999999,2|8,2:0|2:0,2:0:0:0:
383,204,8914,6,0,P|413:270|323:353,1,210.378,2|8,2:0|2:0,2:0:0:0:
154,318,9721,1,8,3:2:0:0:
154,318,9882,2,0,L|164:242,1,70.1259999999999,10|10,3:2|2:0,2:0:0:0:
170,168,10205,5,6,3:2:0:0:
248,316,10527,1,2,3:2:0:0:
345,178,10850,1,6,3:2:0:0:
429,323,11173,1,2,3:2:0:0:
493,269,11334,2,0,P|492:235|483:201,1,70.1259999999999,8|0,2:0|2:0,2:0:0:0:
433,132,11656,6,0,L|427:46,1,70.1259999999999,6|0,3:2|3:2,2:0:0:0:
348,90,11979,1,10,2:0:0:0:
348,6,12140,1,2,3:2:0:0:
276,50,12302,2,0,L|199:56,1,70.1259999999999,10|10,2:0|3:2,2:0:0:0:
122,62,12624,1,10,3:2:0:0:
169,131,12785,6,0,P|187:184|130:264,1,140.252,6|8,3:2|2:0,2:0:0:0:
79,301,13269,1,8,2:0:0:0:
65,219,13431,1,8,2:0:0:0:
149,254,13592,2,0,L|160:288,3,35.1353333333333,8|0|0|0,2:0|3:2|3:2|3:2,2:0:0:0:
191,315,13914,2,0,P|228:320|261:311,1,70.1259999999999,10|0,2:0|3:2,2:0:0:0:
329,269,14237,6,0,P|345:219|335:169,1,105.189004005432,6|0,2:0|3:2,2:0:0:0:
229,83,14882,1,0,3:2:0:0:
134,182,15205,1,2,3:2:0:0:
222,277,15527,2,0,P|244:226|230:168,1,105.189004005432,2|2,3:2|3:2,2:0:0:0:
133,285,16173,2,0,P|121:335|139:384,1,105.189004005432,2|2,3:2|3:2,2:0:0:0:
281,348,16818,6,0,L|385:355,2,105.026254005432,2|2|2,3:2|3:2|3:2,2:0:0:0:
203,223,17785,2,0,P|188:173|208:125,1,105.189004005432,6|0,3:2|3:2,2:0:0:0:
315,23,18431,6,0,L|367:27,1,52.5945020027161,0|8,3:2|2:0,2:0:0:0:
445,33,18753,1,2,3:2:0:0:
352,147,19076,1,2,3:2:0:0:
463,241,19398,6,0,P|464:188|452:137,1,105.189004005432,6|0,3:2|3:2,2:0:0:0:
337,230,20043,1,2,3:2:0:0:
284,92,20366,1,2,3:2:0:0:
147,141,20689,6,0,P|192:168|242:183,1,105.189004005432,2|0,3:2|3:2,2:0:0:0:
357,114,21334,1,2,3:2:0:0:
370,239,21656,1,2,3:2:0:0:
481,160,21979,6,0,P|496:197|497:228,1,52.5945020027161,14|0,2:0|2:0,2:0:0:0:
495,293,22302,2,0,L|459:285,3,35.1353333333333,10|8|10|8,3:2|2:0|2:0|2:0,2:0:0:0:
429,314,22624,2,0,L|393:321,3,35.1353333333333,8|8|8|8,3:2|2:0|2:0|2:0,2:0:0:0:
352,311,22947,2,0,P|320:304|285:312,1,70.1259999999999,10|10,2:0|2:0,2:0:0:0:
215,360,23269,1,0,3:2:0:0:
203,276,23431,6,0,L|209:196,1,70.1259999999999,10|0,3:2|3:2,2:0:0:0:
271,150,23753,1,10,3:2:0:0:
190,125,23914,2,0,L|110:119,1,70.1259999999999,6|2,2:0|3:2,2:0:0:0:
60,59,24237,2,0,P|37:99|38:144,1,70.1259999999999,14|0,2:0|2:0,2:0:0:0:
111,203,24560,6,0,P|49:215|-3:282,2,140.035,6|8|0,3:2|2:0|3:2,2:0:0:0:
157,272,25366,1,0,3:2:0:0:
234,240,25527,2,0,P|267:251|306:261,1,70.1259999999999,10|0,2:0|2:0,2:0:0:0:
370,307,25850,6,0,L|389:223,1,70.1259999999999,2|0,3:2|2:0,2:0:0:0:
288,175,26173,2,0,L|272:33,1,140.252,10|2,2:0|3:2,2:0:0:0:
189,21,26656,1,0,3:2:0:0:
172,103,26818,2,0,P|138:115|88:126,1,70.1259999999999,10|0,2:0|2:0,2:0:0:0:
24,101,27140,6,0,L|15:190,1,70.1259999999999,2|0,3:2|2:0,2:0:0:0:
43,250,27463,2,0,B|116:247|89:286|186:286,1,140.252,10|2,2:0|3:2,2:0:0:0:
242,234,27947,1,0,3:2:0:0:
314,275,28108,6,0,P|354:225|449:228,1,140.252,14|0,2:0|3:2,2:0:0:0:
425,216,28592,1,0,3:2:0:0:
446,135,28753,2,0,L|462:44,1,70.1259999999999,8|2,2:0|2:0,2:0:0:0:
373,69,29076,2,0,P|338:62|296:51,1,70.1259999999999,2|0,3:2|3:2,2:0:0:0:
285,135,29398,2,0,P|247:143|195:157,1,70.1259999999999,10|0,2:0|2:0,2:0:0:0:
149,100,29721,6,0,P|99:112|36:46,1,140.252,6|8,3:2|2:0,2:0:0:0:
51,140,30205,1,2,2:0:0:0:
91,213,30366,2,0,P|79:243|69:286,1,70.1259999999999,2|0,3:2|2:0,2:0:0:0:
145,318,30689,2,0,P|156:287|167:245,1,70.1259999999999,10|0,2:0|2:0,2:0:0:0:
219,186,31011,6,0,B|291:178|276:223|353:214,1,140.252,2|8,3:2|2:0,2:0:0:0:
419,163,31495,1,2,2:0:0:0:
475,224,31656,2,0,L|481:306,1,70.1259999999999,2|0,3:2|3:2,2:0:0:0:
352,214,31979,1,10,2:0:0:0:
497,75,32302,6,0,P|454:129|387:141,1,140.252,6|10,3:2|2:0,2:0:0:0:
313,101,32785,2,0,L|228:60,1,70.1259999999999,2|0,2:0|3:2,2:0:0:0:
179,117,33108,1,0,3:2:0:0:
179,117,33269,1,10,2:0:0:0:
95,147,33431,6,0,B|212:125|162:217|288:195,1,210.378,6|8,3:2|2:3,2:0:0:0:
365,161,34076,2,0,L|381:242,1,70.1259999999999,4|8,3:2|2:0,2:0:0:0:
373,313,34398,1,0,3:2:0:0:
287,347,34560,2,0,L|298:257,1,70.1259999999999,8|8,2:3|2:3,2:0:0:0:
257,199,34882,6,0,P|216:231|146:221,1,105.189004005432,4|2,3:2|3:2,2:0:0:0:
99,276,35366,1,0,2:0:0:0:
42,220,35527,2,0,P|44:151|60:99,1,105.189004005432,10|2,2:0|3:2,2:0:0:0:
43,37,36011,6,0,L|98:28,1,52.5945020027161,2|0,3:2|2:0,2:0:0:0:
182,108,36334,2,0,L|131:98,2,52.5945020027161,8|2|0,2:0|3:2|3:2,2:0:0:0:
251,70,36818,1,10,2:0:0:0:
366,150,37140,1,2,3:2:0:0:
435,111,37302,1,2,2:0:0:0:
444,32,37463,6,0,L|479:147,1,105.189004005432,4|2,3:2|3:2,2:0:0:0:
319,351,38108,2,0,L|332:262,1,70.1259999999999,10|8,3:2|2:0,2:0:0:0:
339,205,38431,1,10,2:0:0:0:
241,288,38592,6,0,B|166:278|186:330|109:315,1,140.252,14|10,2:0|3:2,2:0:0:0:
51,267,39076,1,10,3:2:0:0:
115,225,39237,2,0,B|153:191|153:191|123:86,1,140.252,14|0,3:2|3:2,2:0:0:0:
68,56,39721,2,0,L|137:75,1,70.1259999999999,8|0,2:3|3:2,2:0:0:0:
223,117,40043,6,0,P|312:117|362:61,1,140.252,4|10,3:2|2:0,2:0:0:0:
432,83,40527,1,0,3:2:0:0:
469,158,40689,2,0,P|467:191|455:247,1,70.1259999999999,2|0,3:2|3:2,2:0:0:0:
409,293,41011,2,0,L|496:324,1,70.1259999999999,10|0,2:0|2:0,2:0:0:0:
374,214,41334,6,0,B|321:221|321:221|293:248|293:248|243:257,1,140.252,6|10,3:2|2:0,2:0:0:0:
168,257,41818,1,2,2:0:0:0:
98,223,41979,2,0,P|86:178|87:141,1,70.1259999999999,2|0,3:2|3:2,2:0:0:0:
185,29,42302,2,0,P|197:74|192:110,1,70.1259999999999,10|0,2:0|2:0,2:0:0:0:
122,77,42624,6,0,L|266:93,1,140.252,6|8,3:2|2:0,2:0:0:0:
332,62,43108,1,0,2:0:0:0:
385,117,43269,2,0,L|393:171,2,35.063,10|8|8,2:0|2:0|2:0,2:0:0:0:
332,62,43592,1,8,2:0:0:0:
257,113,43753,6,0,L|242:261,1,140.252,6|2,3:2|3:2,2:0:0:0:
207,321,44237,2,0,L|128:331,1,70.1259999999999,10|2,2:0|3:2,2:0:0:0:
136,252,44560,2,0,L|57:262,1,70.1259999999999,10|2,2:0|3:2,2:0:0:0:
18,200,44882,6,0,L|35:114,1,70.1259999999999,10|2,2:0|3:2,2:0:0:0:
30,54,45205,2,0,L|116:71,1,70.1259999999999,8|2,2:0|3:2,2:0:0:0:
137,134,45527,1,10,2:0:0:0:
202,92,45689,2,0,L|241:84,2,35.063,10|8|6,2:0|2:0|2:3,2:0:0:0:
209,168,46011,1,6,2:3:0:0:
156,225,46173,2,0,P|149:259|149:294,1,70.1259999999999,6|14,2:3|2:0,2:0:0:0:
370,356,46710,6,0,P|372:298|362:255,1,93.3566666666666,10|10,2:0|2:0,2:0:0:0:
156,225,47140,2,0,P|204:255|247:268,1,93.3566666666666,10|10,2:0|2:0,2:0:0:0:
375,110,47570,2,0,P|324:136|291:167,1,93.3566666666666,10|14,2:0|2:0,2:0:0:0:
236,282,48592,6,0,L|242:326,2,35.063,0|0|10,3:2|3:2|2:0,2:0:0:0:
151,141,49076,2,0,L|101:129,3,35.1353333333333,10|8|8|8,2:0|2:0|2:0|2:0,2:0:0:0:
75,124,49398,6,0,P|49:177|74:269,1,140.252,12|0,3:2|3:2,2:0:0:0:
146,270,49882,1,0,3:2:0:0:
92,334,50043,1,10,2:0:0:0:
173,352,50205,6,0,P|236:324|310:329,1,140.252,2|2,3:2|3:2,2:0:0:0:
389,339,50689,1,8,3:2:0:0:
389,339,50850,2,0,L|469:331,1,70.1259999999999,2|0,3:2|2:0,2:0:0:0:
505,263,51173,2,0,P|514:221|511:188,1,70.1259999999999,2|8,3:2|2:0,2:0:0:0:
460,127,51495,1,2,2:0:0:0:
460,127,51656,6,0,P|365:136|307:140,1,140.252,0|8,3:2|2:0,2:0:0:0:
236,150,52140,1,0,2:0:0:0:
289,214,52302,2,0,P|300:259|296:315,1,70.1259999999999,2|0,3:2|3:2,2:0:0:0:
276,363,52624,1,10,2:0:0:0:
222,298,52785,6,0,P|181:294|142:298,1,70.1259999999999,6|0,3:2|2:0,2:0:0:0:
76,333,53108,2,0,P|78:298|74:263,1,70.1259999999999,2|8,3:2|2:0,2:0:0:0:
32,190,53431,2,0,L|101:191,1,70.1259999999999,6|0,3:2|2:0,2:0:0:0:
180,220,53753,2,0,L|269:218,1,70.1259999999999,2|8,3:2|2:0,2:0:0:0:
282,144,54076,1,10,2:0:0:0:
282,144,54156,1,8,2:0:0:0:
282,144,54237,6,0,P|334:199|322:272,1,140.252,4|8,3:2|2:0,2:0:0:0:
263,311,54721,1,0,2:0:0:0:
340,343,54882,2,0,P|383:331|419:305,1,70.1259999999999,2|0,3:2|3:2,2:0:0:0:
485,338,55205,1,10,2:0:0:0:
464,256,55366,6,0,P|447:191|467:123,1,140.252,2|0,3:2|3:2,2:0:0:0:
433,45,55850,2,0,L|362:39,1,70.1259999999999,10|0,2:0|3:2,2:0:0:0:
282,65,56173,2,0,P|269:103|271:154,1,70.1259999999999,2|0,2:0|3:2,2:0:0:0:
291,212,56495,2,0,L|359:199,1,70.1259999999999,10|0,2:0|2:0,2:0:0:0:
428,263,56818,6,0,P|429:308|402:355,2,70.1259999999999,2|0|10,3:2|3:2|2:0,2:0:0:0:
443,176,57302,1,0,3:2:0:0:
359,199,57463,2,0,P|358:154|385:107,2,70.1259999999999,10|0|10,2:0|3:2|2:0,2:0:0:0:
347,287,57947,6,0,P|283:281|208:292,1,140.252,6|8,3:2|2:0,2:0:0:0:
131,247,58431,2,0,P|116:209|117:176,1,70.1259999999999,2|0,3:2|3:2,2:0:0:0:
157,106,58753,2,0,L|225:92,1,70.1259999999999,10|0,2:0|3:2,2:0:0:0:
306,116,59076,2,0,P|319:147|315:191,1,70.1259999999999,10|0,2:0|3:2,2:0:0:0:
289,267,59398,2,0,L|301:306,3,35.1353333333333,2|0|0|0,3:2|3:2|3:2|3:2,2:0:0:0:
313,344,59721,6,0,P|230:362|170:315,1,140.252,12|0,2:0|3:2,2:0:0:0:
140,257,60205,1,0,3:2:0:0:
94,335,60366,1,10,2:0:0:0:
49,256,60527,2,0,P|39:191|99:143,1,140.252,2|2,3:2|3:2,2:0:0:0:
171,122,61011,1,8,2:0:0:0:
224,186,61173,2,0,L|315:179,1,70.1259999999999,2|0,3:2|2:0,2:0:0:0:
373,208,61495,2,0,L|380:117,1,70.1259999999999,2|8,3:2|2:0,2:0:0:0:
337,64,61818,6,0,L|192:45,1,140.252,6|0,2:0|3:2,2:0:0:0:
121,11,62302,1,12,2:0:0:0:
121,11,62463,1,0,2:0:0:0:
119,92,62624,2,0,P|123:146|119:185,1,70.1259999999999,0|0,3:2|3:2,2:0:0:0:
96,241,62947,1,10,2:0:0:0:
96,241,63108,6,0,P|140:231|185:230,1,70.1259999999999,6|0,3:2|2:0,2:0:0:0:
200,305,63431,2,0,P|244:315|289:316,1,70.1259999999999,2|8,3:2|2:0,2:0:0:0:
304,241,63753,2,0,P|348:231|393:230,1,70.1259999999999,6|0,3:2|2:0,2:0:0:0:
408,305,64076,2,0,P|452:315|497:316,1,70.1259999999999,2|8,3:2|2:0,2:0:0:0:
512,240,64398,6,0,P|496:167|433:117,1,140.252,0|0,3:2|2:0,2:0:0:0:
370,94,64882,1,8,2:0:0:0:
370,94,65043,1,0,3:2:0:0:
379,177,65205,2,0,B|382:217|372:269,1,70.1259999999999,2|0,3:2|3:2,2:0:0:0:
309,298,65527,1,10,2:0:0:0:
309,298,65689,6,0,B|162:279,1,140.252,2|0,3:2|3:2,2:0:0:0:
115,216,66173,2,0,P|103:180|113:130,1,70.1259999999999,10|0,2:0|3:2,2:0:0:0:
187,170,66495,2,0,P|224:171|270:148,1,70.1259999999999,2|0,3:2|3:2,2:0:0:0:
331,124,66818,2,0,L|340:219,1,70.1259999999999,10|0,2:0|3:2,2:0:0:0:
268,241,67140,6,0,L|259:336,1,70.1259999999999,6|0,3:2|3:2,2:0:0:0:
327,362,67463,2,0,P|371:363|417:346,1,70.1259999999999,10|0,2:0|3:2,2:0:0:0:
476,297,67785,2,0,L|485:349,3,35.1353333333333,10|0|0|0,2:0|3:2|3:2|3:2,2:0:0:0:
481,368,68108,1,10,3:2:0:0:
395,356,68269,6,0,B|373:295|373:295|398:203,1,140.252,6|8,3:2|2:0,2:0:0:0:
402,139,68753,1,8,2:0:0:0:
323,169,68914,2,0,B|262:191|262:191|170:166,1,140.252,8|8,2:0|2:0,2:0:0:0:
166,89,69398,1,8,3:2:0:0:
81,251,69721,6,0,P|116:249|151:256,1,70.1259999999999,14|2,2:0|3:2,2:0:0:0:
208,317,70043,2,0,P|254:324|296:316,1,70.1259999999999,10|2,2:0|3:2,2:0:0:0:
350,279,70366,2,0,L|359:205,1,70.1259999999999,10|2,2:0|3:2,2:0:0:0:
372,126,70689,1,8,2:0:0:0:
292,155,70850,6,0,P|257:157|222:150,1,70.1259999999999,2|8,3:2|2:0,2:0:0:0:
166,90,71173,2,0,P|120:83|78:91,1,70.1259999999999,2|8,3:2|2:0,2:0:0:0:
24,128,71495,1,2,3:2:0:0:
24,128,71576,1,0,3:2:0:0:
24,128,71656,1,8,2:0:0:0:
98,167,71818,1,0,3:2:0:0:
26,212,71979,2,0,P|35:245|52:276,1,70.1259999999999,8|0,2:0|3:2,2:0:0:0:
132,302,72302,6,0,L|203:296,1,70.1259999999999,10|2,2:0|3:2,2:0:0:0:
280,266,72624,2,0,P|292:226|282:180,1,70.1259999999999,10|2,2:0|3:2,2:0:0:0:
243,127,72947,1,10,2:0:0:0:
243,127,73108,2,0,L|159:118,1,70.1259999999999,10|8,3:2|2:0,2:0:0:0:
134,193,73431,6,0,P|90:124|125:48,2,140.035,6|6|6,3:2|3:2|3:2,2:0:0:0:
280,266,74398,2,0,L|280:301,2,35.063,2|0|12,3:2|3:2|2:0,2:0:0:0:
244,189,74721,1,8,3:2:0:0:
326,201,74882,6,0,P|395:166|401:71,2,157.620756008148,6|10|6,3:2|2:0|2:3,2:0:0:0:
213,123,76173,2,0,L|334:113,1,105.189004005432,6|0,2:0|2:0,2:0:0:0:
161,43,76818,1,10,2:0:0:0:
189,208,77140,1,2,2:0:0:0:
224,372,77463,6,0,P|297:384|373:370,1,140.252,4|8,3:2|2:0,2:0:0:0:
429,323,77947,1,0,3:2:0:0:
348,296,78108,2,0,P|333:253|345:200,1,70.1259999999999,8|0,2:0|3:2,2:0:0:0:
402,180,78431,1,10,2:0:0:0:
324,146,78592,1,2,3:2:0:0:
246,112,78753,6,0,L|210:122,3,35.1353333333333,10|8|8|8,2:0|2:0|3:2|2:0,2:0:0:0:
169,123,79076,2,0,L|133:113,3,35.1353333333333,10|8|10|8,2:0|2:0|2:0|2:0,2:0:0:0:
92,112,79398,2,0,L|56:122,3,35.1353333333333,8|8|8|8,2:0|2:0|2:0|2:0,2:0:0:0:
15,123,79721,2,0,P|11:173|25:221,1,70.1259999999999,10|10,2:0|2:0,2:0:0:0:
90,319,80043,2,0,P|94:269|80:221,1,70.1259999999999,4|0,3:2|2:0,2:0:0:0:
152,192,80366,6,0,B|225:199|202:236|281:243,1,140.252,14|0,2:0|3:2,2:0:0:0:
348,194,80850,2,0,L|428:176,1,70.1259999999999,0|8,3:2|2:0,2:0:0:0:
478,121,81173,1,2,2:0:0:0:
478,121,81253,1,2,2:0:0:0:
478,121,81334,6,0,P|456:177|454:273,1,140.252,2|10,3:2|2:0,2:0:0:0:
408,328,81818,2,0,P|374:314|339:307,1,70.1259999999999,2|0,2:0|3:2,2:0:0:0:
269,264,82140,2,0,P|243:273|201:280,1,70.1259999999999,2|8,2:0|2:0,2:0:0:0:
133,330,82463,6,0,P|86:342|80:214,1,210.378,6|8,2:0|2:0,2:0:0:0:
193,63,83269,2,0,L|202:143,1,70.1259999999999,0|10,3:2|2:0,2:0:0:0:
167,210,83592,1,10,2:0:0:0:
285,98,83753,6,0,L|382:111,1,70.1259999999999,6|0,3:2|2:0,2:0:0:0:
437,94,84076,2,0,L|442:180,1,70.1259999999999,2|8,3:2|2:0,2:0:0:0:
359,261,84398,2,0,L|349:120,1,140.252,6|2,3:2|3:2,2:0:0:0:
337,37,84882,1,10,2:0:0:0:
93,140,85205,6,0,L|177:149,1,70.1259999999999,6|0,3:2|2:0,2:0:0:0:
245,132,85527,1,10,2:0:0:0:
221,212,85689,1,2,2:0:0:0:
303,198,85850,2,0,L|320:290,1,70.1259999999999,2|2,3:2|2:0,2:0:0:0:
389,308,86173,1,8,2:0:0:0:
460,264,86334,6,0,P|474:205|471:107,1,140.252,2|2,2:0|2:0,2:0:0:0:
424,57,86818,1,8,2:0:0:0:
352,100,86979,2,0,L|265:111,1,70.1259999999999,2|8,2:0|2:0,2:0:0:0:
208,68,87302,1,10,2:0:0:0:
208,68,87382,1,8,2:0:0:0:
208,68,87463,1,10,2:0:0:0:
173,144,87624,1,2,3:2:0:0:
97,108,87785,6,0,P|52:145|49:245,1,140.252,14|10,3:2|2:0,2:0:0:0:
93,287,88269,1,0,3:2:0:0:
165,243,88431,1,10,2:0:0:0:
224,302,88592,1,0,3:2:0:0:
303,276,88753,1,10,2:0:0:0:
338,199,88914,6,0,P|337:276|355:352,1,140.252,6|8,3:2|2:0,2:0:0:0:
434,342,89398,1,8,2:0:0:0:
434,342,89479,1,8,2:0:0:0:
434,342,89560,2,0,L|509:334,1,70.1259999999999,8|8,2:0|2:0,2:0:0:0:
492,251,89882,2,0,L|501:197,2,35.063,8|8|10,2:0|2:0|2:0,2:0:0:0:
411,225,90205,1,8,2:0:0:0:
335,261,90366,6,0,L|326:143,1,105.189004005432,6|8,3:2|2:0,2:0:0:0:
192,54,91011,2,0,L|201:125,1,52.5945020027161,0|0,3:2|3:2,2:0:0:0:
163,176,91334,2,0,L|106:170,1,52.5945020027161,10|0,2:0|2:0,2:0:0:0:
79,242,91656,6,0,L|194:253,1,105.189004005432,2|10,3:2|2:0,2:0:0:0:
307,153,92302,2,0,L|242:148,1,52.5945020027161,2|0,3:2|3:2,2:0:0:0:
176,132,92624,1,10,2:0:0:0:
176,132,92947,6,0,P|185:181|193:254,1,105.189004005432,2|10,3:2|2:0,2:0:0:0:
257,379,93592,2,0,L|269:310,1,52.5945020027161,0|0,3:2|3:2,2:0:0:0:
327,277,93914,6,0,B|246:273|276:332|165:323,1,157.783506008148,14|0,2:0|3:2,2:0:0:0:
114,280,94560,1,8,2:0:0:0:
57,117,94882,2,0,P|90:114|133:105,1,52.5945020027161,2|0,3:2|3:2,2:0:0:0:
186,93,95205,2,0,P|192:116|195:161,1,52.5945020027161,10|0,2:0|2:0,2:0:0:0:
260,188,95527,6,0,P|279:136|279:68,1,105.189004005432,6|8,3:2|2:0,2:0:0:0:
341,35,96011,1,2,2:0:0:0:
409,74,96173,2,0,P|436:78|474:85,1,52.5945020027161,2|0,3:2|2:0,2:0:0:0:
510,143,96495,1,10,2:0:0:0:
469,315,96818,6,0,P|406:318|358:349,1,105.189004005432,2|8,3:2|2:0,2:0:0:0:
300,299,97302,1,0,2:0:0:0:
224,315,97463,2,0,P|216:267|216:244,1,52.5945020027161,2|0,3:2|3:2,2:0:0:0:
238,188,97785,1,10,2:0:0:0:
32,83,98108,5,10,2:0:0:0:
104,114,98269,1,0,3:2:0:0:
165,67,98431,2,0,L|262:56,1,70.1259999999999,10|2,2:0|3:2,2:0:0:0:
350,35,98753,2,0,L|352:87,3,35.1353333333333,8|8|8|8,2:0|2:0|2:0|2:0,2:0:0:0:
378,97,99076,2,0,L|376:149,4,35.063,10|8|10|8|0,2:0|2:0|2:0|2:0|3:2,2:0:0:0:
481,49,99560,6,0,L|464:129,1,70.1259999999999,10|0,2:0|3:2,2:0:0:0:
291,151,99882,1,8,2:0:0:0:
291,151,100043,6,0,L|308:231,1,70.1259999999999,10|10,3:2|2:0,2:0:0:0:
369,262,100366,2,0,P|309:269|265:306,1,105.406,6|0,3:2|2:0,2:0:0:0:
249,329,100689,6,0,P|179:351|111:323,1,140.252,6|8,3:2|2:0,2:0:0:0:
81,253,101173,1,0,2:0:0:0:
81,253,101334,2,0,L|85:177,1,70.1259999999999,0|0,3:2|3:2,2:0:0:0:
142,122,101656,2,0,P|176:115|211:126,1,70.1259999999999,10|0,2:0|2:0,2:0:0:0:
276,176,101979,6,0,P|321:173|357:149,1,70.1259999999999,2|0,3:2|2:0,2:0:0:0:
378,85,102302,2,0,L|394:227,1,140.252,10|2,2:0|3:2,2:0:0:0:
403,307,102785,1,0,3:2:0:0:
326,270,102947,2,0,P|290:265|238:266,1,70.1259999999999,10|0,2:0|2:0,2:0:0:0:
179,299,103269,6,0,L|170:210,1,70.1259999999999,2|0,3:2|2:0,2:0:0:0:
164,145,103592,2,0,P|225:97|307:109,1,140.252,10|2,2:0|3:2,2:0:0:0:
336,164,104076,1,0,3:2:0:0:
306,243,104237,6,0,P|373:237|417:184,1,140.252,14|0,2:0|3:2,2:0:0:0:
443,105,104721,1,0,3:2:0:0:
384,44,104882,2,0,P|349:37|315:28,1,70.1259999999999,8|2,2:0|2:0,2:0:0:0:
251,83,105205,2,0,P|216:90|182:98,1,70.1259999999999,2|0,3:2|3:2,2:0:0:0:
118,44,105527,2,0,P|83:36|49:28,1,70.1259999999999,10|0,2:0|2:0,2:0:0:0:
52,112,105850,6,0,P|64:162|-2:225,1,140.252,6|8,3:2|2:0,2:0:0:0:
92,214,106334,1,2,2:0:0:0:
175,223,106495,2,0,P|187:253|197:296,1,70.1259999999999,2|0,3:2|2:0,2:0:0:0:
156,363,106818,2,0,L|238:374,1,70.1259999999999,10|0,2:0|2:0,2:0:0:0:
309,368,107140,6,0,P|342:318|326:242,1,140.252,2|8,3:2|2:0,2:0:0:0:
275,176,107624,1,0,2:0:0:0:
357,162,107785,2,0,P|391:155|424:164,1,70.1259999999999,2|0,3:2|3:2,2:0:0:0:
472,234,108108,1,10,2:0:0:0:
372,369,108431,6,0,P|309:339|244:357,1,140.252,6|10,3:2|2:0,2:0:0:0:
163,380,108914,2,0,P|148:335|150:303,1,70.1259999999999,2|0,2:0|3:2,2:0:0:0:
180,234,109237,1,0,3:2:0:0:
148,156,109398,1,10,2:0:0:0:
180,78,109560,6,0,L|342:66,1,140.252,6|8,3:2|2:3,2:0:0:0:
403,59,110043,1,8,2:3:0:0:
364,133,110205,2,0,L|380:214,1,70.1259999999999,4|8,3:2|2:0,2:0:0:0:
392,284,110527,1,0,3:2:0:0:
313,254,110689,2,0,P|270:248|223:251,1,70.1259999999999,8|8,2:3|2:3,2:0:0:0:
168,285,111011,6,0,P|128:232|130:177,1,105.189004005432,4|2,3:2|3:2,2:0:0:0:
158,123,111495,1,0,2:0:0:0:
158,123,111656,2,0,L|273:112,1,105.189004005432,10|2,2:0|3:2,2:0:0:0:
330,153,112140,6,0,L|339:208,1,52.5945020027161,2|0,3:2|2:0,2:0:0:0:
259,292,112463,2,0,L|269:241,2,52.5945020027161,8|2|0,2:0|3:2|3:2,2:0:0:0:
196,340,112947,1,10,2:0:0:0:
116,225,113269,1,2,3:2:0:0:
155,156,113431,1,2,2:0:0:0:
234,147,113592,6,0,L|119:112,1,105.189004005432,4|2,3:2|3:2,2:0:0:0:
206,270,114237,2,0,L|193:359,2,70.1259999999999,10|8|10,3:2|2:0|2:0,2:0:0:0:
277,225,114721,6,0,B|341:214|341:214|427:234,1,140.252,14|10,2:0|3:2,2:0:0:0:
474,289,115205,1,10,3:2:0:0:
495,208,115366,2,0,P|516:137|501:70,1,140.252,14|0,3:2|3:2,2:0:0:0:
480,54,115769,1,0,3:2:0:0:
480,54,115850,2,0,L|405:46,1,70.1259999999999,8|0,3:2|3:2,2:0:0:0:
325,72,116173,6,0,P|288:129|297:197,1,140.252,4|10,3:2|2:0,2:0:0:0:
367,250,116656,1,0,3:2:0:0:
347,335,116818,2,0,P|312:341|277:343,1,70.1259999999999,2|0,3:2|3:2,2:0:0:0:
208,296,117140,2,0,L|121:327,1,70.1259999999999,10|0,2:0|2:0,2:0:0:0:
61,343,117463,6,0,B|51:290|51:290|68:255|68:255|61:208,1,140.252,6|10,3:2|2:0,2:0:0:0:
88,128,117947,1,0,3:2:0:0:
164,162,118108,2,0,P|176:207|175:244,2,70.1259999999999,2|0|10,3:2|3:2|2:0,2:0:0:0:
85,119,118592,1,0,2:0:0:0:
158,81,118753,6,0,L|297:96,1,140.252,2|8,3:2|2:0,2:0:0:0:
342,167,119237,1,0,2:0:0:0:
385,95,119398,2,0,L|439:87,2,35.063,10|8|8,2:0|2:0|2:0,2:0:0:0:
342,167,119721,1,8,2:0:0:0:
297,96,119882,6,0,P|257:165|301:239,1,140.252,6|2,3:2|3:2,2:0:0:0:
329,290,120366,2,0,L|259:298,1,70.1259999999999,10|0,2:0|3:2,2:0:0:0:
184,330,120689,2,0,L|114:321,1,70.1259999999999,10|0,2:0|3:2,2:0:0:0:
48,269,121011,6,0,L|65:183,1,70.1259999999999,10|2,2:0|3:2,2:0:0:0:
60,123,121334,2,0,L|146:140,1,70.1259999999999,8|2,2:0|3:2,2:0:0:0:
210,152,121656,1,10,2:0:0:0:
289,123,121818,2,0,L|297:162,2,35.063,8|8|4,2:0|2:0|2:3,2:0:0:0:
226,67,122140,1,6,2:3:0:0:
307,46,122302,2,0,P|341:39|376:39,1,70.1259999999999,6|14,2:3|2:0,2:0:0:0:
209,153,122785,6,0,P|231:227|265:277,1,117.021333333334,10|10,2:0|2:0,2:0:0:0:
455,201,123269,2,0,P|399:189|354:191,1,93.3566666666666,10|10,2:0|2:0,2:0:0:0:
289,384,123699,2,0,P|328:342|348:301,1,93.3566666666666,10|14,2:0|2:0,2:0:0:0:
276,102,124721,6,0,L|270:58,2,35.063,0|0|10,3:2|3:2|2:0,2:0:0:0:
361,243,125205,2,0,L|411:255,3,35.1353333333333,10|8|8|8,2:0|2:0|2:0|2:0,2:0:0:0:
404,218,125527,6,0,B|335:210|354:265|275:257,1,140.252,12|0,3:2|3:2,2:0:0:0:
209,205,126011,1,0,3:2:0:0:
158,272,126173,1,10,2:0:0:0:
80,239,126334,6,0,B|103:186|103:186|71:97,1,140.252,2|2,3:2|3:2,2:0:0:0:
94,26,126818,1,8,3:2:0:0:
167,65,126979,2,0,L|241:49,1,70.1259999999999,2|0,3:2|2:0,2:0:0:0:
304,150,127302,2,0,L|212:130,1,70.1259999999999,2|8,3:2|2:0,2:0:0:0:
171,189,127624,1,2,2:0:0:0:
241,235,127785,6,0,P|279:288|276:364,1,140.252,0|8,3:2|2:0,2:0:0:0:
361,328,128269,1,0,2:0:0:0:
432,372,128431,2,0,L|447:278,1,70.1259999999999,2|0,3:2|3:2,2:0:0:0:
428,186,128753,1,10,2:0:0:0:
503,221,128914,6,0,L|345:233,1,140.252,6|2,3:2|3:2,2:0:0:0:
303,172,129398,1,8,2:0:0:0:
237,225,129560,2,0,P|270:165|247:87,1,140.252,6|2,3:2|3:2,2:0:0:0:
186,50,130043,1,8,2:0:0:0:
132,115,130205,1,10,2:0:0:0:
132,115,130285,1,8,2:0:0:0:
132,115,130366,6,0,P|91:125|32:130,1,70.1259999999999,4|0,3:2|2:0,2:0:0:0:
128,209,130689,2,0,P|160:271|160:358,1,140.252,8|2,2:0|3:2,2:0:0:0:
243,367,131173,1,0,3:2:0:0:
263,285,131334,1,10,2:0:0:0:
338,321,131495,6,0,P|397:324|456:246,1,140.252,2|0,3:2|3:2,2:0:0:0:
451,185,131979,2,0,L|491:102,1,70.1259999999999,10|0,2:0|3:2,2:0:0:0:
368,176,132302,2,0,L|333:81,1,70.1259999999999,2|0,2:0|3:2,2:0:0:0:
300,228,132624,6,0,L|145:202,1,140.252,10|2,2:0|3:2,2:0:0:0:
7,199,133108,1,0,3:2:0:0:
81,160,133269,2,0,L|86:253,1,70.1259999999999,10|0,2:0|3:2,2:0:0:0:
218,349,133592,2,0,L|214:279,1,70.1259999999999,10|0,2:0|3:2,2:0:0:0:
263,211,133914,1,10,2:0:0:0:
336,252,134076,6,0,B|413:248|380:298|492:296,1,140.252,6|8,3:2|2:0,2:0:0:0:
465,295,134479,1,0,3:2:0:0:
465,295,134560,1,2,3:2:0:0:
458,204,134721,6,0,L|471:156,2,35.063,0|0|14,3:2|3:2|2:0,2:0:0:0:
256,326,135205,1,10,2:0:0:0:
54,204,135527,2,0,L|41:156,3,35.1353333333333,2|0|0|0,3:2|3:0|3:2|3:2,2:0:0:0:
22,140,135850,6,0,B|76:151|76:151|97:176|97:176|149:187,1,140.252,12|0,2:0|3:2,2:0:0:0:
210,129,136334,1,0,3:2:0:0:
281,172,136495,1,10,2:0:0:0:
354,132,136656,6,0,B|391:162|391:162|380:275,1,140.252,2|2,3:2|3:2,2:0:0:0:
372,337,137140,1,8,2:0:0:0:
291,362,137302,2,0,P|290:326|305:269,1,70.1259999999999,2|0,3:2|2:0,2:0:0:0:
455,309,137624,2,0,P|456:345|441:402,2,70.1259999999999,2|8|6,3:2|2:0|2:0,2:0:0:0:
473,183,138108,5,0,3:2:0:0:
407,235,138269,1,0,3:2:0:0:
333,192,138431,2,0,L|236:180,1,70.1259999999999,8|0,2:0|2:0,2:0:0:0:
210,248,138753,2,0,L|219:288,2,35.063,8|8|8,3:2|3:2|3:2,2:0:0:0:
88,200,139076,1,10,2:0:0:0:
138,133,139237,6,0,L|117:303,1,140.252,6|2,3:2|3:2,2:0:0:0:
149,351,139721,1,8,2:0:0:0:
220,307,139882,2,0,P|292:316|353:383,1,140.252,6|2,3:2|3:2,2:0:0:0:
423,340,140366,1,8,2:0:0:0:
387,263,140527,1,0,3:2:0:0:
465,232,140689,6,0,P|482:167|423:91,1,140.252,6|8,3:2|2:0,2:0:0:0:
364,112,141173,1,0,3:2:0:0:
316,43,141334,2,0,L|226:26,1,70.1259999999999,2|0,3:2|3:2,2:0:0:0:
173,70,141656,1,10,2:0:0:0:
169,154,141818,6,0,P|230:159|288:242,1,140.252,2|0,3:2|3:2,2:0:0:0:
245,290,142302,2,0,L|226:361,1,70.1259999999999,10|0,2:0|3:2,2:0:0:0:
336,291,142624,2,0,L|399:368,1,70.1259999999999,2|0,3:2|3:2,2:0:0:0:
369,211,142947,6,0,L|515:195,1,140.252,10|6,2:0|3:2,2:0:0:0:
491,113,143431,1,0,3:2:0:0:
394,58,143592,2,0,L|414:145,1,70.1259999999999,10|0,2:0|3:2,2:0:0:0:
350,226,143914,2,0,L|341:278,3,35.1353333333333,10|0|0|0,2:0|3:2|3:2|3:2,2:0:0:0:
337,290,144237,1,10,3:2:0:0:
288,162,144398,6,0,P|226:156|167:218,1,140.252,6|8,3:2|2:0,2:0:0:0:
107,260,144882,1,8,2:0:0:0:
61,115,145043,2,0,P|77:142|86:194,1,70.1259999999999,8|8,2:0|3:2,2:0:0:0:
203,295,145366,1,8,2:0:0:0:
203,295,145447,1,8,2:0:0:0:
203,295,145527,2,0,L|188:353,3,35.1353333333333,8|8|0|0,3:2|2:3|3:2|3:2,2:0:0:0:
189,348,145850,6,0,L|280:340,1,70.1259999999999,14|0,2:0|3:2,2:0:0:0:
285,261,146173,2,0,L|424:249,1,140.252,8|10,2:0|2:0,2:0:0:0:
502,217,146656,2,0,P|512:165|499:126,1,70.1259999999999,2|10,3:2|2:0,2:0:0:0:
443,95,146979,1,2,3:2:0:0:
443,95,147060,1,0,3:2:0:0:
443,95,147140,6,0,P|397:104|359:140,1,70.1259999999999,8|2,2:0|3:2,2:0:0:0:
308,164,147463,1,8,2:0:0:0:
262,93,147624,2,0,L|269:39,2,35.063,2|0|8,3:2|3:2|2:0,2:0:0:0:
197,147,147947,1,0,3:2:0:0:
116,123,148108,2,0,L|101:36,1,70.1259999999999,8|0,2:0|3:2,2:0:0:0:
20,195,148431,6,0,L|95:208,1,70.1259999999999,10|2,2:0|3:2,2:0:0:0:
147,267,148753,2,0,P|197:230|285:232,1,140.252,10|10,2:0|2:0,2:0:0:0:
427,222,149237,2,0,P|439:255|437:304,1,70.1259999999999,10|8,3:2|2:0,2:0:0:0:
356,276,149560,6,0,L|343:117,1,140.252,6|6,3:2|3:2,2:0:0:0:
90,21,150205,2,0,L|101:160,1,140.252,6|2,3:2|3:2,2:0:0:0:
101,160,150608,1,0,3:2:0:0:
101,160,150689,1,12,2:0:0:0:
56,314,151011,6,0,P|130:299|243:378,1,210.378,6|10,3:2|2:0,2:0:0:0:
353,256,151818,2,0,L|270:272,1,70.1259999999999,8|6,2:3|2:3,2:0:0:0:
61,82,152302,6,0,B|175:87|112:155|247:160,1,210.378,6|2,2:0|3:2,2:0:0:0:
247,161,152866,1,0,3:2:0:0:
247,161,152947,1,10,2:0:0:0:
419,74,153592,5,4,3:2:0:0:
349,226,153914,1,8,2:0:0:0:
186,182,154237,6,0,L|198:107,1,70.1259999999999,8|0,2:0|3:2,2:0:0:0:
168,33,154560,2,0,L|263:44,1,70.1259999999999,10|2,2:0|3:2,2:0:0:0:
409,143,154882,6,0,L|304:132,1,105.406,10|0,2:0|3:2,2:0:0:0:
285,130,155205,2,0,L|294:194,3,35.1353333333333,10|8|10|8,2:0|2:0|2:0|2:0,2:0:0:0:
288,200,155527,2,0,L|297:264,3,35.1353333333333,8|8|8|8,2:0|2:0|2:0|2:0,2:0:0:0:
291,270,155850,2,0,L|300:334,3,35.1353333333333,10|8|10|8,2:0|2:0|2:0|2:0,2:0:0:0:
298,339,156173,6,0,P|230:351|192:330,1,105.189004005432,4|0,3:2|3:2,2:0:0:0:
129,358,156656,2,0,P|152:312|139:262,1,105.189004005432,8|0,2:0|2:3,2:0:0:0:
78,221,157140,2,0,L|74:168,1,52.5945020027161,4|0,2:3|2:0,2:0:0:0:
29,110,157463,6,0,P|91:114|129:85,1,105.189004005432,6|0,3:2|2:0,2:0:0:0:
164,28,157947,1,0,3:2:0:0:
164,28,158027,1,8,2:0:0:0:
164,28,158108,2,0,L|173:151,1,105.189004005432,10|0,2:0|3:2,2:0:0:0:
180,279,158753,6,0,P|229:296|279:283,1,105.189004005432,6|0,3:2|2:0,2:0:0:0:
378,188,159398,2,0,L|386:239,1,52.5945020027161,2|8,3:2|2:0,2:0:0:0:
398,312,159721,1,2,3:2:0:0:
291,164,160043,6,0,L|206:179,2,70.1259999999999,6|0|8,3:2|3:2|2:0,2:0:0:0:
356,99,160527,2,0,P|360:57|347:30,1,70.1259999999999,6|0,3:2|2:0,2:0:0:0:
268,76,160850,2,0,L|125:99,1,140.252,6|0,3:2|3:2,2:0:0:0:
61,39,161334,6,0,P|39:85|72:167,1,140.252,6|10,3:2|2:0,2:0:0:0:
143,214,161818,1,2,3:2:0:0:
143,214,161979,2,0,L|302:236,1,140.252,10|10,2:0|3:2,2:0:0:0:
342,164,162463,6,0,P|369:227|350:293,1,140.252,14|0,2:0|3:2,2:0:0:0:
270,337,162947,2,0,L|438:327,2,140.035,10|10|10,3:2|2:0|2:0,2:0:0:0:
179,346,163753,1,0,3:2:0:0:
213,261,163914,2,0,L|204:197,3,35.1353333333333,14|8|8|8,2:0|2:0|2:0|2:0,2:0:0:0:
210,191,164237,2,0,L|201:127,3,35.1353333333333,10|8|8|8,2:0|2:0|2:0|2:0,2:0:0:0:
207,121,164560,2,0,L|198:57,3,35.1353333333333,10|8|8|8,2:0|2:0|2:0|2:0,2:0:0:0:
200,52,164882,6,0,L|299:37,1,70.1259999999999,10|10,2:0|2:0,2:0:0:0:
411,155,165366,2,0,L|341:165,1,70.1259999999999,10|10,2:0|2:0,2:0:0:0:
217,287,165850,6,0,L|209:332,2,35.063,0|0|0,3:2|3:2|3:2,2:0:0:0:
235,197,166173,1,8,2:0:0:0:
160,146,166334,6,0,P|225:161|272:113,1,140.252,6|0,3:2|3:2,2:0:0:0:
213,19,166818,2,0,L|204:88,1,70.1259999999999,12|0,2:0|2:0,2:0:0:0:
131,78,167140,2,0,P|93:66|59:75,2,70.1259999999999,0|2|10,3:2|3:2|2:0,2:0:0:0:
160,146,167624,6,0,L|188:295,1,140.252,2|2,3:2|3:2,2:0:0:0:
246,351,168108,2,0,P|288:361|338:341,1,70.1259999999999,10|2,2:0|3:2,2:0:0:0:
379,292,168431,2,0,B|379:222,1,70.1259999999999,2|2,2:0|3:2,2:0:0:0:
378,131,168753,1,10,2:0:0:0:
299,177,168914,2,0,P|231:185|183:138,1,140.252,2|2,3:2|2:0,2:0:0:0:
104,91,169398,6,0,L|15:112,1,70.1259999999999,10|2,2:0|2:0,2:0:0:0:
103,183,169721,2,0,P|118:213|116:248,1,70.1259999999999,2|2,3:2|3:2,2:0:0:0:
62,321,170043,1,8,2:0:0:0:
152,334,170205,6,0,L|322:343,1,140.252,6|2,3:2|3:2,2:0:0:0:
389,348,170689,1,8,2:0:0:0:
346,275,170850,2,0,P|356:160|387:134,1,140.252,6|0,3:2|3:2,2:0:0:0:
444,109,171334,1,8,2:0:0:0:
370,69,171495,1,2,3:2:0:0:
370,69,171576,1,2,3:2:0:0:
370,69,171656,6,0,B|210:53,1,140.252,6|8,3:2|2:0,2:0:0:0:
140,97,172140,2,0,L|158:174,1,70.1259999999999,2|0,2:0|3:2,2:0:0:0:
216,233,172463,2,0,L|198:310,1,70.1259999999999,2|8,3:2|2:0,2:0:0:0:
139,369,172785,6,0,P|63:346|47:279,1,140.252,6|2,3:2|3:2,2:0:0:0:
15,207,173269,2,0,L|22:132,1,70.1259999999999,10|0,2:0|3:2,2:0:0:0:
82,69,173592,2,0,P|119:58|164:66,1,70.1259999999999,2|0,2:0|3:2,2:0:0:0:
219,118,173914,2,0,P|253:121|286:110,1,70.1259999999999,10|0,2:0|3:2,2:0:0:0:
372,79,174237,6,0,L|364:9,2,70.1259999999999,2|0|8,3:2|3:2|2:0,2:0:0:0:
381,169,174721,1,2,3:2:0:0:
381,169,175043,6,0,L|311:176,1,70.1259999999999,10|10,3:2|2:0,2:0:0:0:
221,185,175366,1,14,3:2:0:0:
221,185,175689,6,0,L|210:87,2,70.1259999999999,10|10|10,2:0|2:0|2:0,2:0:0:0:
144,221,176173,2,0,P|213:275|266:258,1,140.252,10|10,2:0|2:0,2:0:0:0:
317,195,176656,1,0,2:0:0:0:
346,280,176818,6,0,P|406:198|341:109,1,210.378,6|0,3:2|3:2,2:0:0:0:
317,195,177463,2,0,L|275:177,3,35.1353333333333,10|2|2|2,2:0|2:0|3:2|2:0,2:0:0:0:
243,189,177785,2,0,L|201:207,3,35.1353333333333,10|2|2|2,2:0|2:0|3:2|2:0,2:0:0:0:
171,187,178108,2,0,L|129:169,3,35.1353333333333,2|2|2|2,2:0|2:0|3:2|2:0,2:0:0:0:
96,180,178431,2,0,L|54:198,3,35.1353333333333,10|2|2|2,2:0|2:0|3:2|2:0,2:0:0:0:
46,231,178753,2,0,P|41:272|66:311,1,70.1259999999999,10|2,2:0|3:2,2:0:0:0:
124,353,179076,1,10,2:0:0:0:
205,312,179237,6,0,P|287:286|357:321,1,140.252,2|0,3:2|3:2,2:0:0:0:
399,368,179721,2,0,P|432:377|465:367,1,70.1259999999999,10|2,2:0|3:2,2:0:0:0:
502,284,180043,2,0,L|481:208,1,70.1259999999999,10|10,2:0|2:0,2:0:0:0:
453,130,180366,1,10,2:0:0:0:
398,202,180527,2,0,P|354:220|304:204,1,70.1259999999999,6|0,3:2|2:0,2:0:0:0:
256,168,180850,2,0,P|245:129|258:86,1,70.1259999999999,6|2,3:2|2:0,2:0:0:0:
314,52,181173,2,0,L|170:65,1,140.252,6|0,3:2|3:2,2:0:0:0:
107,125,181656,2,0,P|111:170|82:214,1,70.1259999999999,0|0,3:2|3:2,2:0:0:0:
20,233,181979,6,0,L|182:246,1,140.252,6|0,3:2|3:2,2:0:0:0:
222,191,182463,2,0,P|202:260|235:319,1,140.252,2|0,2:0|2:0,2:0:0:0:
298,244,182947,2,0,L|371:240,1,70.1259999999999,2|0,3:2|3:2,2:0:0:0:
439,173,183269,2,0,P|448:139|441:105,2,70.1259999999999,2|8|0,2:0|2:0|3:2,2:0:0:0:
367,240,183753,1,2,3:2:0:0:
448,301,183914,2,0,P|454:335|445:368,1,70.1259999999999,10|2,2:0|3:2,2:0:0:0:
362,326,184237,1,0,3:2:0:0:
272,364,184398,6,0,P|207:317|134:336,1,140.252,2|0,2:0|2:0,2:0:0:0:
78,380,184882,2,0,P|56:339|65:289,1,70.1259999999999,0|8,3:2|3:2,2:0:0:0:
108,241,185205,2,0,L|204:235,1,70.1259999999999,8|8,2:0|2:0,2:0:0:0:
261,229,185527,1,8,2:0:0:0:
319,291,185689,6,0,P|293:227|311:161,1,140.252,14|0,3:2|3:2,2:0:0:0:
382,104,186173,1,8,2:0:0:0:
296,73,186334,1,2,3:2:0:0:
210,104,186495,2,0,L|161:103,3,35.1353333333333,8|8|8|8,2:0|2:0|2:0|2:0,2:0:0:0:
125,102,186818,2,0,L|76:101,3,35.1353333333333,8|8|8|8,2:0|2:0|2:0|2:0,2:0:0:0:
69,88,187140,6,0,P|87:155|95:231,1,140.252,4|10,3:2|2:0,2:0:0:0:
140,296,187624,1,0,3:2:0:0:
200,238,187785,2,0,L|285:266,1,70.1259999999999,10|0,2:0|3:2,2:0:0:0:
285,177,188108,2,0,L|357:160,1,70.1259999999999,10|0,2:0|3:2,2:0:0:0:
353,160,188350,1,0,3:2:0:0:
353,160,188431,6,0,L|368:244,1,70.1259999999999,10|0,2:0|3:2,2:0:0:0:
449,236,188753,2,0,L|436:167,1,70.1259999999999,10|0,2:0|3:2,2:0:0:0:
456,85,189076,1,10,2:0:0:0:
388,34,189237,1,0,3:2:0:0:
312,69,189398,2,0,P|263:63|233:55,1,70.1259999999999,10|0,2:0|3:2,2:0:0:0:
243,58,189640,1,0,3:2:0:0:
243,58,189721,6,0,L|94:96,1,140.252,10|8,2:0|2:0,2:0:0:0:
13,95,190205,2,0,P|29:125|35:160,1,70.1259999999999,2|8,3:2|2:0,2:0:0:0:
114,188,190527,2,0,P|105:221|85:250,1,70.1259999999999,2|8,3:2|2:0,2:0:0:0:
65,332,190850,6,0,B|139:347|129:293|198:308,1,140.252,6|0,3:2|3:2,2:0:0:0:
270,265,191334,1,8,2:0:0:0:
330,322,191495,2,0,B|305:283|305:283|334:182,1,140.252,6|0,3:2|3:2,2:0:0:0:
334,183,191898,1,0,3:2:0:0:
338,173,191979,1,8,2:0:0:0:
292,102,192140,1,0,3:2:0:0:
232,162,192302,6,0,P|183:168|105:91,1,140.252,4|10,3:2|2:0,2:0:0:0:
38,154,192785,1,0,3:2:0:0:
69,232,192947,2,0,L|56:308,1,70.1259999999999,10|0,2:0|3:2,2:0:0:0:
131,339,193269,2,0,L|142:270,1,70.1259999999999,10|0,2:0|3:2,2:0:0:0:
208,217,193592,6,0,L|294:207,1,70.1259999999999,10|0,2:0|3:2,2:0:0:0:
349,251,193914,2,0,P|360:281|372:335,1,70.1259999999999,10|0,2:0|3:2,2:0:0:0:
453,311,194237,2,0,P|457:294|462:272,4,35.063,10|8|8|8|10,2:0|2:0|2:0|2:0|2:0,2:0:0:0:
498,86,194882,6,0,L|426:109,1,70.1259999999999,6|0,3:2|3:2,2:0:0:0:
357,65,195205,1,8,2:0:0:0:
356,167,195366,2,0,P|339:117|243:84,1,140.252,2|2,3:2|3:2,2:0:0:0:
198,134,195850,1,8,2:0:0:0:
117,109,196011,6,0,P|114:178|106:248,1,140.252,6|8,3:2|2:0,2:0:0:0:
104,258,196414,1,8,2:0:0:0:
100,268,196495,1,0,3:2:0:0:
159,326,196656,1,0,3:2:0:0:
232,284,196818,2,0,L|293:298,4,35.063,8|8|0|0|10,2:0|2:0|3:2|3:2|2:0,2:0:0:0:
260,204,197302,1,2,3:2:0:0:
211,135,197463,6,0,L|279:119,1,70.1259999999999,6|0,3:2|3:2,2:0:0:0:
358,93,197785,2,0,P|402:127|396:231,1,140.252,10|0,2:0|3:2,2:0:0:0:
370,281,198269,1,0,3:2:0:0:
293,317,198431,2,0,P|283:278|285:227,1,70.1259999999999,10|10,2:0|2:0,2:0:0:0:
236,178,198753,6,0,L|138:155,1,70.1259999999999,2|0,3:2|3:2,2:0:0:0:
156,245,199076,1,10,2:0:0:0:
156,245,199237,2,0,L|80:266,1,70.1259999999999,10|0,2:0|3:2,2:0:0:0:
15,221,199560,1,0,3:2:0:0:
17,137,199721,2,0,P|28:82|30:49,1,70.1259999999999,10|2,2:0|2:0,2:0:0:0:
100,24,200043,6,0,P|155:28|214:104,1,140.252,2|10,3:2|2:0,2:0:0:0:
284,128,200527,2,0,L|373:106,1,70.1259999999999,10|0,2:0|3:2,2:0:0:0:
429,145,200850,1,0,3:2:0:0:
362,196,201011,2,0,L|351:277,1,70.1259999999999,10|2,2:0|2:0,2:0:0:0:
232,348,201334,6,0,L|241:278,1,70.1259999999999,2|0,3:2|3:2,2:0:0:0:
201,205,201656,1,10,2:0:0:0:
130,251,201818,2,0,P|81:249|20:163,1,140.252,10|8,2:0|2:0,2:0:0:0:
42,103,202302,2,0,L|34:62,2,35.063,10|8|10,2:0|2:0|2:0,2:0:0:0:
119,134,202624,6,0,L|139:40,1,70.1259999999999,10|8,2:3|2:3,2:0:0:0:
239,15,202947,2,0,L|216:134,1,105.406,12|0,2:0|2:0,2:0:0:0:
219,118,203269,6,0,L|310:117,1,70.1259999999999,10|8,2:3|2:3,2:0:0:0:
403,198,203592,2,0,L|283:203,1,105.406,12|0,2:0|2:0,2:0:0:0:
298,202,203914,6,0,L|319:284,1,70.1259999999999,10|8,2:3|2:3,2:0:0:0:
229,368,204237,2,0,L|206:251,1,105.406,12|0,2:0|2:0,2:0:0:0:
208,264,204560,2,0,L|131:271,1,70.1259999999999,10|8,3:0|3:0,2:0:0:0:
39,183,204882,2,0,L|108:176,1,70.1259999999999,12|0,2:0|3:2,2:0:0:0:
184,125,205205,6,0,P|183:90|172:57,2,70.1259999999999,14|0|0,3:2|3:2|3:2,2:0:0:0:
268,183,205689,2,0,P|308:160|332:121,2,70.1259999999999,12|0|0,2:0|3:2|3:2,2:0:0:0:
208,264,206173,1,8,2:0:0:0:
208,264,206334,6,0,B|279:272|245:312|334:322,1,140.252,4|0,3:2|3:2,2:0:0:0:
410,351,206818,2,0,P|426:315|421:269,1,70.1259999999999,8|0,2:0|3:2,2:0:0:0:
369,222,207140,2,0,L|316:233,2,35.063,8|8|0,2:0|2:0|3:2,2:0:0:0:
413,151,207463,2,0,L|491:145,1,70.1259999999999,0|0,3:2|3:2,2:0:0:0:
448,68,207785,6,0,L|298:83,1,140.252,14|10,2:0|2:0,2:0:0:0:
253,145,208269,1,8,3:2:0:0:
203,81,208431,2,0,L|64:68,1,140.252,10|10,2:0|2:0,2:0:0:0:
29,145,208914,6,0,L|99:151,1,70.1259999999999,14|0,3:2|2:0,2:0:0:0:
256,238,209237,1,10,2:0:0:0:
256,238,209398,1,14,2:0:0:0:
413,76,210366,5,6,3:2:0:0:
312,150,210689,1,2,3:2:0:0:
192,84,211011,1,2,3:2:0:0:
306,130,211334,1,2,3:2:0:0:
312,252,211656,5,2,3:2:0:0:
203,298,211979,1,2,3:2:0:0:
301,232,212302,1,2,3:2:0:0:
423,297,212624,1,2,3:2:0:0:
512,204,212947,5,2,3:2:0:0:
463,90,213269,1,2,3:2:0:0:
333,103,213592,2,0,L|275:91,4,35.063,10|8|2|0|2,3:2|3:2|3:2|3:2|3:2,2:0:0:0:
392,163,214076,6,0,L|386:242,1,70.1259999999999,6|0,3:2|2:0,2:0:0:0:
343,304,214398,2,0,P|292:293|263:299,1,70.1259999999999,6|0,3:2|2:0,2:0:0:0:
201,337,214721,2,0,L|194:257,1,70.1259999999999,6|0,3:2|3:2,2:0:0:0:
124,221,215043,2,0,P|149:197|182:186,1,70.1259999999999,6|12,3:2|2:0,2:0:0:0:
261,216,215366,1,2,2:0:0:0:
261,216,215447,1,0,2:0:0:0:
261,216,215527,6,0,P|313:161|301:88,1,140.252,4|8,3:2|2:0,2:0:0:0:
246,48,216011,1,0,2:0:0:0:
179,99,216173,2,0,P|145:89|115:71,1,70.1259999999999,2|0,3:2|3:2,2:0:0:0:
46,24,216495,1,10,2:0:0:0:
26,106,216656,6,0,P|24:175|59:234,1,140.252,2|0,3:2|3:2,2:0:0:0:
132,276,217140,2,0,L|201:270,1,70.1259999999999,10|0,2:0|3:2,2:0:0:0:
275,229,217463,2,0,P|282:191|276:148,1,70.1259999999999,2|0,2:0|3:2,2:0:0:0:
227,93,217785,2,0,L|296:73,1,70.1259999999999,10|0,2:0|2:0,2:0:0:0:
358,17,218108,6,0,P|340:80|392:133,1,140.252,2|10,3:2|2:0,2:0:0:0:
450,183,218592,1,0,3:2:0:0:
389,241,218753,2,0,L|383:313,1,70.1259999999999,10|0,2:0|3:2,2:0:0:0:
323,369,219076,1,10,2:0:0:0:
254,320,219237,2,0,P|197:309|117:340,1,140.252,6|8,3:2|2:0,2:0:0:0:
45,373,219721,6,0,P|30:335|31:302,1,70.1259999999999,2|0,3:2|3:2,2:0:0:0:
58,227,220043,2,0,L|150:209,1,70.1259999999999,10|0,2:0|3:2,2:0:0:0:
207,188,220366,2,0,P|222:150|221:117,1,70.1259999999999,10|0,2:0|3:2,2:0:0:0:
200,39,220689,2,0,L|239:27,3,35.1353333333333,2|0|0|0,3:2|3:2|3:2|3:2,2:0:0:0:
277,15,221011,6,0,P|340:71|337:147,1,140.252,12|0,3:2|3:2,2:0:0:0:
324,203,221495,1,0,3:2:0:0:
404,180,221656,1,10,2:0:0:0:
383,260,221818,6,0,P|313:286|249:235,1,140.252,2|2,3:2|3:2,2:0:0:0:
201,195,222302,1,8,3:2:0:0:
173,274,222463,2,0,L|103:279,1,70.1259999999999,2|0,3:2|2:0,2:0:0:0:
38,225,222785,2,0,P|24:185|40:129,1,70.1259999999999,2|8,3:2|2:0,2:0:0:0:
59,80,223108,6,4,L|221:57,1,140.252,2|0,2:0|3:2,2:0:0:0:
281,53,223592,1,12,2:0:0:0:
281,53,223753,1,0,2:0:0:0:
324,124,223914,2,0,P|353:135|393:130,1,70.1259999999999,2|0,3:2|3:2,2:0:0:0:
465,91,224237,1,10,2:0:0:0:
459,175,224398,6,0,L|470:264,1,70.1259999999999,6|0,3:2|2:0,2:0:0:0:
413,309,224721,2,0,P|369:299|324:298,1,70.1259999999999,2|8,3:2|2:0,2:0:0:0:
309,373,225043,2,0,P|265:383|220:384,1,70.1259999999999,6|0,3:2|2:0,2:0:0:0:
205,309,225366,2,0,P|161:299|116:298,1,70.1259999999999,2|8,3:2|2:0,2:0:0:0:
56,324,225689,6,0,P|17:263|42:190,1,140.252,10|0,2:0|2:0,2:0:0:0:
83,133,226173,1,8,2:0:0:0:
83,133,226334,1,0,3:2:0:0:
126,61,226495,6,0,B|195:64,2,70.1259999999999,2|0|8,3:2|3:2|2:0,2:0:0:0:
83,133,226979,2,0,B|234:140,1,140.252,2|0,3:2|3:2,2:0:0:0:
287,193,227463,1,8,2:0:0:0:
287,193,227624,1,0,3:2:0:0:
224,249,227785,6,0,B|131:245,2,70.1259999999999,2|0|8,3:2|3:2|2:0,2:0:0:0:
303,275,228269,2,0,P|370:293|439:265,1,140.252,2|0,3:2|3:2,2:0:0:0:
473,194,228753,1,8,2:0:0:0:
473,194,228914,1,0,3:2:0:0:
425,124,229076,6,0,B|387:109|333:131,1,70.1259999999999,10|0,2:0|3:2,2:0:0:0:
292,183,229398,1,10,2:0:0:0:
251,111,229560,2,0,P|260:183|270:258,1,140.252,6|8,3:2|2:0,2:0:0:0:
227,322,230043,6,0,P|184:327|157:318,1,70.1259999999999,10|0,2:0|3:2,2:0:0:0:
101,256,230366,2,0,L|91:176,1,70.1259999999999,10|0,2:0|3:2,2:0:0:0:
48,114,230689,2,0,P|99:102|122:109,1,70.1259999999999,10|0,2:0|3:2,2:0:0:0:
172,165,231011,2,0,L|234:170,3,35.1353333333333,10|0|0|0,2:0|3:2|3:2|3:2,2:0:0:0:
229,146,231334,6,0,L|244:301,1,140.252,12|0,2:0|3:2,2:0:0:0:
299,347,231818,1,0,3:2:0:0:
356,285,231979,1,10,2:0:0:0:
432,319,232140,6,0,P|472:278|470:187,1,140.252,2|2,3:2|3:2,2:0:0:0:
410,145,232624,1,8,3:2:0:0:
436,64,232785,2,0,P|401:61|366:55,1,70.1259999999999,2|0,3:2|2:0,2:0:0:0:
306,114,233108,2,0,P|271:117|236:123,1,70.1259999999999,2|8,3:2|2:0,2:0:0:0:
164,79,233431,1,2,2:0:0:0:
96,128,233592,6,0,B|138:162|138:162|118:275,1,140.252,0|8,3:2|2:0,2:0:0:0:
167,318,234076,1,0,2:0:0:0:
250,329,234237,2,0,L|241:246,1,70.1259999999999,2|0,3:2|3:2,2:0:0:0:
293,150,234560,1,10,2:0:0:0:
212,173,234721,6,0,L|357:211,1,140.252,6|2,3:2|3:2,2:0:0:0:
423,171,235205,1,8,2:0:0:0:
490,221,235366,2,0,P|466:169|465:77,1,140.252,6|2,3:2|3:2,2:0:0:0:
402,28,235850,1,8,2:0:0:0:
325,62,236011,1,10,2:0:0:0:
325,62,236092,1,8,2:0:0:0:
325,62,236173,6,0,P|281:78|231:87,1,70.1259999999999,4|0,3:2|2:0,2:0:0:0:
271,166,236495,2,0,P|222:119|140:108,1,140.252,8|2,2:0|3:2,2:0:0:0:
83,153,236979,2,0,P|70:211|71:230,1,70.1259999999999,0|10,3:2|2:0,2:0:0:0:
69,305,237302,6,0,B|143:303|125:267|201:265,1,140.252,2|0,3:2|3:2,2:0:0:0:
281,288,237785,2,0,L|273:381,1,70.1259999999999,10|0,2:0|3:2,2:0:0:0:
363,254,238108,2,0,L|419:295,1,70.1259999999999,10|0,2:0|3:2,2:0:0:0:
345,171,238431,6,0,L|481:132,1,140.252,10|14,2:0|3:2,2:0:0:0:
483,216,238914,1,0,3:2:0:0:
413,62,239076,2,0,P|377:74|345:81,1,70.1259999999999,10|0,2:0|3:2,2:0:0:0:
245,49,239398,2,0,L|262:130,1,70.1259999999999,10|0,2:0|3:2,2:0:0:0:
241,199,239721,1,10,2:0:0:0:
163,231,239882,6,0,P|154:161|140:93,1,140.252,6|0,3:2|3:2,2:0:0:0:
140,93,240285,1,0,3:2:0:0:
140,93,240366,1,2,3:2:0:0:
61,166,240527,2,0,L|7:155,2,35.063,2|2|10,3:2|2:0|2:0,2:0:0:0:
257,297,241011,1,10,2:0:0:0:
451,166,241334,6,0,L|505:155,3,35.1353333333333,2|0|0|0,3:2|3:2|3:2|3:2,2:0:0:0:
488,198,241656,2,0,L|332:152,1,140.252,12|8,2:0|2:0,2:0:0:0:
298,95,242140,1,0,3:2:0:0:
239,155,242302,1,10,2:0:0:0:
159,126,242463,6,0,P|197:177|212:271,1,140.252,2|2,3:2|3:2,2:0:0:0:
155,311,242947,1,8,2:0:0:0:
74,285,243108,2,0,P|58:338|61:380,1,70.1259999999999,2|8,3:2|2:0,2:0:0:0:
15,215,243431,2,0,L|-6:122,1,70.1259999999999,2|8,3:2|2:0,2:0:0:0:
6,63,243753,6,0,B|82:77|52:113|128:126,1,140.252,14|8,3:2|2:0,2:0:0:0:
202,88,244237,1,8,2:0:0:0:
259,148,244398,1,8,2:0:0:0:
330,103,244560,2,0,L|327:39,2,35.063,8|8|8,2:0|2:0|2:0,2:0:0:0:
433,66,244882,1,10,2:0:0:0:
433,66,245043,6,0,L|418:156,1,70.1259999999999,10|0,3:2|2:0,2:0:0:0:
473,213,245366,1,10,3:2:0:0:
255,39,245689,1,10,3:2:0:0:
39,213,246011,1,2,3:2:0:0:
90,135,246173,2,0,L|79:66,1,70.1259999999999,8|2,3:2|3:2,2:0:0:0:
162,77,246495,6,0,P|235:123|305:132,1,140.252,6|8,3:2|2:0,2:0:0:0:
359,89,246979,1,0,3:2:0:0:
423,143,247140,2,0,P|437:187|440:224,1,70.1259999999999,2|0,3:2|3:2,2:0:0:0:
378,268,247463,1,10,2:0:0:0:
419,341,247624,6,0,B|346:331|377:296|292:287,1,140.252,2|0,3:2|3:2,2:0:0:0:
217,323,248108,2,0,L|203:237,1,70.1259999999999,10|0,2:0|3:2,2:0:0:0:
122,242,248431,2,0,L|133:311,1,70.1259999999999,2|0,3:2|3:2,2:0:0:0:
65,359,248753,1,10,2:0:0:0:
18,98,249076,6,0,L|106:128,1,70.1259999999999,6|0,3:2|3:2,2:0:0:0:
158,159,249398,1,10,2:0:0:0:
220,102,249560,1,0,3:2:0:0:
287,152,249721,2,0,P|351:148|426:212,1,140.252,10|10,2:0|3:2,2:0:0:0:
479,137,250205,6,0,P|452:195|440:284,1,140.252,6|8,3:2|2:0,2:0:0:0:
480,343,250689,1,8,2:0:0:0:
341,266,250850,2,0,L|257:283,1,70.1259999999999,8|8,2:0|3:2,2:0:0:0:
216,342,251173,1,8,2:0:0:0:
216,342,251253,1,8,2:0:0:0:
216,342,251334,1,8,3:2:0:0:
155,283,251495,1,0,3:2:0:0:
78,316,251656,6,0,L|66:218,1,70.1259999999999,14|2,2:0|3:2,2:0:0:0:
138,197,251979,2,0,L|126:99,1,70.1259999999999,10|2,2:0|3:2,2:0:0:0:
100,34,252302,1,10,2:0:0:0:
100,34,252463,2,0,L|196:62,1,70.1259999999999,2|8,3:2|2:0,2:0:0:0:
221,117,252785,6,0,B|278:108|278:108|298:82|298:82|346:73,1,140.252,2|2,3:2|3:2,2:0:0:0:
417,120,253269,1,8,2:0:0:0:
446,199,253431,1,2,3:2:0:0:
446,199,253511,1,0,3:2:0:0:
446,199,253592,2,0,P|447:252|441:284,1,70.1259999999999,8|0,2:0|3:2,2:0:0:0:
324,331,253914,2,0,P|323:278|329:246,1,70.1259999999999,8|0,2:0|3:2,2:0:0:0:
274,193,254237,5,10,2:0:0:0:
214,252,254398,1,2,3:2:0:0:
146,201,254560,2,0,L|69:187,1,70.1259999999999,10|2,2:0|3:2,2:0:0:0:
125,297,254882,2,0,L|112:383,2,70.1259999999999,10|10|8,2:0|3:2|2:0,2:0:0:0:
274,193,255366,6,0,L|292:339,1,140.252,6|6,3:2|3:2,2:0:0:0:
372,309,255850,1,0,2:0:0:0:
370,225,256011,2,0,L|463:249,1,70.1259999999999,6|8,3:2|2:3,2:0:0:0:
486,170,256334,2,0,L|334:132,1,140.252,2|0,3:2|3:2,2:0:0:0:
276,138,256818,6,0,P|345:103|351:8,2,157.620756008148,6|2|2,3:2|3:2|2:0,2:0:0:0:
160,87,258108,2,0,B|169:140|169:140|158:190|158:190|164:242,1,157.783506008148,2|2,3:2|3:2,2:0:0:0:
175,272,258673,1,0,3:2:0:0:
175,272,258753,2,0,L|285:253,1,105.189004005432,10|2,2:0|2:0,2:0:0:0:
299,154,259237,1,2,3:2:0:0:
401,158,259398,6,0,P|394:202|407:261,1,105.189004005432,4|8,3:2|2:0,2:0:0:0:
444,335,259882,1,0,3:2:0:0:
360,329,260043,2,0,L|286:333,1,70.1259999999999,8|0,2:0|3:2,2:0:0:0:
223,384,260366,1,10,2:0:0:0:
153,336,260527,1,10,3:2:0:0:
174,254,260689,6,0,L|210:244,3,35.1353333333333,10|8|8|8,2:0|2:0|3:2|2:0,2:0:0:0:
251,243,261011,2,0,L|287:253,3,35.1353333333333,10|8|10|8,2:0|2:0|2:0|2:0,2:0:0:0:
328,254,261334,2,0,L|364:244,3,35.1353333333333,8|8|8|8,2:0|2:0|2:0|2:0,2:0:0:0:
404,238,261656,2,0,P|408:188|394:140,1,70.1259999999999,10|10,2:0|2:0,2:0:0:0:
373,90,261979,2,0,P|323:86|275:100,1,70.1259999999999,6|0,3:2|3:2,2:0:0:0:
241,146,262302,1,8,2:0:0:0:
319,175,262463,6,0,B|246:182|269:219|190:226,1,140.252,6|10,3:2|3:2,2:0:0:0:
110,202,262947,1,8,3:2:0:0:
55,145,263108,6,0,P|77:201|79:297,1,140.252,14|0,3:2|3:2,2:0:0:0:
47,357,263592,2,0,L|116:361,1,70.1259999999999,8|0,2:0|3:2,2:0:0:0:
196,333,263914,2,0,L|205:269,3,35.1353333333333,8|0|2|0,2:0|3:2|3:2|3:2,2:0:0:0:
199,263,264237,2,0,L|208:199,3,35.1353333333333,10|0|2|0,2:0|3:2|3:2|3:2,2:0:0:0:
202,193,264560,1,6,3:2:0:0:
256,60,267140,6,0,L|107:76,1,140.252,14|8,3:2|2:0,2:0:0:0:
35,58,267624,1,0,3:2:0:0:
63,137,267785,2,0,P|62:171|45:211,1,70.1259999999999,8|0,2:0|3:2,2:0:0:0:
0,271,268108,1,10,2:0:0:0:
43,344,268269,1,0,3:2:0:0:
126,326,268431,6,0,L|190:335,3,35.1353333333333,10|0|0|0,2:0|3:2|3:2|3:2,2:0:0:0:
196,329,268753,2,0,L|260:338,3,35.1353333333333,10|8|10|8,2:0|2:0|2:0|2:0,2:0:0:0:
266,332,269076,2,0,L|330:341,3,35.1353333333333,8|8|8|8,2:0|2:0|2:0|2:0,2:0:0:0:
336,335,269398,2,0,L|400:344,3,35.1353333333333,10|8|10|8,2:0|2:0|2:0|2:0,2:0:0:0:
406,338,269721,6,0,L|415:238,1,70.1259999999999,6|0,3:2|2:0,2:0:0:0:
416,178,270043,2,0,B|343:185|366:222|287:229,1,140.252,8|2,2:0|3:2,2:0:0:0:
214,187,270527,1,0,2:0:0:0:
140,228,270689,2,0,L|149:300,1,70.1259999999999,10|0,2:0|2:0,2:0:0:0:
207,356,271011,6,0,P|153:340|70:375,1,140.252,2|10,3:2|2:0,2:0:0:0:
47,289,271495,2,0,P|60:256|67:222,1,70.1259999999999,2|0,2:0|3:2,2:0:0:0:
35,145,271818,2,0,P|24:111|19:77,1,70.1259999999999,2|8,2:0|2:0,2:0:0:0:
69,9,272140,6,0,P|161:25|141:117,1,210.378,2|8,2:0|2:0,2:0:0:0:
252,49,272947,2,0,L|332:58,1,70.1259999999999,8|10,3:2|3:2,2:0:0:0:
399,23,273269,1,10,2:0:0:0:
287,141,273431,6,0,L|300:238,1,70.1259999999999,6|0,3:2|2:0,2:0:0:0:
283,293,273753,2,0,L|369:298,1,70.1259999999999,2|8,3:2|2:0,2:0:0:0:
450,215,274076,2,0,L|309:205,1,140.252,6|2,3:2|3:2,2:0:0:0:
226,193,274560,1,8,2:0:0:0:
124,326,274882,6,0,L|133:242,1,70.1259999999999,6|0,3:2|3:2,2:0:0:0:
116,174,275205,1,10,2:0:0:0:
196,198,275366,1,2,3:2:0:0:
182,116,275527,2,0,L|274:99,1,70.1259999999999,10|10,2:0|2:0,2:0:0:0:
292,35,275850,1,10,2:0:0:0:
354,90,276011,6,0,P|354:159|339:228,1,140.252,6|8,3:2|2:3,2:0:0:0:
286,293,276495,2,0,L|199:282,1,70.1259999999999,2|4,2:0|2:3,2:0:0:0:
227,201,276818,2,0,L|140:190,1,70.1259999999999,2|0,2:0|3:2,2:0:0:0:
182,116,277140,1,2,3:2:0:0:
294,270,277463,6,0,P|321:209|302:128,1,140.252,6|0,3:2|3:2,2:0:0:0:
254,73,277947,1,0,3:2:0:0:
182,116,278108,2,0,P|134:131|84:116,1,70.1259999999999,8|8,2:0|2:0,2:0:0:0:
30,75,278431,2,0,L|13:174,1,70.1259999999999,8|8,2:0|2:0,2:0:0:0:
11,243,278753,6,0,P|58:227|108:243,1,70.1259999999999,10|8,2:0|2:0,2:0:0:0:
163,284,279076,2,0,L|179:184,1,70.1259999999999,8|8,2:0|2:0,2:0:0:0:
255,254,279398,2,0,L|264:313,3,35.1353333333333,10|8|8|8,2:0|2:0|2:0|2:0,2:0:0:0:
269,326,279721,1,8,2:0:0:0:
370,280,279882,1,6,3:2:0:0:
256,192,279963,12,0,283914,2:0:0:0:
