osu file format v14

[General]
AudioFilename: audio.mp3
AudioLeadIn: 0
PreviewTime: 124156
Countdown: 0
SampleSet: Soft
StackLeniency: 0.7
Mode: 0
LetterboxInBreaks: 0
WidescreenStoryboard: 1

[Editor]
Bookmarks: 103673,210527,210769,210931,211092,211253,211414,211576,211737,211898,212060,212221,212382,212543,212705,212866,213027,213189,213350,213511,264721,264882,265043,265205,265366,265527,265689,265850,266011,266173,266334,266495,266737,266898,266979
DistanceSpacing: 0.9
BeatDivisor: 4
GridSize: 32
TimelineZoom: 3.699998

[Metadata]
Title:Soundscape
TitleUnicode:サウンドスケープ
Artist:TRUE
ArtistUnicode:TRUE
Creator:SkyFlame
Version:Melody
Source:響け!ユーフォニアム2
Tags:sound hibike euphonium season 2 opening full size anime -laura- akitoshi corinn kalibe kibbleru kowari meg iMage-- japanese OP ver. version female vocal pop jpop
BeatmapID:2272898
BeatmapSetID:534054

[Difficulty]
HPDrainRate:6
CircleSize:4
OverallDifficulty:9.5
ApproachRate:9.5
SliderMultiplier:1.9
SliderTickRate:1

[Events]
//Background and Video events
0,0,"background.jpg",0,0
//Break Periods
2,210366,213067
2,264760,266454
//Storyboard Layer 0 (Background)
//Storyboard Layer 1 (Fail)
//Storyboard Layer 2 (Pass)
//Storyboard Layer 3 (Foreground)
//Storyboard Layer 4 (Overlay)
//Storyboard Sound Samples

[TimingPoints]
44,322.58064516129,4,2,1,60,1,0
1011,-133.333333333333,4,2,1,60,0,0
1252,-133.333333333333,4,2,1,5,0,0
1334,-133.333333333333,4,2,1,60,0,0
6495,-98.0392156862745,4,2,1,70,0,0
13592,-98.0392156862745,4,2,1,60,0,0
14237,-133.333333333333,4,2,1,50,0,0
22302,-133.333333333333,4,2,1,60,0,0
23431,-98.0392156862745,4,2,1,60,0,0
24237,-133.333333333333,4,2,1,60,0,0
24560,-98.0392156862745,4,2,1,60,0,0
35205,-133.333333333333,4,2,1,50,0,0
38592,-98.0392156862745,4,2,1,60,0,0
44075,-98.0392156862745,4,2,1,70,0,0
46011,-98.0392156862745,4,2,1,50,0,0
46173,-98.0392156862745,4,2,1,45,0,0
46334,-98.0392156862745,4,2,1,70,0,0
46710,-98.0392156862745,4,2,1,50,0,0
46925,-98.0392156862745,4,2,1,55,0,0
47140,-98.0392156862745,4,2,1,60,0,0
47355,-98.0392156862745,4,2,1,65,0,0
47570,-98.0392156862745,4,2,1,70,0,0
47785,-98.0392156862745,4,2,1,80,0,0
48108,-98.0392156862745,4,2,1,60,0,0
48349,-98.0392156862745,4,2,1,5,0,0
48431,-70.4225352112676,4,2,1,60,0,0
48753,-98.0392156862745,4,2,1,60,0,0
49076,-98.0392156862745,4,2,1,70,0,0
49398,-71.4285714285714,4,2,1,90,0,1
49639,-71.4285714285714,4,2,1,5,0,1
49721,-71.4285714285714,4,2,1,80,0,1
50205,-90.9090909090909,4,2,1,80,0,1
59398,-90.9090909090909,4,2,1,80,0,0
59721,-71.4285714285714,4,2,1,90,0,1
60043,-90.9090909090909,4,2,1,80,0,1
69640,-90.9090909090909,4,2,1,80,0,0
69721,-90.9090909090909,4,2,1,80,0,1
74882,-133.333333333333,4,2,1,60,0,0
77463,-133.333333333333,4,2,1,80,0,1
78914,-90.9090909090909,4,2,1,80,0,1
80043,-98.0392156862745,4,2,1,60,0,0
80284,-98.0392156862745,4,2,1,5,0,0
80366,-98.0392156862745,4,2,1,90,0,1
80527,-98.0392156862745,4,2,1,70,0,0
89721,-98.0392156862745,4,2,1,75,0,0
90366,-98.0392156862745,4,2,1,60,0,0
98431,-98.0392156862745,4,2,1,65,0,0
100366,-133.333333333333,4,2,1,60,0,0
100607,-133.333333333333,4,2,1,5,0,0
100689,-98.0392156862745,4,2,1,60,0,0
111334,-133.333333333333,4,2,1,55,0,0
114721,-98.0392156862745,4,2,1,60,0,0
120205,-98.0392156862745,4,2,1,70,0,0
122140,-98.0392156862745,4,2,1,50,0,0
122302,-98.0392156862745,4,2,1,45,0,0
122463,-98.0392156862745,4,2,1,70,0,0
122785,-98.0392156862745,4,2,1,50,0,0
123054,-98.0392156862745,4,2,1,55,0,0
123269,-98.0392156862745,4,2,1,60,0,0
123484,-98.0392156862745,4,2,1,65,0,0
123699,-98.0392156862745,4,2,1,70,0,0
123914,-98.0392156862745,4,2,1,80,0,0
124237,-98.0392156862745,4,2,1,60,0,0
124478,-98.0392156862745,4,2,1,5,0,0
124560,-98.0392156862745,4,2,1,60,0,0
125205,-98.0392156862745,4,2,1,70,0,0
125527,-71.4285714285714,4,2,1,90,0,1
125768,-71.4285714285714,4,2,1,5,0,1
125850,-90.9090909090909,4,2,1,80,0,1
135527,-90.9090909090909,4,2,1,80,0,0
135850,-71.4285714285714,4,2,1,90,0,1
136173,-71.4285714285714,4,2,1,80,0,1
136656,-90.9090909090909,4,2,1,80,0,1
145769,-90.9090909090909,4,2,1,80,0,0
145850,-90.9090909090909,4,2,1,80,0,1
151011,-133.333333333333,4,2,1,60,0,0
153592,-98.0392156862745,4,2,1,80,0,1
155850,-90.9090909090909,4,2,1,80,0,1
156173,-133.333333333333,4,2,1,60,0,0
161334,-121.951219512195,4,2,1,65,0,0
163914,-98.0392156862745,4,2,1,70,0,0
166334,-89.2857142857143,4,2,1,70,0,0
166575,-89.2857142857143,4,2,1,5,0,0
166656,-89.2857142857143,4,2,1,70,0,0
176818,-89.2857142857143,4,2,1,74,0,0
181979,-121.951219512195,4,2,1,68,0,0
184560,-98.0392156862745,4,2,1,62,0,0
185689,-89.2857142857143,4,2,1,70,0,0
187140,-89.2857142857143,4,2,1,72,0,0
190850,-105.263157894737,4,2,1,72,0,0
191495,-98.0392156862745,4,2,1,72,0,0
194882,-98.0392156862745,4,2,1,76,0,0
196495,-98.0392156862745,4,2,1,75,0,0
197463,-108.695652173913,4,2,1,70,0,0
200043,-98.0392156862745,4,2,1,72,0,0
202624,-98.0392156862745,4,2,1,60,0,0
202947,-98.0392156862745,4,2,1,90,0,0
203269,-98.0392156862745,4,2,1,60,0,0
203592,-98.0392156862745,4,2,1,90,0,0
203914,-98.0392156862745,4,2,1,60,0,0
204237,-98.0392156862745,4,2,1,90,0,0
204560,-98.0392156862745,4,2,1,60,0,0
204882,-98.0392156862745,4,2,1,90,0,0
205205,-98.0392156862745,4,2,1,80,0,0
206334,-81.9672131147541,4,2,1,80,0,0
207140,-100,4,2,1,80,0,0
207785,-100,4,2,1,85,0,0
213592,-100,4,2,1,70,0,0
213753,-98.0392156862745,4,2,1,70,0,0
214076,-71.4285714285714,4,2,1,80,0,1
215205,-90.9090909090909,4,2,1,80,0,1
215447,-90.9090909090909,4,2,1,80,0,0
215527,-90.9090909090909,4,2,1,80,0,1
220689,-90.9090909090909,4,2,1,80,0,0
221011,-71.4285714285714,4,2,1,90,0,1
221252,-71.4285714285714,4,2,1,5,0,1
221334,-71.4285714285714,4,2,1,80,0,1
221818,-90.9090909090909,4,2,1,80,0,1
231011,-90.9090909090909,4,2,1,80,0,0
231334,-71.4285714285714,4,2,1,90,0,1
231656,-71.4285714285714,4,2,1,85,0,1
232140,-83.3333333333333,4,2,1,85,0,1
241334,-83.3333333333333,4,2,1,85,0,0
241656,-83.3333333333333,4,2,1,92,0,1
246495,-83.3333333333333,4,2,1,80,0,1
251576,-83.3333333333333,4,2,1,85,0,0
251656,-83.3333333333333,4,2,1,85,0,1
256818,-133.333333333333,4,2,1,60,0,0
259398,-133.333333333333,4,2,1,80,0,1
261979,-133.333333333333,4,2,1,90,0,1
262463,-98.0392156862745,4,2,1,90,0,1
264560,-98.0392156862745,4,2,1,45,0,0
267140,-98.0392156862745,4,2,1,75,0,1
268431,-98.0392156862745,4,2,1,80,0,1
269721,-98.0392156862745,4,2,1,70,0,0
276011,-98.0392156862745,4,2,1,65,0,0
277463,-98.0392156862745,4,2,1,70,0,0
279882,-98.0392156862745,4,2,1,72,0,0
283914,-98.0392156862745,4,2,1,5,0,0

[Colours]
Combo1 : 138,104,155
Combo2 : 92,132,204
Combo3 : 231,200,109
Combo4 : 189,141,163

[HitObjects]
347,266,850,5,0,3:2:0:0:
347,266,1011,2,0,L|219:255,1,107.288254076958,12|0,2:0|2:0,2:0:0:0:
208,256,1334,5,14,2:0:0:0:
408,92,1495,1,10,2:0:0:0:
314,358,1656,1,10,2:0:0:0:
191,36,1979,5,10,2:0:0:0:
447,226,2302,5,10,2:0:0:0:
138,275,2463,1,10,2:0:0:0:
356,28,2785,5,10,2:0:0:0:
293,250,3108,5,10,2:0:0:0:
106,119,3269,1,10,2:0:0:0:
310,227,3431,1,10,2:0:0:0:
25,339,3592,1,10,2:0:0:0:
156,34,3914,5,10,2:0:0:0:
247,291,4076,1,10,2:0:0:0:
365,114,4237,1,10,2:0:0:0:
106,119,4560,5,10,2:0:0:0:
480,147,4882,5,10,2:0:0:0:
239,319,5043,1,10,2:0:0:0:
320,53,5366,5,10,2:0:0:0:
392,358,5689,5,10,2:0:0:0:
392,358,5769,1,8,2:0:0:0:
392,358,5850,1,10,2:0:0:0:
423,322,5931,1,8,2:0:0:0:
427,275,6011,1,8,2:0:0:0:
411,230,6092,1,8,2:0:0:0:
389,188,6173,1,10,2:0:0:0:
378,142,6253,1,8,2:0:0:0:
391,96,6334,1,8,2:0:0:0:
418,58,6414,1,8,2:0:0:0:
448,22,6495,6,0,P|335:40|238:52,1,194.148841182861,6|8,3:2|2:0,2:0:0:0:
134,200,6979,1,0,2:0:0:0:
277,303,7140,2,0,P|285:249|294:204,1,97.0744205914306,2|0,3:2|2:0,2:0:0:0:
140,18,7463,2,0,P|149:65|156:113,1,97.0744205914306,10|0,2:0|2:0,2:0:0:0:
331,185,7785,6,0,P|341:103|236:53,1,194.148841182861,2|10,3:2|2:0,2:0:0:0:
147,213,8269,2,0,P|156:260|163:308,1,97.0744205914306,2|0,2:0|3:2,2:0:0:0:
366,350,8592,1,2,2:0:0:0:
262,133,8753,1,8,2:0:0:0:
74,278,8914,1,2,2:0:0:0:
255,234,9076,6,0,B|370:227|322:278|450:272,1,194.148841182861,4|8,3:2|2:0,2:0:0:0:
281,328,9560,1,0,2:0:0:0:
405,184,9721,5,8,3:2:0:0:
207,134,9882,1,10,3:2:0:0:
365,344,10043,1,10,2:0:0:0:
460,41,10205,1,6,3:2:0:0:
441,48,10527,5,2,3:2:0:0:
256,247,10689,1,8,2:0:0:0:
146,0,10850,1,6,3:2:0:0:
132,23,11173,5,2,3:2:0:0:
310,143,11334,2,0,L|407:130,1,97.0744205914306,8|0,2:0|2:0,2:0:0:0:
497,119,11656,1,6,3:2:0:0:
497,119,11979,5,10,2:0:0:0:
325,322,12140,1,2,3:2:0:0:
248,72,12302,1,10,2:0:0:0:
471,266,12463,1,10,3:2:0:0:
210,219,12624,1,10,3:2:0:0:
388,28,12785,6,0,B|427:88|427:88|400:210,1,194.148841182861,6|8,3:2|2:0,2:0:0:0:
359,345,13269,1,8,2:0:0:0:
245,101,13431,1,8,2:0:0:0:
147,274,13592,1,8,2:0:0:0:
100,286,13673,1,0,3:2:0:0:
53,276,13753,1,0,3:2:0:0:
17,245,13834,1,0,3:2:0:0:
0,200,13914,2,0,P|6:152|16:104,1,97.0744205914306,10|0,2:0|3:2,2:0:0:0:
144,26,14237,6,0,P|155:97|171:166,1,142.756505435944,6|0,2:0|3:2,2:0:0:0:
265,222,14721,1,0,2:0:0:0:
265,222,14882,2,0,P|300:216|335:208,1,71.3782527179718,0|0,3:2|2:0,2:0:0:0:
461,136,15205,2,0,P|425:130|391:122,1,71.3782527179718,2|0,3:2|2:0,2:0:0:0:
424,279,15527,2,0,P|459:284|493:292,1,71.3782527179718,2|0,3:2|2:0,2:0:0:0:
291,118,15850,6,0,P|256:124|221:132,1,71.3782527179718,2|0,3:2|2:0,2:0:0:0:
95,204,16173,2,0,P|131:210|165:218,1,71.3782527179718,2|0,3:2|2:0,2:0:0:0:
87,87,16495,2,0,P|51:93|17:101,1,71.3782527179718,2|0,3:2|2:0,2:0:0:0:
134,290,16818,6,0,P|216:276|242:208,1,142.756505435944,2|2,3:2|3:2,2:0:0:0:
210,117,17302,1,0,2:0:0:0:
210,117,17463,2,0,P|246:123|280:131,1,71.3782527179718,2|0,3:2|2:0,2:0:0:0:
388,237,17785,6,0,B|369:187|369:187|396:95,1,142.756505435944,6|0,3:2|3:2,2:0:0:0:
448,7,18269,1,0,2:0:0:0:
468,157,18431,1,0,3:2:0:0:
298,57,18592,1,8,2:0:0:0:
264,271,18753,6,0,P|258:235|252:201,1,71.3782527179718,2|0,3:2|2:0,2:0:0:0:
90,84,19076,2,0,P|124:90|160:96,1,71.3782527179718,2|0,3:2|2:0,2:0:0:0:
295,71,19398,6,0,P|347:54|432:33,1,142.756505435944,6|0,3:2|3:2,2:0:0:0:
512,144,19882,1,0,2:0:0:0:
408,211,20043,2,0,P|372:204|338:199,1,71.3782527179718,2|0,3:2|2:0,2:0:0:0:
219,37,20366,2,0,P|225:71|231:107,1,71.3782527179718,2|0,3:2|2:0,2:0:0:0:
206,241,20689,6,0,P|189:293|168:378,1,142.314755435944,2|0,3:2|3:2,2:0:0:0:
76,252,21173,1,0,2:0:0:0:
262,330,21334,2,0,P|295:320|330:311,1,71.3782527179718,2|0,3:2|2:0,2:0:0:0:
366,142,21656,2,0,P|333:152|298:161,1,71.3782527179718,2|0,3:2|2:0,2:0:0:0:
420,300,21979,5,14,2:0:0:0:
420,300,22302,5,10,3:2:0:0:
466,297,22382,1,8,2:0:0:0:
501,268,22463,1,10,2:0:0:0:
512,224,22543,1,8,2:0:0:0:
493,182,22624,1,8,3:2:0:0:
450,165,22705,1,8,2:0:0:0:
405,169,22785,1,8,2:0:0:0:
365,192,22866,1,8,2:0:0:0:
339,239,22947,1,10,2:0:0:0:
306,270,23027,1,8,2:0:0:0:
262,283,23108,1,10,2:0:0:0:
216,277,23189,1,8,2:0:0:0:
179,251,23269,1,0,3:2:0:0:
126,65,23431,6,0,P|198:86|220:81,1,97.0744205914306,10|0,3:2|3:2,2:0:0:0:
0,127,23753,1,10,3:2:0:0:
179,251,23914,1,6,2:0:0:0:
185,7,24076,1,2,3:2:0:0:
92,248,24237,2,0,P|96:283|113:314,1,71.3782527179718,14|0,2:0|2:0,2:0:0:0:
327,198,24560,6,0,B|212:205|260:154|132:160,1,194.148841182861,6|8,3:2|2:0,2:0:0:0:
0,261,25043,1,0,2:0:0:0:
195,346,25205,2,0,P|240:332|289:319,1,97.0744205914306,0|0,3:2|3:2,2:0:0:0:
47,132,25527,2,0,P|92:146|141:159,1,97.0744205914306,10|0,2:0|2:0,2:0:0:0:
327,198,25850,6,0,P|284:219|236:224,1,97.0744205914306,2|0,3:2|2:0,2:0:0:0:
72,349,26173,2,0,P|86:304|99:255,1,97.0744205914306,10|0,2:0|2:0,2:0:0:0:
231,48,26495,2,0,P|243:94|257:141,1,97.0744205914306,2|0,3:2|3:2,2:0:0:0:
393,289,26818,1,10,2:0:0:0:
445,169,26979,1,0,2:0:0:0:
245,236,27140,2,0,P|347:211|453:189,2,193.848451182861,2|10|2,3:2|2:0|3:2,2:0:0:0:
97,334,27947,1,0,3:2:0:0:
0,143,28108,6,0,P|72:149|193:81,1,194.148841182861,14|0,2:0|3:2,2:0:0:0:
178,97,28592,1,0,3:2:0:0:
245,236,28753,1,8,2:0:0:0:
308,34,28914,1,2,2:0:0:0:
308,34,28995,1,2,2:0:0:0:
308,34,29076,2,0,P|359:46|412:57,1,97.0744205914306,2|0,3:2|3:2,2:0:0:0:
339,214,29398,2,0,P|291:224|244:235,1,97.0744205914306,10|0,2:0|2:0,2:0:0:0:
430,152,29721,6,0,P|455:206|376:316,1,194.148841182861,6|8,3:2|2:0,2:0:0:0:
205,332,30205,1,2,2:0:0:0:
205,332,30285,1,2,2:0:0:0:
205,332,30366,2,0,P|154:320|101:309,1,97.6752005914306,2|0,3:2|2:0,2:0:0:0:
174,152,30689,2,0,P|222:142|269:131,1,97.0744205914306,10|0,2:0|2:0,2:0:0:0:
83,214,31011,6,0,P|58:160|137:50,1,194.749621182861,2|8,3:2|2:0,2:0:0:0:
351,210,31495,1,2,2:0:0:0:
351,210,31576,1,2,2:0:0:0:
351,210,31656,2,0,P|339:261|328:314,1,97.6752005914306,2|0,3:2|3:2,2:0:0:0:
171,241,31979,2,0,P|161:193|150:146,1,97.0744205914306,10|0,2:0|2:0,2:0:0:0:
335,47,32302,5,6,3:2:0:0:
143,126,32463,1,0,3:2:0:0:
422,252,32624,1,10,2:0:0:0:
160,345,32785,2,0,B|93:357|33:377|33:377|-6:361|2:301,1,194.148841182861,2|0,2:0|3:2,2:0:0:0:
63,229,33269,1,10,2:0:0:0:
281,321,33431,2,0,P|347:302|381:182,1,194.148841182861,6|8,3:2|2:3,2:0:0:0:
237,50,33914,5,8,2:3:0:0:
465,134,34076,1,4,3:2:0:0:
294,228,34237,5,8,2:0:0:0:
378,0,34398,1,0,3:2:0:0:
384,192,34560,5,8,2:3:0:0:
147,80,34721,1,8,2:3:0:0:
317,80,34882,5,4,3:2:0:0:
188,259,35205,2,0,P|152:265|118:273,1,71.3782527179718,2|0,3:2|2:0,2:0:0:0:
243,169,35527,2,0,L|383:191,1,142.756505435944,10|2,2:0|3:2,2:0:0:0:
299,346,36011,2,0,P|293:310|285:276,1,71.3782527179718,2|0,3:2|2:0,2:0:0:0:
137,166,36334,5,8,2:0:0:0:
329,103,36495,2,0,P|365:109|399:117,1,71.3782527179718,2|0,3:2|3:2,2:0:0:0:
174,38,36818,2,0,P|138:44|104:52,1,71.3782527179718,10|0,2:0|3:2,2:0:0:0:
243,169,37140,1,2,3:2:0:0:
362,26,37302,1,2,2:0:0:0:
456,206,37463,6,0,P|386:221|317:238,1,142.756505435944,4|2,3:2|3:2,2:0:0:0:
168,116,37947,1,0,2:0:0:0:
105,277,38108,5,10,3:2:0:0:
310,124,38269,1,8,2:0:0:0:
369,358,38431,1,10,2:0:0:0:
151,196,38592,6,0,B|74:182|33:221|33:221|-1:197|0:163,1,194.148841182861,14|10,2:0|3:2,2:0:0:0:
207,29,39076,1,10,3:2:0:0:
289,221,39237,2,0,P|386:186|400:76,1,194.148841182861,14|0,3:2|3:2,2:0:0:0:
366,307,39721,1,8,2:3:0:0:
204,151,39882,1,0,3:2:0:0:
204,151,39963,1,0,3:2:0:0:
204,151,40043,6,0,P|197:198|187:246,1,97.0744205914306,4|0,3:2|2:0,2:0:0:0:
130,66,40366,2,0,P|87:42|46:17,1,97.0744205914306,10|0,2:0|3:2,2:0:0:0:
245,51,40689,2,0,P|286:73|328:99,1,97.0744205914306,2|0,3:2|3:2,2:0:0:0:
98,169,41011,2,0,P|50:178|2:186,1,97.0744205914306,10|0,2:0|2:0,2:0:0:0:
220,328,41334,6,0,P|268:319|316:311,1,97.0744205914306,6|0,3:2|2:0,2:0:0:0:
221,146,41656,1,10,2:0:0:0:
424,91,41818,1,2,2:0:0:0:
424,91,41898,1,2,2:0:0:0:
424,91,41979,2,0,P|416:138|407:186,1,97.0744205914306,2|0,3:2|3:2,2:0:0:0:
191,239,42302,2,0,P|199:286|207:334,1,97.0744205914306,10|0,2:0|2:0,2:0:0:0:
413,315,42624,6,0,P|399:250|274:219,1,194.148841182861,6|8,3:2|2:0,2:0:0:0:
121,352,43108,1,0,2:0:0:0:
49,155,43269,5,10,2:0:0:0:
49,155,43350,1,8,2:0:0:0:
49,155,43431,2,0,P|72:151|96:146,1,48.8376002957153,8|8,2:0|2:0,2:0:0:0:
275,95,43592,1,8,2:0:0:0:
205,316,43753,6,0,B|193:249|173:189|173:189|189:150|249:158,1,194.148841182861,6|2,3:2|3:2,2:0:0:0:
424,93,44237,1,10,2:0:0:0:
316,322,44398,1,2,3:2:0:0:
156,62,44560,5,10,2:0:0:0:
460,177,44721,1,2,3:2:0:0:
131,329,44882,5,10,2:0:0:0:
306,56,45043,1,2,3:2:0:0:
378,372,45205,5,8,2:0:0:0:
81,206,45366,1,2,3:2:0:0:
395,106,45527,5,10,2:0:0:0:
252,357,45689,1,10,2:0:0:0:
252,357,45769,1,8,2:0:0:0:
252,357,45850,1,6,2:3:0:0:
112,102,46011,5,6,2:3:0:0:
326,303,46173,1,6,2:3:0:0:
483,12,46334,1,14,2:0:0:0:
151,115,46710,5,10,2:0:0:0:
263,328,46925,5,10,2:0:0:0:
350,15,47140,5,10,2:0:0:0:
129,266,47355,5,10,2:0:0:0:
260,16,47570,5,10,2:0:0:0:
362,381,47785,5,14,2:0:0:0:
184,204,48108,6,0,P|265:194|345:187,1,145.912020887146,2|0,2:0|2:0,2:0:0:0:
353,203,48431,6,0,P|347:121|398:79,1,135.142813207245,2|0,2:0|3:2,2:0:0:0:
512,168,48673,1,0,3:2:0:0:
512,168,48753,2,0,P|441:159|371:153,1,97.0744205914306,10|0,2:0|2:0,2:0:0:0:
255,263,49076,1,10,2:0:0:0:
257,279,49156,1,8,2:0:0:0:
259,295,49237,1,8,2:0:0:0:
261,312,49318,1,8,2:0:0:0:
263,328,49398,6,0,P|160:260|95:303,1,200.271393911743,12|0,3:2|2:0,2:0:0:0:
55,351,49721,5,0,3:2:0:0:
185,178,49882,1,0,3:2:0:0:
0,91,50043,1,10,2:0:0:0:
185,178,50205,6,0,P|229:170|289:153,1,104.688103189087,2|0,3:2|2:0,2:0:0:0:
439,377,50527,2,0,P|386:363|334:354,1,104.688103189087,2|8,3:2|3:2,2:0:0:0:
399,126,50850,2,0,P|407:170|424:230,1,104.688103189087,2|0,3:2|2:0,2:0:0:0:
200,380,51173,2,0,P|214:327|223:275,1,104.040203189087,2|8,3:2|2:0,2:0:0:0:
254,81,51495,1,2,2:0:0:0:
254,81,51576,1,2,2:0:0:0:
254,81,51656,6,0,P|210:73|150:56,1,104.688103189087,0|0,3:2|2:0,2:0:0:0:
222,278,51979,2,0,P|266:286|326:303,1,104.688103189087,8|0,2:0|2:0,2:0:0:0:
183,152,52302,1,2,3:2:0:0:
86,367,52463,1,0,3:2:0:0:
334,215,52624,1,10,2:0:0:0:
101,289,52785,6,0,P|57:281|-3:264,1,104.688103189087,6|0,3:2|2:0,2:0:0:0:
195,132,53108,1,2,3:2:0:0:
255,364,53269,1,8,2:0:0:0:
407,139,53431,6,0,P|451:147|511:164,1,104.688103189087,6|0,3:2|2:0,2:0:0:0:
313,296,53753,1,2,3:2:0:0:
253,64,53914,1,8,2:0:0:0:
149,246,54076,1,10,2:0:0:0:
149,246,54156,1,8,2:0:0:0:
149,246,54237,6,0,B|275:253|222:197|364:204,1,209.376206378174,4|8,3:2|2:0,2:0:0:0:
417,375,54721,1,0,2:0:0:0:
469,198,54882,2,0,P|441:121|423:105,1,104.688103189087,2|0,3:2|3:2,2:0:0:0:
313,296,55205,1,10,2:0:0:0:
190,166,55366,6,0,B|109:140|61:182|61:182|28:160|21:123,1,209.376206378174,2|0,3:2|3:2,2:0:0:0:
137,44,55850,2,0,P|181:52|241:69,1,104.688103189087,10|0,2:0|3:2,2:0:0:0:
424,33,56173,5,2,2:0:0:0:
273,183,56334,1,0,3:2:0:0:
279,202,56414,1,0,3:2:0:0:
285,221,56495,2,0,P|326:203|385:185,1,104.688103189087,10|0,2:0|2:0,2:0:0:0:
501,189,56818,5,2,3:2:0:0:
277,23,56979,1,0,3:2:0:0:
310,318,57140,5,10,2:0:0:0:
501,114,57302,1,0,3:2:0:0:
204,70,57463,5,10,2:0:0:0:
365,378,57624,1,0,3:2:0:0:
510,24,57785,5,10,2:0:0:0:
149,131,57947,2,0,P|108:113|49:95,1,104.688103189087,6|0,3:2|2:0,2:0:0:0:
277,23,58269,1,8,2:0:0:0:
129,216,58431,1,2,3:2:0:0:
129,216,58511,1,0,3:2:0:0:
129,216,58592,2,0,P|133:243|139:271,1,52.6680015945434,0|0,3:2|3:2,2:0:0:0:
235,370,58753,6,0,P|244:318|254:267,1,104.688103189087,10|0,2:0|3:2,2:0:0:0:
112,84,59076,2,0,P|152:118|191:153,1,104.688103189087,10|0,2:0|3:2,2:0:0:0:
428,265,59398,1,2,3:2:0:0:
453,232,59479,1,0,3:2:0:0:
460,191,59559,1,0,3:2:0:0:
448,152,59640,1,0,3:2:0:0:
420,121,59721,6,0,P|353:144|284:167,1,133.239395941162,12|0,2:0|2:0,2:0:0:0:
67,197,60043,2,0,P|116:213|166:231,1,104.688103189087,0|0,3:2|3:2,2:0:0:0:
347,318,60366,1,10,2:0:0:0:
327,64,60527,6,0,P|311:113|293:163,1,104.688103189087,2|0,3:2|2:0,2:0:0:0:
199,329,60850,2,0,P|181:279|165:230,1,104.688103189087,2|8,3:2|2:0,2:0:0:0:
99,103,61173,2,0,P|148:119|198:137,1,104.688103189087,2|0,3:2|2:0,2:0:0:0:
357,229,61495,1,2,3:2:0:0:
108,302,61656,1,8,2:0:0:0:
293,162,61818,1,6,2:0:0:0:
383,344,61979,6,0,P|432:328|482:310,1,104.688103189087,0|0,3:2|3:2,2:0:0:0:
383,50,62302,1,12,2:0:0:0:
209,287,62463,1,0,2:0:0:0:
487,196,62624,1,0,3:2:0:0:
209,107,62785,1,0,3:2:0:0:
383,344,62947,1,10,2:0:0:0:
209,107,63108,6,0,P|158:118|106:128,1,104.688103189087,6|0,3:2|2:0,2:0:0:0:
318,241,63431,2,0,P|368:252|420:262,1,104.688103189087,2|8,3:2|2:0,2:0:0:0:
124,336,63753,2,0,P|73:347|21:357,1,104.688103189087,6|0,3:2|2:0,2:0:0:0:
262,366,64076,2,0,P|312:355|364:345,1,104.688103189087,2|8,3:2|2:0,2:0:0:0:
211,208,64398,1,0,3:2:0:0:
211,208,64479,1,0,3:0:0:0:
211,208,64560,6,0,B|135:225|67:187|67:187|32:200|21:243,1,209.376206378174,6|8,3:2|2:0,2:0:0:0:
124,336,65043,1,0,3:2:0:0:
313,242,65205,2,0,P|302:192|292:140,1,104.688103189087,2|0,3:2|3:2,2:0:0:0:
158,21,65527,1,10,2:0:0:0:
166,131,65689,6,0,P|264:116|293:21,1,209.376206378174,2|0,3:2|3:2,2:0:0:0:
90,67,66173,2,0,P|80:118|68:169,1,104.688103189087,10|0,2:0|3:2,2:0:0:0:
166,273,66495,1,2,3:2:0:0:
205,50,66656,1,0,3:2:0:0:
303,154,66818,2,0,P|354:163|405:175,1,104.688103189087,10|0,2:0|3:2,2:0:0:0:
512,96,67140,5,6,3:2:0:0:
358,287,67302,1,0,3:2:0:0:
209,154,67463,2,0,P|158:163|107:175,1,104.688103189087,10|0,2:0|3:2,2:0:0:0:
36,314,67785,2,0,P|61:309|87:303,1,52.6680015945434,10|0,2:0|3:2,2:0:0:0:
164,251,67947,2,0,P|187:263|210:274,1,52.0201015945434,0|0,3:2|3:2,2:0:0:0:
264,352,68108,1,10,3:2:0:0:
320,200,68269,6,0,B|326:70|271:121|279:-1,1,209.376206378174,6|8,3:2|2:0,2:0:0:0:
209,154,68753,1,8,2:0:0:0:
369,37,68914,1,8,2:0:0:0:
406,271,69076,1,8,3:2:0:0:
271,85,69237,5,8,2:0:0:0:
271,85,69318,1,8,2:0:0:0:
271,85,69398,2,0,P|253:82|215:69,1,52.6680015945434,8|0,3:2|3:2,2:0:0:0:
123,193,69560,2,0,P|105:196|67:209,1,52.6680015945434,0|0,3:2|3:2,2:0:0:0:
39,71,69721,5,14,2:0:0:0:
305,215,69882,1,2,3:2:0:0:
48,336,70043,5,10,2:0:0:0:
134,57,70205,1,2,3:2:0:0:
306,297,70366,5,10,2:0:0:0:
0,262,70527,1,2,3:2:0:0:
250,79,70689,5,8,2:0:0:0:
324,377,70850,1,2,3:2:0:0:
324,377,70931,1,0,3:2:0:0:
324,377,71011,1,8,0:0:0:0:
405,24,71173,5,2,3:2:0:0:
405,24,71253,1,0,3:2:0:0:
405,24,71334,1,8,2:0:0:0:
66,114,71495,1,2,3:2:0:0:
443,161,71656,5,8,2:0:0:0:
147,325,71818,1,0,3:2:0:0:
266,18,71979,5,8,2:0:0:0:
454,298,72140,1,0,3:2:0:0:
91,186,72302,5,10,2:0:0:0:
435,59,72463,1,2,3:2:0:0:
112,197,72624,5,10,2:0:0:0:
454,298,72785,1,2,3:2:0:0:
90,313,72947,5,10,2:0:0:0:
337,73,73108,1,10,3:2:0:0:
228,376,73269,5,8,2:0:0:0:
72,81,73431,1,6,3:2:0:0:
418,179,73753,5,6,3:2:0:0:
58,298,74076,5,6,3:2:0:0:
252,142,74398,1,2,3:2:0:0:
249,173,74479,1,0,3:2:0:0:
246,204,74560,1,12,2:0:0:0:
364,94,74721,5,8,3:2:0:0:
162,59,74882,6,0,P|242:47|310:33,1,142.756505435944,6|0,3:2|2:0,2:0:0:0:
386,180,75366,2,0,P|305:192|237:205,1,142.756505435944,10|8,2:0|2:3,2:0:0:0:
104,150,75850,2,0,P|144:144|178:137,1,71.3782527179718,6|0,2:3|2:0,2:0:0:0:
275,288,76173,6,0,P|194:300|126:313,1,142.756505435944,6|0,2:0|2:0,2:0:0:0:
22,252,76656,1,2,3:2:0:0:
22,252,76737,1,0,3:2:0:0:
22,252,76818,2,0,B|73:235|122:227|122:227|144:201|116:162,1,142.756505435944,10|2,2:0|2:0,2:0:0:0:
202,61,77302,5,2,2:0:0:0:
205,48,77382,1,2,2:0:0:0:
208,35,77463,1,4,3:2:0:0:
211,22,77785,5,8,2:0:0:0:
296,232,77947,1,0,3:2:0:0:
431,25,78108,5,8,2:0:0:0:
206,230,78269,1,0,3:2:0:0:
81,8,78431,5,10,2:0:0:0:
386,235,78592,1,2,3:2:0:0:
72,182,78753,5,10,2:0:0:0:
417,108,78914,2,0,L|473:91,1,52.6680015945434,8|8,3:2|2:0,2:0:0:0:
49,102,79076,6,0,L|-7:85,1,52.6680015945434,10|8,2:0|2:0,2:0:0:0:
295,176,79237,2,0,L|351:159,1,52.6680015945434,10|8,2:0|2:0,2:0:0:0:
6,246,79398,5,8,2:0:0:0:
52,268,79479,1,8,2:0:0:0:
102,263,79560,1,8,2:0:0:0:
144,233,79640,1,8,2:0:0:0:
170,186,79721,1,10,2:0:0:0:
212,156,79802,1,8,2:0:0:0:
262,151,79882,1,10,2:0:0:0:
308,172,79963,1,8,2:0:0:0:
332,221,80043,6,0,P|346:228|452:171,1,145.912020887146,4|0,3:2|2:0,2:0:0:0:
459,147,80366,1,14,2:0:0:0:
436,348,80527,1,0,2:0:0:0:
248,244,80689,1,0,3:2:0:0:
248,244,80850,1,0,3:2:0:0:
386,159,81011,1,8,2:0:0:0:
198,55,81173,5,2,2:0:0:0:
185,58,81253,1,2,2:0:0:0:
172,61,81334,2,0,L|67:46,1,97.0744205914306,2|0,3:2|2:0,2:0:0:0:
180,176,81656,1,10,2:0:0:0:
0,269,81818,2,0,L|15:164,1,97.0744205914306,2|0,2:0|3:2,2:0:0:0:
176,266,82140,2,0,L|189:361,1,97.0744205914306,2|8,2:0|2:0,2:0:0:0:
303,191,82463,1,6,2:0:0:0:
475,301,82624,6,0,B|407:316|347:282|347:282|316:293|306:332,1,194.148841182861,0|8,3:2|2:0,2:0:0:0:
201,132,83108,1,0,2:0:0:0:
85,284,83269,5,0,3:2:0:0:
281,204,83431,1,10,2:0:0:0:
71,121,83592,1,10,2:0:0:0:
316,45,83753,1,6,3:2:0:0:
313,64,84076,5,2,3:2:0:0:
143,207,84237,1,8,2:0:0:0:
403,312,84398,1,6,3:2:0:0:
418,299,84721,5,2,3:2:0:0:
398,113,84882,2,0,P|391:161|382:208,1,97.0744205914306,10|0,2:0|2:0,2:0:0:0:
241,153,85205,2,0,P|194:166|149:182,1,97.0744205914306,6|0,3:2|2:0,2:0:0:0:
145,376,85527,2,0,P|157:328|165:281,1,97.0744205914306,10|2,2:0|2:0,2:0:0:0:
0,181,85850,1,2,3:2:0:0:
0,181,86011,2,0,P|34:215|71:246,1,97.0744205914306,2|8,2:0|2:0,2:0:0:0:
290,113,86334,6,0,P|242:116|198:96,1,97.0744205914306,2|0,2:0|3:2,2:0:0:0:
391,243,86656,2,0,P|343:239|299:259,1,97.0744205914306,2|8,2:0|2:0,2:0:0:0:
454,101,86979,1,2,2:0:0:0:
363,321,87140,1,8,2:0:0:0:
260,38,87302,1,10,2:0:0:0:
260,38,87382,1,8,2:0:0:0:
260,38,87463,1,10,2:0:0:0:
169,258,87624,1,2,3:2:0:0:
64,31,87785,5,14,3:2:0:0:
297,192,87947,1,0,3:2:0:0:
45,312,88108,5,10,2:0:0:0:
169,82,88269,1,0,3:2:0:0:
272,310,88431,5,10,2:0:0:0:
0,222,88592,1,0,3:2:0:0:
264,119,88753,5,10,2:0:0:0:
158,360,88914,2,0,B|150:278|150:278|162:252|162:252|154:159,1,194.148841182861,6|8,3:2|2:0,2:0:0:0:
42,83,89398,5,8,2:0:0:0:
45,96,89479,1,8,2:0:0:0:
48,109,89560,1,8,2:0:0:0:
251,198,89721,1,8,2:0:0:0:
53,301,89882,5,8,2:0:0:0:
53,301,89963,1,8,2:0:0:0:
53,301,90043,1,10,2:0:0:0:
268,193,90205,1,8,2:0:0:0:
141,56,90366,6,0,L|159:263,1,194.148841182861,6|8,3:2|2:0,2:0:0:0:
286,364,90850,1,0,2:0:0:0:
373,272,91011,2,0,P|381:218|390:173,1,97.0744205914306,0|0,3:2|3:2,2:0:0:0:
252,39,91334,2,0,P|261:86|268:134,1,97.0744205914306,10|0,2:0|2:0,2:0:0:0:
453,326,91656,6,0,P|469:218|487:128,1,194.148841182861,2|10,3:2|2:0,2:0:0:0:
382,35,92140,1,0,2:0:0:0:
251,230,92302,2,0,P|259:176|268:131,1,97.0744205914306,2|0,3:2|3:2,2:0:0:0:
123,30,92624,2,0,P|132:77|139:125,1,97.0744205914306,10|0,2:0|2:0,2:0:0:0:
99,332,92947,6,0,P|149:258|262:256,2,193.848451182861,2|10|0,3:2|2:0|3:2,2:0:0:0:
0,174,93753,1,0,3:2:0:0:
211,355,93914,6,0,P|319:339|409:321,1,194.148841182861,14|0,2:0|3:2,2:0:0:0:
469,154,94398,1,0,3:2:0:0:
469,154,94560,2,0,P|419:185|359:183,1,97.0744205914306,8|0,2:0|2:0,2:0:0:0:
248,53,94882,2,0,P|257:100|264:148,1,97.0744205914306,2|0,3:2|3:2,2:0:0:0:
392,43,95205,5,10,2:0:0:0:
293,240,95366,1,0,2:0:0:0:
105,116,95527,6,0,P|123:212|137:311,1,194.148841182861,6|8,3:2|2:0,2:0:0:0:
392,272,96011,1,2,2:0:0:0:
392,272,96173,2,0,P|344:265|296:256,1,97.0744205914306,2|0,3:2|2:0,2:0:0:0:
198,133,96495,2,0,P|245:126|293:117,1,97.0744205914306,10|0,2:0|2:0,2:0:0:0:
494,90,96818,6,0,P|411:89|367:-11,1,194.148841182861,2|8,3:2|2:0,2:0:0:0:
182,37,97302,1,0,2:0:0:0:
182,37,97463,2,0,P|189:85|198:133,1,97.0744205914306,2|0,3:2|3:2,2:0:0:0:
321,231,97785,2,0,P|328:184|337:136,1,97.6752005914306,10|0,2:0|2:0,2:0:0:0:
456,14,98108,5,10,2:0:0:0:
270,72,98269,1,0,3:2:0:0:
507,173,98431,1,10,2:0:0:0:
321,231,98592,2,0,P|274:238|226:247,1,97.0744205914306,2|8,3:2|2:0,2:0:0:0:
401,348,98914,5,8,2:0:0:0:
401,348,98995,1,8,2:0:0:0:
401,348,99076,2,0,P|397:324|393:300,1,48.8376002957153,10|8,2:0|2:0,2:0:0:0:
321,231,99237,2,0,P|324:207|330:183,1,48.8376002957153,10|8,2:0|2:0,2:0:0:0:
401,103,99398,1,0,3:2:0:0:
216,156,99560,6,0,P|169:163|121:172,1,97.0744205914306,10|0,2:0|3:2,2:0:0:0:
270,41,99882,1,8,2:0:0:0:
321,231,100043,5,10,3:2:0:0:
149,75,100205,1,10,2:0:0:0:
68,332,100366,6,0,P|59:277|49:222,1,107.288254076958,6|0,3:2|2:0,2:0:0:0:
52,198,100689,6,0,P|141:198|162:293,1,194.148841182861,6|8,3:2|2:0,2:0:0:0:
353,224,101173,1,0,2:0:0:0:
232,125,101334,2,0,P|279:118|327:108,1,97.0744205914306,0|0,3:2|3:2,2:0:0:0:
448,258,101656,2,0,P|400:251|352:241,1,97.0744205914306,10|0,2:0|2:0,2:0:0:0:
154,167,101979,6,0,P|164:214|172:262,1,97.0744205914306,2|0,3:2|2:0,2:0:0:0:
266,377,102302,2,0,P|334:346|348:328,1,97.0744205914306,10|0,2:0|2:0,2:0:0:0:
278,184,102624,2,0,P|267:231|259:279,1,97.0744205914306,2|0,3:2|3:2,2:0:0:0:
359,131,102947,2,0,P|324:97|278:85,1,97.0744205914306,10|0,2:0|2:0,2:0:0:0:
91,145,103269,6,0,B|206:138|158:189|286:183,1,194.148841182861,2|10,3:2|2:0,2:0:0:0:
384,99,103753,1,0,2:0:0:0:
415,268,103914,2,0,P|404:315|396:363,1,97.0744205914306,2|0,3:2|3:2,2:0:0:0:
475,108,104237,6,0,P|439:166|315:157,1,194.148841182861,14|0,2:0|3:2,2:0:0:0:
164,110,104721,1,0,3:2:0:0:
264,287,104882,1,8,2:0:0:0:
361,71,105043,1,2,2:0:0:0:
361,71,105124,1,2,2:0:0:0:
361,71,105205,6,0,P|314:82|266:90,1,97.0744205914306,2|0,3:2|3:2,2:0:0:0:
115,226,105527,2,0,P|162:215|210:207,1,97.0744205914306,10|0,2:0|2:0,2:0:0:0:
441,286,105850,6,0,B|400:293|357:266|357:266|361:324|320:361,1,194.148841182861,6|8,3:2|2:0,2:0:0:0:
228,112,106334,1,2,2:0:0:0:
228,112,106414,1,2,2:0:0:0:
228,112,106495,2,0,P|217:159|209:207,1,97.6752005914306,2|0,3:2|2:0,2:0:0:0:
73,358,106818,2,0,P|84:311|92:263,1,97.0744205914306,10|0,2:0|2:0,2:0:0:0:
0,83,107140,6,0,P|36:141|160:132,1,194.148841182861,2|8,3:2|2:0,2:0:0:0:
270,38,107624,1,0,2:0:0:0:
429,225,107785,2,0,P|382:214|334:206,1,97.0744205914306,2|0,3:2|3:2,2:0:0:0:
216,346,108108,2,0,P|263:335|311:327,1,96.4736405914306,10|0,2:0|2:0,2:0:0:0:
400,135,108431,5,6,3:2:0:0:
498,368,108592,1,0,3:2:0:0:
415,124,108753,1,10,2:0:0:0:
222,258,108914,2,0,B|107:265|155:214|27:220,1,194.148841182861,2|0,2:0|3:2,2:0:0:0:
125,358,109398,1,10,2:0:0:0:
241,172,109560,2,0,B|276:137|323:157|323:157|356:232|425:209,1,194.148841182861,6|8,3:2|2:3,2:0:0:0:
487,143,110043,5,8,2:3:0:0:
301,323,110205,1,4,3:2:0:0:
230,76,110366,5,8,2:0:0:0:
401,214,110527,1,0,3:2:0:0:
316,111,110689,5,8,2:3:0:0:
153,267,110850,1,8,2:3:0:0:
91,52,111011,5,4,3:2:0:0:
316,111,111334,2,0,P|352:105|386:97,1,71.3782527179718,2|0,3:2|2:0,2:0:0:0:
261,201,111656,2,0,L|121:179,1,142.756505435944,10|2,2:0|3:2,2:0:0:0:
205,24,112140,2,0,P|211:60|219:94,1,71.3782527179718,2|0,3:2|2:0,2:0:0:0:
367,204,112463,5,8,2:0:0:0:
367,204,112624,2,0,P|361:240|353:274,1,71.3782527179718,2|0,3:2|3:2,2:0:0:0:
222,365,112947,2,0,P|193:295|107:292,1,142.756505435944,10|2,2:0|3:2,2:0:0:0:
261,201,113431,1,2,2:0:0:0:
84,80,113592,6,0,P|111:142|179:156,1,142.756505435944,4|2,3:2|3:2,2:0:0:0:
295,278,114076,1,0,2:0:0:0:
349,114,114237,5,10,3:2:0:0:
198,324,114398,1,8,2:0:0:0:
256,68,114560,1,10,2:0:0:0:
425,244,114721,6,0,B|408:168|446:100|446:100|433:65|390:54,1,194.148841182861,14|10,2:0|3:2,2:0:0:0:
179,155,115205,1,10,3:2:0:0:
364,310,115366,2,0,P|460:328|513:246,1,194.148841182861,14|0,3:2|3:2,2:0:0:0:
512,231,115769,1,0,3:2:0:0:
512,231,115850,2,0,P|502:177|519:122,1,97.0744205914306,8|0,3:2|3:2,2:0:0:0:
340,36,116173,1,4,3:2:0:0:
340,36,116495,6,0,P|292:46|244:54,1,97.0744205914306,10|0,2:0|3:2,2:0:0:0:
348,257,116818,2,0,P|362:210|379:165,1,97.0744205914306,2|0,3:2|3:2,2:0:0:0:
152,152,117140,2,0,P|184:187|215:225,1,97.0744205914306,10|0,2:0|2:0,2:0:0:0:
464,165,117463,6,0,P|394:83|303:130,1,194.148841182861,6|10,3:2|2:0,2:0:0:0:
250,321,117947,1,0,3:2:0:0:
250,321,118027,1,0,3:2:0:0:
250,321,118108,2,0,P|300:310|349:303,1,97.0744205914306,2|0,3:2|3:2,2:0:0:0:
152,152,118431,2,0,P|101:141|52:134,1,97.0744205914306,10|0,2:0|2:0,2:0:0:0:
392,152,118753,6,0,P|383:44|282:29,1,194.148841182861,2|8,3:2|2:0,2:0:0:0:
152,152,119237,1,0,2:0:0:0:
351,265,119398,5,10,2:0:0:0:
351,265,119479,1,8,2:0:0:0:
351,265,119560,2,0,P|328:269|304:274,1,48.8376002957153,8|8,2:0|2:0,2:0:0:0:
125,325,119721,1,8,2:0:0:0:
119,68,119882,5,6,3:2:0:0:
119,68,120205,5,2,3:2:0:0:
400,297,120366,1,10,2:0:0:0:
73,203,120527,5,0,3:2:0:0:
442,163,120689,1,10,2:0:0:0:
143,325,120850,5,0,3:2:0:0:
376,39,121011,1,10,2:0:0:0:
276,365,121173,5,2,3:2:0:0:
239,0,121334,1,8,2:0:0:0:
445,267,121495,5,2,3:2:0:0:
76,103,121656,1,10,2:0:0:0:
376,39,121818,5,8,2:0:0:0:
376,39,121898,1,8,2:0:0:0:
376,39,121979,1,4,2:3:0:0:
276,365,122140,1,6,2:3:0:0:
76,103,122302,1,6,2:3:0:0:
442,163,122463,1,14,2:0:0:0:
180,61,122785,5,10,2:0:0:0:
425,190,123054,5,10,2:0:0:0:
64,290,123269,5,10,2:0:0:0:
353,35,123484,5,10,2:0:0:0:
65,186,123699,5,10,2:0:0:0:
463,294,123914,5,14,2:0:0:0:
292,138,124237,6,0,L|272:296,1,145.912020887146,2|0,3:2|3:2,2:0:0:0:
257,307,124560,6,0,P|214:265|145:272,1,97.0744205914306,2|0,2:0|3:2,2:0:0:0:
157,282,124802,1,0,3:2:0:0:
157,282,124882,2,0,P|97:296|55:286,1,97.0744205914306,10|0,2:0|3:0,2:0:0:0:
74,92,125205,1,10,2:0:0:0:
73,104,125285,1,8,2:0:0:0:
72,116,125366,1,8,2:0:0:0:
71,128,125447,1,8,2:0:0:0:
70,140,125527,6,0,B|137:152|197:172|197:172|236:156|228:96,1,200.271393911743,12|0,3:2|2:0,2:0:0:0:
248,35,125850,6,0,P|292:43|352:60,1,104.688103189087,0|0,3:2|3:2,2:0:0:0:
451,186,126173,1,10,2:0:0:0:
284,315,126334,2,0,P|298:264|308:213,1,104.688103189087,2|0,3:2|2:0,2:0:0:0:
453,63,126656,2,0,P|463:114|476:164,1,104.688103189087,2|8,3:2|3:2,2:0:0:0:
512,342,126979,2,0,P|461:328|410:318,1,104.688103189087,2|0,3:2|2:0,2:0:0:0:
229,116,127302,2,0,P|280:106|330:93,1,104.040203189087,2|8,3:2|2:0,2:0:0:0:
237,281,127624,1,2,2:0:0:0:
237,281,127705,1,2,2:0:0:0:
237,281,127785,6,0,P|186:271|136:258,1,104.688103189087,0|0,3:2|2:0,2:0:0:0:
220,100,128108,1,8,2:0:0:0:
326,327,128269,1,0,2:0:0:0:
477,175,128431,2,0,P|426:185|376:198,1,104.688103189087,2|0,3:2|3:2,2:0:0:0:
134,117,128753,1,10,2:0:0:0:
301,7,128914,6,0,P|311:58|324:108,1,104.688103189087,6|0,3:2|2:0,2:0:0:0:
449,287,129237,1,2,3:2:0:0:
511,68,129398,1,8,2:0:0:0:
280,255,129560,6,0,P|229:245|179:232,1,104.688103189087,6|0,3:2|2:0,2:0:0:0:
18,117,129882,1,2,3:2:0:0:
80,336,130043,1,8,2:0:0:0:
250,161,130205,5,10,2:0:0:0:
250,161,130285,1,8,2:0:0:0:
250,161,130366,2,0,P|328:171|361:315,1,209.376206378174,4|8,3:2|2:0,2:0:0:0:
430,107,130850,1,0,2:0:0:0:
280,255,131011,5,2,3:2:0:0:
512,345,131173,1,0,3:2:0:0:
268,272,131334,1,10,2:0:0:0:
508,161,131495,2,0,P|521:110|376:17,1,209.376206378174,2|0,3:2|3:2,2:0:0:0:
251,148,131979,6,0,P|301:134|352:124,1,104.688103189087,10|0,2:0|3:2,2:0:0:0:
81,238,132302,2,0,P|131:251|182:261,1,104.688103189087,2|0,2:0|3:2,2:0:0:0:
0,63,132624,2,0,P|50:49|101:39,1,104.688103189087,10|0,2:0|3:2,2:0:0:0:
244,132,132947,5,2,3:2:0:0:
15,354,133108,1,0,3:2:0:0:
116,134,133269,5,10,2:0:0:0:
345,356,133431,1,0,3:2:0:0:
385,120,133592,5,10,2:0:0:0:
156,342,133753,1,0,3:2:0:0:
257,122,133914,5,10,2:0:0:0:
486,344,134076,2,0,P|499:293|509:242,1,104.688103189087,6|0,3:2|2:0,2:0:0:0:
426,40,134398,1,8,2:0:0:0:
233,188,134560,1,2,3:2:0:0:
233,188,134640,1,0,3:2:0:0:
233,188,134721,2,0,P|206:184|178:178,1,52.6680015945434,0|0,3:2|3:2,2:0:0:0:
79,82,134882,6,0,P|131:73|182:63,1,104.688103189087,14|0,2:0|3:2,2:0:0:0:
248,287,135205,2,0,P|196:278|145:268,1,104.688103189087,10|0,2:0|3:2,2:0:0:0:
318,147,135527,1,2,3:2:0:0:
318,147,135608,1,0,3:0:0:0:
318,147,135689,2,0,P|322:174|328:202,1,52.0201015945434,0|0,3:2|3:2,2:0:0:0:
424,301,135850,6,0,P|435:233|448:166,1,133.239395941162,12|0,2:0|2:0,2:0:0:0:
271,60,136173,1,0,3:2:0:0:
448,170,136334,1,0,3:2:0:0:
227,303,136495,1,10,2:0:0:0:
392,92,136656,6,0,P|444:83|495:73,1,104.688103189087,2|0,3:2|2:0,2:0:0:0:
244,199,136979,1,2,3:2:0:0:
154,19,137140,1,8,2:0:0:0:
345,176,137302,6,0,P|336:228|326:279,1,104.688103189087,2|0,3:2|2:0,2:0:0:0:
128,187,137624,1,2,3:2:0:0:
310,302,137785,1,8,2:0:0:0:
52,381,137947,1,6,2:0:0:0:
244,199,138108,6,0,P|235:147|225:96,1,104.688103189087,0|0,3:2|3:2,2:0:0:0:
81,290,138431,2,0,P|90:238|100:187,1,104.688103189087,8|0,2:0|2:0,2:0:0:0:
262,372,138753,5,8,3:2:0:0:
312,384,138834,1,8,3:2:0:0:
360,366,138914,1,8,3:2:0:0:
390,325,138995,1,8,3:2:0:0:
392,273,139076,1,10,2:0:0:0:
178,160,139237,6,0,P|188:211|196:262,1,104.688103189087,6|0,3:2|2:0,2:0:0:0:
387,128,139560,1,2,3:2:0:0:
139,40,139721,1,8,2:0:0:0:
296,184,139882,6,0,P|286:235|278:286,1,104.688103189087,6|0,3:2|2:0,2:0:0:0:
97,151,140205,1,2,3:2:0:0:
323,66,140366,1,8,2:0:0:0:
196,262,140527,1,0,3:2:0:0:
417,335,140689,6,0,B|459:268|459:268|430:134,1,209.376206378174,6|8,3:2|2:0,2:0:0:0:
210,109,141173,1,0,3:2:0:0:
355,287,141334,2,0,B|376:253|376:253|362:190,1,104.688103189087,2|0,3:2|3:2,2:0:0:0:
323,66,141656,1,10,2:0:0:0:
196,262,141818,6,0,P|144:281|37:182,1,209.376206378174,2|0,3:2|3:2,2:0:0:0:
164,19,142302,2,0,P|174:70|182:121,1,104.688103189087,10|0,2:0|3:2,2:0:0:0:
336,248,142624,1,2,3:2:0:0:
322,107,142785,1,0,3:2:0:0:
196,262,142947,2,0,P|186:313|178:364,1,104.688103189087,10|0,2:0|3:2,2:0:0:0:
261,186,143269,5,6,3:2:0:0:
81,80,143431,1,0,3:2:0:0:
318,14,143592,1,10,2:0:0:0:
90,94,143753,1,0,3:2:0:0:
353,232,143914,1,10,2:0:0:0:
353,232,143995,1,0,3:2:0:0:
353,232,144076,2,0,P|357:206|362:180,1,52.6680015945434,0|0,3:2|3:2,2:0:0:0:
441,22,144237,1,10,3:2:0:0:
499,157,144398,6,0,B|511:224|531:284|531:284|515:323|455:315,1,209.376206378174,6|8,3:2|2:0,2:0:0:0:
254,256,144882,1,8,2:0:0:0:
378,160,145043,1,8,2:0:0:0:
141,123,145205,1,8,3:2:0:0:
378,35,145366,5,8,2:0:0:0:
387,76,145447,1,8,2:0:0:0:
388,119,145527,1,8,3:2:0:0:
378,160,145608,1,8,2:3:0:0:
368,201,145689,1,0,3:2:0:0:
369,244,145769,1,0,3:2:0:0:
380,285,145850,5,14,2:0:0:0:
251,51,146011,1,0,3:2:0:0:
176,344,146173,5,8,2:0:0:0:
418,94,146334,1,2,3:2:0:0:
87,249,146495,5,10,2:0:0:0:
435,360,146656,1,2,3:2:0:0:
267,80,146818,5,10,2:0:0:0:
160,376,146979,1,2,3:2:0:0:
160,376,147060,1,0,3:2:0:0:
160,376,147140,1,8,2:0:0:0:
489,247,147302,5,2,3:2:0:0:
134,137,147463,1,8,2:0:0:0:
511,282,147624,5,2,3:2:0:0:
511,282,147705,1,0,3:2:0:0:
511,282,147785,1,8,2:0:0:0:
145,355,147947,1,0,3:2:0:0:
286,41,148108,5,8,2:0:0:0:
409,337,148269,1,0,3:2:0:0:
116,240,148431,5,10,2:0:0:0:
418,104,148592,1,2,3:2:0:0:
78,157,148753,5,10,2:0:0:0:
475,269,148914,1,2,3:2:0:0:
39,289,149076,5,10,2:0:0:0:
464,133,149237,1,10,3:2:0:0:
34,73,149398,5,8,2:0:0:0:
438,345,149560,1,6,3:2:0:0:
97,176,149882,5,6,3:2:0:0:
435,27,150205,5,6,3:2:0:0:
285,188,150527,1,2,3:2:0:0:
285,188,150608,1,0,3:2:0:0:
285,188,150689,1,12,2:0:0:0:
197,62,150850,1,8,2:0:0:0:
365,112,151011,6,0,P|379:186|391:260,1,142.756505435944,6|0,3:2|2:0,2:0:0:0:
249,328,151495,2,0,P|163:283|159:213,1,142.756505435944,10|8,2:0|2:3,2:0:0:0:
271,118,151979,2,0,P|278:152|284:187,1,71.3782527179718,6|0,2:3|2:0,2:0:0:0:
344,336,152302,6,0,P|407:345|465:272,1,142.756505435944,6|0,2:0|2:0,2:0:0:0:
387,146,152785,2,0,P|383:163|380:180,1,35.910001358986,2|0,3:2|3:2,2:0:0:0:
386,272,152947,2,0,P|355:214|280:189,1,142.756505435944,10|2,2:0|2:0,2:0:0:0:
144,269,153431,1,2,2:0:0:0:
75,72,153592,6,0,L|67:168,1,97.0744205914306,4|0,3:2|2:0,2:0:0:0:
216,340,153914,1,8,2:0:0:0:
168,119,154076,1,0,3:2:0:0:
0,311,154237,5,8,2:0:0:0:
285,188,154398,1,0,3:2:0:0:
53,57,154560,1,10,2:0:0:0:
193,303,154721,1,2,3:2:0:0:
429,36,154882,5,10,2:0:0:0:
142,127,155043,1,0,3:2:0:0:
423,203,155205,5,10,2:0:0:0:
408,159,155285,1,8,2:0:0:0:
361,138,155366,1,10,2:0:0:0:
312,146,155447,1,8,2:0:0:0:
285,188,155527,1,8,2:0:0:0:
242,213,155608,1,8,2:0:0:0:
192,209,155689,1,8,2:0:0:0:
152,177,155769,1,8,2:0:0:0:
142,127,155850,6,0,L|197:121,1,52.6680015945434,10|8,2:0|2:0,2:0:0:0:
323,364,156011,2,0,L|317:306,1,52.6680015945434,10|8,2:0|2:0,2:0:0:0:
100,310,156173,6,0,L|249:293,1,142.756505435944,4|0,3:2|3:2,2:0:0:0:
426,204,156656,2,0,L|277:187,1,142.756505435944,8|0,2:0|2:3,2:0:0:0:
100,98,157140,2,0,L|189:87,1,71.3782527179718,4|0,2:3|2:0,2:0:0:0:
415,99,157463,6,0,B|311:103|353:59|253:65,1,142.756505435944,6|0,3:2|2:0,2:0:0:0:
194,174,157947,1,0,3:2:0:0:
194,174,158027,1,8,2:0:0:0:
194,174,158108,2,0,P|187:209|182:244,1,71.3782527179718,10|0,2:0|3:2,2:0:0:0:
248,324,158431,1,0,3:2:0:0:
310,202,158592,1,0,3:2:0:0:
310,202,158673,1,0,3:2:0:0:
310,202,158753,6,0,B|326:111|280:63|280:63|308:23|348:24,1,214.134758153916,6|0,3:2|2:0,2:0:0:0:
410,85,159398,1,2,3:2:0:0:
234,147,159560,1,8,2:0:0:0:
400,227,159721,2,0,P|407:262|412:297,1,71.3782527179718,2|0,3:2|2:0,2:0:0:0:
235,363,160043,5,6,3:2:0:0:
330,127,160205,1,0,3:2:0:0:
482,344,160366,1,8,2:0:0:0:
188,244,160527,2,0,P|153:237|118:232,1,71.3782527179718,6|0,3:2|2:0,2:0:0:0:
337,113,160850,2,0,P|407:99|477:89,1,142.756505435944,6|0,3:2|3:2,2:0:0:0:
252,26,161334,6,0,B|227:68|227:68|248:172,1,156.080442377319,6|10,3:2|2:0,2:0:0:0:
289,334,161818,1,2,3:2:0:0:
337,113,161979,1,10,2:0:0:0:
505,305,162140,5,2,3:2:0:0:
220,182,162302,1,10,3:2:0:0:
452,51,162463,6,0,L|460:147,1,78.0402211886596,14|0,2:0|3:2,2:0:0:0:
254,114,162785,1,0,3:2:0:0:
379,211,162947,1,10,3:2:0:0:
115,204,163108,5,0,3:2:0:0:
304,27,163269,1,10,2:0:0:0:
296,314,163431,5,0,3:2:0:0:
77,92,163592,1,10,2:0:0:0:
447,135,163753,5,0,3:2:0:0:
157,330,163914,2,0,P|140:270|143:247,1,48.8376002957153,14|8,2:0|2:0,2:0:0:0:
163,124,164076,1,8,2:0:0:0:
207,105,164156,1,8,2:0:0:0:
254,114,164237,1,10,2:0:0:0:
287,148,164318,1,8,2:0:0:0:
296,194,164398,1,8,2:0:0:0:
305,240,164479,1,8,2:0:0:0:
338,274,164560,1,10,2:0:0:0:
385,283,164640,1,8,2:0:0:0:
428,265,164721,2,0,P|446:210|443:189,1,48.8376002957153,8|8,2:0|2:0,2:0:0:0:
349,75,164882,2,0,P|367:130|364:151,1,48.8376002957153,10|8,2:0|2:0,2:0:0:0:
254,314,165043,5,10,2:0:0:0:
242,330,165366,5,10,2:0:0:0:
121,84,165527,1,10,2:0:0:0:
35,235,165850,5,0,3:2:0:0:
35,235,165931,1,0,3:2:0:0:
35,235,166011,1,0,3:2:0:0:
71,266,166092,1,0,3:2:0:0:
118,270,166173,1,8,2:0:0:0:
163,254,166253,1,0,3:2:0:0:
205,232,166334,6,0,P|219:136|235:56,1,160.217121948242,6|0,3:2|2:0,2:0:0:0:
240,46,166656,1,0,3:2:0:0:
421,181,166818,2,0,P|361:208|292:188,1,106.591521298828,12|0,2:0|2:0,2:0:0:0:
115,126,167140,1,0,3:2:0:0:
349,84,167302,1,2,3:2:0:0:
258,303,167463,1,10,2:0:0:0:
468,364,167624,6,0,P|476:306|487:250,1,106.591521298828,2|0,3:2|2:0,2:0:0:0:
349,84,167947,1,2,3:2:0:0:
482,163,168108,1,10,2:0:0:0:
235,220,168269,1,2,3:2:0:0:
345,70,168431,5,2,2:0:0:0:
402,317,168592,1,2,3:2:0:0:
471,154,168753,1,10,2:0:0:0:
248,237,168914,2,0,P|193:228|140:218,1,106.591521298828,2|0,3:2|3:2,2:0:0:0:
360,190,169237,5,2,2:0:0:0:
217,335,169398,1,10,2:0:0:0:
134,108,169560,1,2,2:0:0:0:
266,236,169721,5,2,3:2:0:0:
409,91,169882,1,2,3:2:0:0:
492,318,170043,1,8,2:0:0:0:
512,51,170205,6,0,P|500:103|493:155,1,106.591521298828,6|0,3:2|2:0,2:0:0:0:
377,330,170527,2,0,P|368:276|358:223,1,106.591521298828,2|8,3:2|2:0,2:0:0:0:
190,108,170850,2,0,P|258:119|329:7,1,213.183042597656,6|0,3:2|3:2,2:0:0:0:
405,148,171334,1,8,2:0:0:0:
231,224,171495,1,2,3:2:0:0:
231,224,171576,1,2,3:2:0:0:
231,224,171656,6,0,B|147:228|67:243|67:243|99:224|110:183,1,213.183042597656,6|8,3:2|2:0,2:0:0:0:
170,131,172140,2,0,P|161:78|151:26,1,106.591521298828,2|0,2:0|3:2,2:0:0:0:
159,274,172463,2,0,P|150:326|140:377,1,106.591521298828,2|8,3:2|2:0,2:0:0:0:
289,213,172785,6,0,B|412:205|360:260|498:253,1,213.183042597656,6|2,3:2|3:2,2:0:0:0:
346,346,173269,2,0,P|288:311|229:308,1,106.591521298828,10|0,2:0|3:2,2:0:0:0:
361,111,173592,2,0,P|419:146|478:149,1,106.591521298828,2|0,2:0|3:2,2:0:0:0:
210,151,173914,1,10,2:0:0:0:
393,244,174076,1,0,3:2:0:0:
390,257,174156,1,0,3:2:0:0:
387,270,174237,5,2,3:2:0:0:
435,62,174398,1,0,3:2:0:0:
222,169,174560,1,8,2:0:0:0:
494,311,174721,1,2,3:2:0:0:
480,298,175043,5,10,3:2:0:0:
293,102,175205,1,10,2:0:0:0:
217,362,175366,1,14,3:2:0:0:
207,341,175689,5,10,2:0:0:0:
377,213,175850,1,10,2:0:0:0:
127,73,176011,1,10,2:0:0:0:
384,0,176173,6,0,P|394:52|401:105,1,106.591521298828,10|0,2:0|2:0,2:0:0:0:
191,255,176495,2,0,P|198:202|210:149,1,106.591521298828,10|0,2:0|2:0,2:0:0:0:
401,291,176818,6,0,B|435:345|435:345|359:306|267:313,1,213.183042597656,6|8,3:2|2:0,2:0:0:0:
207,341,177302,1,0,3:2:0:0:
86,207,177463,5,10,2:0:0:0:
86,207,177543,1,2,2:0:0:0:
86,207,177624,2,0,P|30:189|12:189,1,53.6256006494141,2|2,3:2|2:0,2:0:0:0:
188,121,177785,2,0,P|215:114|241:102,1,53.6256006494141,10|2,2:0|2:0,2:0:0:0:
102,8,177947,5,2,3:2:0:0:
68,40,178027,1,2,2:0:0:0:
53,84,178108,1,2,2:0:0:0:
60,129,178189,1,2,2:0:0:0:
88,166,178269,1,2,3:2:0:0:
115,203,178350,1,2,2:0:0:0:
122,249,178431,1,10,2:0:0:0:
107,292,178511,1,2,2:0:0:0:
74,324,178592,6,0,L|137:335,1,53.6256006494141,2|2,3:2|2:0,2:0:0:0:
281,368,178753,1,10,2:0:0:0:
28,232,178914,1,2,3:2:0:0:
271,184,179076,1,10,2:0:0:0:
53,84,179237,1,2,3:2:0:0:
53,84,179318,1,0,3:2:0:0:
53,84,179398,5,6,3:2:0:0:
191,244,179560,1,0,3:2:0:0:
310,28,179721,1,10,2:0:0:0:
68,98,179882,1,2,3:2:0:0:
317,211,180043,5,10,2:0:0:0:
112,281,180205,1,10,2:0:0:0:
235,142,180366,1,10,2:0:0:0:
361,364,180527,1,6,3:2:0:0:
383,372,180850,6,0,P|390:319|402:267,1,106.591521298828,6|2,3:2|2:0,2:0:0:0:
482,154,181173,6,0,P|455:150|429:146,1,53.6256006494141,6|2,3:2|2:0,2:0:0:0:
318,115,181334,1,8,2:0:0:0:
320,130,181414,1,8,2:0:0:0:
322,146,181495,1,0,3:2:0:0:
399,44,181656,1,0,3:2:0:0:
199,161,181818,1,0,3:2:0:0:
402,269,181979,6,0,B|330:256|292:292|292:292|261:269|262:238,1,156.080442377319,6|0,3:2|3:2,2:0:0:0:
60,183,182463,2,0,P|130:201|199:159,1,156.080442377319,2|0,2:0|2:0,2:0:0:0:
302,35,182947,2,0,P|294:88|286:140,1,78.0402211886596,2|0,3:2|3:2,2:0:0:0:
181,42,183269,5,2,2:0:0:0:
380,91,183431,2,0,P|433:83|485:75,1,78.0402211886596,8|0,2:0|3:2,2:0:0:0:
370,211,183753,1,2,3:2:0:0:
290,112,183914,5,10,2:0:0:0:
464,238,184076,2,0,P|456:185|448:133,1,78.0402211886596,2|0,3:2|3:2,2:0:0:0:
279,284,184398,1,2,2:0:0:0:
279,284,184560,6,0,P|173:300|69:316,1,194.148841182861,4|0,3:2|3:2,2:0:0:0:
163,187,185043,1,8,3:2:0:0:
288,373,185205,1,8,2:0:0:0:
62,231,185366,1,8,2:0:0:0:
277,113,185527,1,8,2:0:0:0:
43,12,185689,6,0,P|51:65|60:118,1,106.591521298828,14|0,3:2|2:0,2:0:0:0:
163,187,186011,1,0,3:2:0:0:
333,41,186173,1,8,2:0:0:0:
420,271,186334,1,2,3:2:0:0:
225,70,186495,5,8,2:0:0:0:
225,70,186576,1,8,2:0:0:0:
225,70,186656,2,0,P|222:88|209:126,1,53.6256006494141,8|8,2:0|2:0,2:0:0:0:
275,214,186818,1,8,2:0:0:0:
275,214,186898,1,8,2:0:0:0:
275,214,186979,2,0,P|278:232|291:270,1,53.6256006494141,8|8,2:0|2:0,2:0:0:0:
203,339,187140,5,4,3:2:0:0:
370,221,187302,1,0,3:2:0:0:
139,258,187463,5,10,2:0:0:0:
372,177,187624,1,0,3:2:0:0:
99,163,187785,5,10,2:0:0:0:
385,144,187947,1,0,3:2:0:0:
84,63,188108,5,10,2:0:0:0:
408,116,188269,1,0,3:2:0:0:
434,115,188350,1,0,3:2:0:0:
457,102,188431,5,10,2:0:0:0:
410,340,188592,1,0,3:2:0:0:
337,65,188753,5,10,2:0:0:0:
326,342,188914,1,0,3:2:0:0:
210,42,189076,5,10,2:0:0:0:
245,360,189237,1,0,3:2:0:0:
83,45,189398,5,10,2:0:0:0:
163,381,189560,1,0,3:2:0:0:
162,355,189640,1,0,3:2:0:0:
150,332,189721,5,10,2:0:0:0:
329,104,189882,1,0,3:2:0:0:
70,282,190043,5,8,2:0:0:0:
355,189,190205,1,2,3:2:0:0:
19,201,190366,5,8,2:0:0:0:
327,273,190527,1,2,3:2:0:0:
13,108,190689,5,8,2:0:0:0:
246,317,190850,2,0,P|232:227|217:138,1,180.82489518013,6|0,3:2|3:2,2:0:0:0:
124,41,191334,1,8,2:0:0:0:
31,282,191495,2,0,P|89:273|119:239,1,97.0744205914306,6|0,3:2|2:0,2:0:0:0:
339,118,191818,5,0,3:2:0:0:
362,119,191898,1,0,3:2:0:0:
383,130,191979,1,8,2:0:0:0:
263,228,192140,1,0,3:2:0:0:
211,63,192302,5,4,3:2:0:0:
398,148,192463,1,0,3:2:0:0:
115,144,192624,5,10,2:0:0:0:
423,224,192785,1,0,3:2:0:0:
79,270,192947,5,10,2:0:0:0:
458,297,193108,1,0,3:2:0:0:
105,381,193269,5,10,2:0:0:0:
494,370,193431,1,0,3:2:0:0:
224,69,193592,5,10,2:0:0:0:
167,335,193753,1,0,3:2:0:0:
330,74,193914,5,10,2:0:0:0:
79,270,194076,1,0,3:2:0:0:
392,156,194237,6,0,L|448:144,1,48.8376002957153,10|8,2:0|2:0,2:0:0:0:
47,191,194398,2,0,L|-9:179,1,48.8376002957153,8|8,2:0|2:0,2:0:0:0:
395,351,194560,1,10,2:0:0:0:
155,111,194721,1,0,3:2:0:0:
152,124,194802,1,0,3:2:0:0:
149,137,194882,5,6,3:2:0:0:
287,71,195043,1,0,3:2:0:0:
54,174,195205,1,8,2:0:0:0:
295,319,195366,2,0,P|342:332|387:348,1,97.0744205914306,2|0,3:2|2:0,2:0:0:0:
132,223,195689,2,0,P|97:257|60:288,1,97.0744205914306,2|8,3:2|2:0,2:0:0:0:
296,129,196011,6,0,P|283:81|275:34,1,97.0744205914306,6|0,3:2|2:0,2:0:0:0:
247,215,196334,1,8,2:0:0:0:
247,215,196414,1,8,2:0:0:0:
247,215,196495,1,0,3:2:0:0:
392,156,196656,1,0,3:2:0:0:
338,345,196818,5,8,2:0:0:0:
290,353,196898,1,8,2:0:0:0:
242,360,196979,1,0,3:2:0:0:
194,367,197060,1,0,3:2:0:0:
146,372,197140,2,0,P|133:324|125:277,1,97.0744205914306,10|2,2:0|3:2,2:0:0:0:
195,112,197463,6,0,P|156:153|30:140,1,175.11463413208,6|10,3:2|2:0,2:0:0:0:
194,22,197947,1,2,2:0:0:0:
294,146,198108,2,0,P|281:194|273:241,2,87.55731706604,0|0|10,3:2|3:2|2:0,2:0:0:0:
339,36,198592,1,10,2:0:0:0:
381,199,198753,6,0,P|464:185|512:115,1,175.11463413208,2|10,3:2|2:0,2:0:0:0:
478,289,199237,1,10,2:0:0:0:
377,116,199398,2,0,P|365:73|357:30,1,87.55731706604,0|0,3:2|3:2,2:0:0:0:
285,198,199721,1,10,2:0:0:0:
209,81,199882,1,2,2:0:0:0:
140,275,200043,6,0,P|56:261|18:150,1,194.148841182861,2|10,3:2|2:0,2:0:0:0:
95,15,200527,1,10,2:0:0:0:
188,175,200689,2,0,P|200:127|209:79,1,97.0744205914306,0|0,3:2|3:2,2:0:0:0:
328,206,201011,1,10,2:0:0:0:
376,34,201173,1,2,2:0:0:0:
429,211,201334,5,2,3:2:0:0:
293,47,201495,1,0,3:2:0:0:
392,311,201656,1,10,2:0:0:0:
466,111,201818,1,10,2:0:0:0:
286,328,201979,5,0,3:2:0:0:
188,63,202140,1,8,2:0:0:0:
188,63,202221,1,8,2:0:0:0:
188,63,202302,6,0,P|181:88|176:115,1,48.4500002957153,10|8,2:0|2:0,2:0:0:0:
209,208,202463,2,0,P|217:233|222:260,1,48.4500002957153,10|0,2:0|2:0,2:0:0:0:
190,372,202624,5,10,2:3:0:0:
270,153,202785,1,8,2:3:0:0:
119,302,202947,2,0,P|43:281|10:261,1,97.0744205914306,12|2,2:0|2:0,2:0:0:0:
198,45,203269,5,10,2:3:0:0:
278,264,203431,1,8,2:3:0:0:
128,93,203592,2,0,P|52:114|19:134,1,97.0744205914306,12|0,2:0|2:0,2:0:0:0:
255,341,203914,5,10,2:3:0:0:
338,88,204076,1,8,2:3:0:0:
383,346,204237,2,0,P|442:366|506:365,1,97.0744205914306,12|0,2:0|2:0,2:0:0:0:
424,49,204560,5,10,3:0:0:0:
512,292,204721,1,8,3:0:0:0:
329,68,204882,1,12,2:0:0:0:
255,341,205043,1,0,3:2:0:0:
169,136,205205,5,14,3:2:0:0:
116,347,205366,1,0,3:2:0:0:
28,54,205527,1,0,3:2:0:0:
286,207,205689,5,12,2:0:0:0:
46,136,205850,1,0,3:2:0:0:
384,32,206011,1,0,3:2:0:0:
169,277,206173,5,8,2:0:0:0:
448,384,206334,2,0,P|457:316|469:260,1,116.108615225067,4|0,3:2|2:0,2:0:0:0:
325,114,206656,5,0,3:2:0:0:
381,317,206818,1,8,2:0:0:0:
59,278,206979,1,0,3:2:0:0:
240,169,207140,2,0,P|233:130|226:106,2,63.3491666666666,8|8|0,2:0|2:0|3:2,2:0:0:0:
299,349,207463,2,0,P|354:344|387:297,1,95.1709999999999,0|0,3:2|3:2,2:0:0:0:
467,126,207785,5,14,2:0:0:0:
318,279,207947,1,0,3:2:0:0:
210,76,208108,5,10,2:0:0:0:
483,235,208269,1,8,3:2:0:0:
161,349,208431,5,10,2:0:0:0:
282,0,208592,1,8,3:2:0:0:
484,333,208753,5,10,2:0:0:0:
45,212,208914,1,14,3:2:0:0:
20,209,209237,5,10,2:0:0:0:
471,88,209398,1,14,2:0:0:0:
442,354,213592,5,10,3:2:0:0:
442,354,213673,1,8,3:2:0:0:
443,354,213753,2,0,P|419:350|395:346,1,48.8376002957153,2|0,3:2|3:2,2:0:0:0:
366,139,213914,2,0,P|342:143|318:147,1,48.8376002957153,2|0,3:2|3:2,2:0:0:0:
197,253,214076,6,0,P|130:276|61:299,1,133.239395941162,6|0,3:2|2:0,2:0:0:0:
193,105,214398,2,0,P|260:128|329:151,1,133.239395941162,6|0,3:2|2:0,2:0:0:0:
85,117,214721,2,0,P|103:48|154:9,1,133.239395941162,6|0,3:2|3:2,2:0:0:0:
376,89,215043,1,6,3:2:0:0:
376,89,215124,1,0,3:2:0:0:
376,89,215205,2,0,P|360:153|344:218,1,104.688103189087,12|2,2:0|2:0,2:0:0:0:
230,359,215527,6,0,B|272:292|272:292|243:158,1,209.376206378174,4|8,3:2|2:0,2:0:0:0:
203,23,216011,1,0,2:0:0:0:
339,75,216173,6,0,P|403:91|468:107,1,104.688103189087,2|0,3:2|3:2,2:0:0:0:
119,157,216495,1,10,2:0:0:0:
328,289,216656,2,0,P|355:229|335:160,1,104.688103189087,2|0,3:2|2:0,2:0:0:0:
225,33,216979,1,0,3:2:0:0:
125,175,217140,6,0,P|189:191|254:207,1,104.688103189087,10|0,2:0|3:2,2:0:0:0:
414,100,217463,2,0,P|368:147|321:195,1,104.688103189087,2|0,2:0|3:2,2:0:0:0:
338,380,217785,2,0,P|319:316|301:252,1,104.688103189087,10|0,2:0|2:0,2:0:0:0:
245,74,218108,5,2,3:2:0:0:
434,250,218269,1,0,3:2:0:0:
175,317,218431,5,10,2:0:0:0:
335,66,218592,1,0,3:2:0:0:
309,279,218753,5,10,2:0:0:0:
133,90,218914,1,0,3:2:0:0:
317,189,219076,5,10,2:0:0:0:
66,349,219237,2,0,P|57:281|45:225,1,104.688103189087,6|0,3:2|2:0,2:0:0:0:
0,58,219560,1,8,2:0:0:0:
256,132,219721,1,2,3:2:0:0:
256,132,219802,1,0,3:2:0:0:
256,132,219882,2,0,P|230:136|203:142,1,53.3159015945434,0|0,3:2|3:2,2:0:0:0:
49,245,220043,5,10,2:0:0:0:
85,276,220124,1,0,3:2:0:0:
132,280,220205,1,0,3:2:0:0:
177,264,220285,1,0,3:2:0:0:
219,242,220366,1,10,2:0:0:0:
265,231,220447,1,0,3:2:0:0:
311,244,220527,1,0,3:2:0:0:
349,271,220608,1,0,3:2:0:0:
370,304,220689,6,0,P|379:236|391:180,1,104.688103189087,2|0,3:2|3:2,2:0:0:0:
413,36,221011,6,0,P|463:22|426:135,1,200.271393911743,12|0,3:2|2:0,2:0:0:0:
464,127,221334,5,0,3:2:0:0:
284,81,221495,1,0,3:2:0:0:
484,231,221656,1,10,2:0:0:0:
284,81,221818,6,0,P|216:72|160:60,1,104.688103189087,2|0,3:2|2:0,2:0:0:0:
46,220,222140,2,0,P|114:229|170:241,1,104.688103189087,2|8,3:2|3:2,2:0:0:0:
376,200,222463,2,0,P|308:191|252:179,1,104.688103189087,2|0,3:2|2:0,2:0:0:0:
138,339,222785,2,0,P|206:348|262:360,1,104.688103189087,2|8,3:2|2:0,2:0:0:0:
365,291,223108,1,2,2:0:0:0:
128,133,223269,6,0,P|142:199|150:256,1,104.688103189087,0|0,3:2|3:2,2:0:0:0:
239,125,223592,1,12,2:0:0:0:
45,261,223753,1,0,2:0:0:0:
53,34,223914,5,2,3:2:0:0:
147,235,224076,1,0,3:2:0:0:
144,248,224156,1,0,3:2:0:0:
141,261,224237,1,10,2:0:0:0:
239,125,224398,6,0,P|307:116|363:104,1,104.688103189087,6|0,3:2|2:0,2:0:0:0:
476,291,224721,1,2,3:2:0:0:
493,72,224882,1,8,2:0:0:0:
324,208,225043,6,0,P|256:217|200:229,1,104.688103189087,6|0,3:2|2:0,2:0:0:0:
95,42,225366,1,2,3:2:0:0:
63,257,225527,1,8,2:0:0:0:
257,114,225689,1,10,2:0:0:0:
340,302,225850,6,0,P|392:267|377:135,1,209.376206378174,4|8,3:2|2:0,2:0:0:0:
119,58,226334,1,0,3:2:0:0:
361,115,226495,1,2,3:2:0:0:
116,68,226656,1,0,3:2:0:0:
363,104,226818,1,8,2:0:0:0:
205,316,226979,6,0,B|193:249|173:189|173:189|189:150|249:158,1,209.376206378174,2|0,3:2|3:2,2:0:0:0:
405,318,227463,1,8,2:0:0:0:
445,90,227624,1,0,3:2:0:0:
402,329,227785,5,2,3:2:0:0:
354,88,227947,1,0,3:2:0:0:
400,341,228108,1,8,2:0:0:0:
512,33,228269,1,2,3:2:0:0:
320,238,228431,6,0,P|278:229|216:203,1,104.688103189087,4|0,3:2|3:2,2:0:0:0:
334,74,228753,5,8,2:0:0:0:
134,209,228914,1,0,3:2:0:0:
230,0,229076,5,10,2:0:0:0:
180,278,229237,1,0,3:2:0:0:
29,36,229398,5,10,2:0:0:0:
226,347,229560,2,0,P|268:338|330:312,1,104.688103189087,6|0,3:2|2:0,2:0:0:0:
374,85,229882,1,8,2:0:0:0:
374,85,229963,1,8,2:0:0:0:
374,85,230043,5,10,2:0:0:0:
109,257,230205,1,0,3:2:0:0:
461,373,230366,5,10,2:0:0:0:
299,44,230527,1,0,3:2:0:0:
151,337,230689,5,10,2:0:0:0:
512,308,230850,1,0,3:2:0:0:
220,66,231011,5,10,2:0:0:0:
220,66,231092,1,0,3:2:0:0:
220,66,231173,1,0,3:2:0:0:
220,66,231253,1,0,3:2:0:0:
220,66,231334,6,0,P|197:133|174:202,1,133.239395941162,12|0,2:0|2:0,2:0:0:0:
266,352,231656,1,0,3:2:0:0:
337,103,231818,1,0,3:2:0:0:
424,263,231979,1,10,2:0:0:0:
177,191,232140,6,0,P|107:206|36:222,1,114.205196520996,2|0,3:2|2:0,2:0:0:0:
363,338,232463,2,0,P|432:353|503:369,1,114.205196520996,2|8,3:2|3:2,2:0:0:0:
325,99,232785,2,0,P|309:168|293:239,1,114.205196520996,2|0,3:2|2:0,2:0:0:0:
91,327,233108,2,0,P|78:271|65:215,1,114.205196520996,2|8,3:2|2:0,2:0:0:0:
174,42,233431,1,2,2:0:0:0:
299,210,233592,5,0,3:2:0:0:
41,126,233753,1,0,3:2:0:0:
295,10,233914,2,0,P|308:66|321:122,1,114.205196520996,8|0,2:0|2:0,2:0:0:0:
345,307,234237,5,2,3:2:0:0:
166,171,234398,1,0,3:2:0:0:
395,52,234560,1,10,2:0:0:0:
453,247,234721,6,0,P|397:234|341:221,1,114.205196520996,6|0,3:2|2:0,2:0:0:0:
112,250,235043,1,2,3:2:0:0:
323,102,235205,1,8,2:0:0:0:
73,156,235366,6,0,P|129:143|185:130,1,114.205196520996,6|0,3:2|2:0,2:0:0:0:
414,159,235689,1,2,3:2:0:0:
203,11,235850,1,8,2:0:0:0:
453,65,236011,1,10,2:0:0:0:
453,65,236092,1,8,2:0:0:0:
453,65,236173,6,0,B|461:200|400:144|407:288,1,228.410393041992,4|8,3:2|2:0,2:0:0:0:
163,216,236656,1,0,2:0:0:0:
333,108,236818,1,2,3:2:0:0:
233,373,236979,1,0,3:2:0:0:
87,147,237140,1,10,2:0:0:0:
264,10,237302,6,0,L|237:245,1,228.410393041992,2|0,3:2|3:2,2:0:0:0:
316,270,237785,5,10,2:0:0:0:
191,163,237947,1,0,3:2:0:0:
352,155,238108,5,10,2:0:0:0:
139,270,238269,1,0,3:2:0:0:
431,238,238431,5,10,2:0:0:0:
74,170,238592,1,0,3:2:0:0:
441,105,238753,5,14,3:2:0:0:
42,324,238914,1,0,3:2:0:0:
341,379,239076,5,10,2:0:0:0:
155,60,239237,1,0,3:2:0:0:
147,383,239398,5,10,2:0:0:0:
322,66,239560,1,0,3:2:0:0:
322,66,239640,1,0,3:2:0:0:
322,66,239721,1,10,2:0:0:0:
411,262,239882,6,0,P|355:249|299:236,1,114.205196520996,6|0,3:2|2:0,2:0:0:0:
107,198,240205,1,0,3:2:0:0:
204,352,240366,1,2,3:2:0:0:
257,335,240447,1,0,3:2:0:0:
293,292,240527,1,0,3:2:0:0:
299,236,240608,1,0,3:2:0:0:
273,186,240689,6,0,P|279:158|286:130,1,57.455998260498,10|0,2:0|3:2,2:0:0:0:
360,14,240850,2,0,P|367:41|373:69,1,57.455998260498,0|0,3:2|3:2,2:0:0:0:
400,210,241011,2,0,P|394:182|387:154,1,57.455998260498,10|0,2:0|3:2,2:0:0:0:
242,8,241173,2,0,P|235:35|229:63,1,56.749198260498,0|0,3:2|3:2,2:0:0:0:
193,261,241334,5,2,3:2:0:0:
43,173,241495,1,0,3:2:0:0:
43,173,241576,1,0,3:2:0:0:
43,173,241656,5,12,2:0:0:0:
292,209,241818,1,0,3:2:0:0:
110,339,241979,5,8,2:0:0:0:
377,138,242140,1,0,3:2:0:0:
220,375,242302,5,10,2:0:0:0:
117,62,242463,1,2,3:2:0:0:
436,310,242624,5,8,2:0:0:0:
15,279,242785,1,2,3:2:0:0:
272,27,242947,5,8,2:0:0:0:
330,359,243108,1,2,3:2:0:0:
467,10,243269,5,8,2:0:0:0:
129,328,243431,1,2,3:2:0:0:
15,27,243592,5,8,2:0:0:0:
417,282,243753,2,0,P|489:247|529:196,1,114.205196520996,14|0,3:2|2:0,2:0:0:0:
280,15,244076,5,8,2:0:0:0:
225,341,244237,1,8,2:0:0:0:
87,141,244398,1,8,2:0:0:0:
413,196,244560,5,8,2:0:0:0:
413,196,244640,1,8,2:0:0:0:
413,196,244721,2,0,P|385:191|356:185,1,58.1627982604981,8|8,2:0|2:0,2:0:0:0:
148,247,244882,1,10,2:0:0:0:
242,46,245043,5,10,3:2:0:0:
353,312,245366,5,10,3:2:0:0:
70,224,245689,5,10,3:2:0:0:
345,25,246011,5,2,3:2:0:0:
345,25,246092,1,0,3:2:0:0:
345,25,246173,2,0,P|334:85|321:149,1,114.205196520996,8|2,3:2|0:0,2:0:0:0:
353,312,246495,6,0,B|262:281|199:322|199:322|163:297|154:255,1,228.410393041992,6|8,3:2|2:0,2:0:0:0:
214,164,246979,1,0,3:2:0:0:
406,250,247140,2,0,P|433:306|419:364,1,114.205196520996,2|0,3:2|3:2,2:0:0:0:
158,269,247463,1,10,2:0:0:0:
323,136,247624,6,0,B|407:140|487:155|487:155|455:136|444:95,1,228.410393041992,2|0,3:2|3:2,2:0:0:0:
260,32,248108,2,0,P|200:43|136:56,1,114.205196520996,10|0,2:0|3:2,2:0:0:0:
46,290,248431,2,0,P|106:279|170:266,1,114.205196520996,2|0,3:2|3:2,2:0:0:0:
355,187,248753,2,0,P|300:176|244:166,1,114.205196520996,10|0,2:0|3:2,2:0:0:0:
12,142,249076,5,6,3:2:0:0:
245,289,249237,1,0,3:2:0:0:
29,133,249398,1,10,2:0:0:0:
284,69,249560,1,0,3:2:0:0:
119,194,249721,5,10,2:0:0:0:
119,194,249802,1,0,3:2:0:0:
119,194,249882,2,0,P|124:166|129:138,1,57.455998260498,0|0,3:2|3:2,2:0:0:0:
147,23,250043,1,10,3:2:0:0:
389,118,250205,6,0,B|307:123|215:104,1,171.661194781494,6|0,3:2|2:0,2:0:0:0:
195,90,250527,1,8,2:0:0:0:
328,223,250689,1,8,2:0:0:0:
120,357,250850,2,0,B|166:342|231:337,1,114.205196520996,8|8,2:0|3:2,2:0:0:0:
417,359,251173,5,8,2:0:0:0:
417,359,251253,1,8,2:0:0:0:
417,359,251334,2,0,B|419:326|427:303,1,57.455998260498,8|8,3:2|2:0,2:0:0:0:
328,223,251495,2,0,B|325:190|318:167,1,57.455998260498,0|0,3:2|3:2,2:0:0:0:
441,83,251656,5,14,2:0:0:0:
176,204,251818,1,2,3:2:0:0:
311,20,251979,5,10,2:0:0:0:
426,303,252140,1,2,3:2:0:0:
109,143,252302,5,10,2:0:0:0:
425,27,252463,1,2,3:2:0:0:
251,358,252624,5,8,2:0:0:0:
139,45,252785,1,2,3:2:0:0:
118,358,252947,5,8,2:0:0:0:
272,100,253108,1,2,3:2:0:0:
352,357,253269,5,8,2:0:0:0:
109,143,253431,2,0,L|53:127,1,57.455998260498,2|0,3:2|3:2,2:0:0:0:
406,203,253592,5,8,2:0:0:0:
117,343,253753,1,0,3:2:0:0:
357,70,253914,5,8,2:0:0:0:
247,344,254076,1,0,3:2:0:0:
121,51,254237,5,10,2:0:0:0:
345,290,254398,1,2,3:2:0:0:
2,186,254560,5,10,2:0:0:0:
280,19,254721,1,2,3:2:0:0:
106,354,254882,5,10,2:0:0:0:
7,14,255043,1,10,3:2:0:0:
371,174,255205,1,8,2:0:0:0:
43,270,255366,5,6,3:2:0:0:
414,277,255689,5,6,3:2:0:0:
137,103,256011,6,0,P|198:92|263:81,1,114.205196520996,6|8,3:2|2:3,2:0:0:0:
276,87,256253,1,8,2:3:0:0:
276,87,256334,1,2,3:2:0:0:
203,271,256495,1,12,2:0:0:0:
42,164,256656,1,0,3:2:0:0:
42,164,256737,1,0,3:2:0:0:
42,164,256818,6,0,P|50:92|64:21,1,142.756505435944,6|0,3:2|2:0,2:0:0:0:
276,87,257302,1,2,3:2:0:0:
214,200,257463,2,0,P|207:234|202:270,2,71.3782527179718,8|0|2,2:0|2:0|2:0,2:0:0:0:
137,103,257947,1,0,2:0:0:0:
308,177,258108,5,2,3:2:0:0:
367,80,258269,2,0,L|525:55,1,142.756505435944,8|2,2:0|3:2,2:0:0:0:
447,163,258753,2,0,P|440:197|435:233,1,71.3782527179718,10|0,2:0|3:2,2:0:0:0:
340,331,259076,2,0,P|328:297|314:264,1,71.3782527179718,2|2,2:0|3:2,2:0:0:0:
273,118,259398,5,4,3:2:0:0:
273,118,259721,5,8,2:0:0:0:
398,215,259882,1,0,3:2:0:0:
134,208,260043,5,8,2:0:0:0:
323,31,260205,1,0,3:2:0:0:
315,318,260366,5,10,2:0:0:0:
96,96,260527,1,10,3:2:0:0:
466,139,260689,5,10,2:0:0:0:
169,363,260850,1,8,3:2:0:0:
206,16,261011,5,10,2:0:0:0:
490,259,261173,1,10,2:0:0:0:
71,320,261334,5,8,2:0:0:0:
463,155,261495,1,8,2:0:0:0:
466,139,261576,1,8,2:0:0:0:
470,124,261656,5,10,2:0:0:0:
116,16,261818,1,10,2:0:0:0:
268,227,261979,5,6,3:2:0:0:
342,44,262140,1,0,3:2:0:0:
287,328,262302,1,8,2:0:0:0:
88,120,262463,6,0,P|150:98|210:72,1,97.0744205914306,6|0,3:2|2:0,2:0:0:0:
371,227,262785,1,10,3:2:0:0:
123,328,262947,1,8,3:2:0:0:
249,26,263108,6,0,P|271:88|297:148,1,97.0744205914306,14|0,3:2|2:0,2:0:0:0:
457,284,263431,1,0,3:2:0:0:
173,220,263592,1,8,2:0:0:0:
352,68,263753,6,0,P|366:107|365:134,1,48.8376002957153,0|0,3:2|3:2,2:0:0:0:
470,193,263914,2,0,P|438:217|412:225,1,48.8376002957153,8|0,2:0|3:2,2:0:0:0:
389,348,264076,2,0,P|355:324|339:302,1,48.8376002957153,2|0,3:2|3:2,2:0:0:0:
215,319,264237,2,0,P|227:278|243:256,1,48.8376002957153,10|0,2:0|3:2,2:0:0:0:
193,144,264398,2,0,P|235:141|261:151,1,48.8376002957153,2|0,3:2|3:2,2:0:0:0:
328,210,264560,5,6,3:2:0:0:
347,121,266979,5,0,3:2:0:0:
347,121,267060,1,0,3:2:0:0:
347,121,267140,1,14,3:2:0:0:
286,365,267302,1,0,3:2:0:0:
156,119,267463,5,8,2:0:0:0:
422,217,267624,1,0,3:2:0:0:
149,326,267785,69,8,2:0:0:0:
259,21,267947,1,0,3:2:0:0:
391,327,268108,5,10,2:0:0:0:
118,208,268269,1,2,3:2:0:0:
442,37,268431,5,10,2:0:0:0:
125,127,268592,1,0,3:2:0:0:
125,127,268673,1,0,3:2:0:0:
125,127,268753,1,10,2:0:0:0:
66,143,268834,1,8,2:0:0:0:
36,195,268914,1,10,2:0:0:0:
48,254,268995,1,8,2:0:0:0:
97,288,269076,1,8,2:0:0:0:
157,283,269156,1,8,2:0:0:0:
197,238,269237,1,8,2:0:0:0:
214,180,269318,1,8,2:0:0:0:
256,137,269398,1,10,2:0:0:0:
314,128,269479,1,8,2:0:0:0:
363,162,269560,1,10,2:0:0:0:
378,218,269640,1,8,2:0:0:0:
351,270,269721,6,0,L|338:369,1,97.0744205914306,6|0,3:2|2:0,2:0:0:0:
512,99,270043,2,0,P|442:103|370:33,1,145.912020887146,8|0,2:0|2:0,2:0:0:0:
367,69,270366,2,0,P|359:123|350:168,1,97.0744205914306,2|0,3:2|2:0,2:0:0:0:
367,365,270689,2,0,P|358:318|351:270,1,97.0744205914306,10|0,2:0|2:0,2:0:0:0:
125,150,271011,6,0,P|140:231|245:281,1,194.148841182861,2|10,3:2|2:0,2:0:0:0:
365,171,271495,2,0,P|356:124|349:76,1,97.0744205914306,2|0,2:0|3:2,2:0:0:0:
146,34,271818,1,2,2:0:0:0:
250,251,271979,1,8,2:0:0:0:
438,106,272140,1,2,2:0:0:0:
257,150,272302,6,0,B|142:157|190:106|62:112,1,194.148841182861,4|8,3:2|2:0,2:0:0:0:
231,56,272785,1,0,2:0:0:0:
107,200,272947,5,8,3:2:0:0:
305,250,273108,1,10,3:2:0:0:
147,40,273269,1,10,2:0:0:0:
52,343,273431,1,6,3:2:0:0:
71,336,273753,5,2,3:2:0:0:
256,137,273914,1,8,2:0:0:0:
366,384,274076,1,6,3:2:0:0:
380,361,274398,5,2,3:2:0:0:
202,241,274560,2,0,L|105:254,1,97.0744205914306,8|0,2:0|2:0,2:0:0:0:
15,265,274882,1,6,3:2:0:0:
15,265,275205,5,10,2:0:0:0:
187,62,275366,1,2,3:2:0:0:
264,312,275527,1,10,2:0:0:0:
41,118,275689,1,10,2:0:0:0:
302,165,275850,1,10,2:0:0:0:
124,356,276011,6,0,B|85:296|85:296|112:174,1,194.148841182861,6|8,3:2|2:3,2:0:0:0:
143,35,276495,6,0,P|182:70|221:104,1,97.0744205914306,2|4,2:0|2:3,2:0:0:0:
215,300,276818,2,0,P|225:248|234:196,1,97.0744205914306,2|0,2:0|3:2,2:0:0:0:
408,104,277140,2,0,P|341:127|272:151,1,97.0744205914306,2|0,3:2|2:0,2:0:0:0:
124,356,277463,5,6,3:2:0:0:
124,356,277785,5,0,3:2:0:0:
227,148,277947,1,0,3:2:0:0:
407,286,278108,1,8,2:0:0:0:
170,255,278269,1,8,2:0:0:0:
287,8,278431,69,8,2:0:0:0:
311,307,278592,1,8,2:0:0:0:
82,125,278753,1,10,2:0:0:0:
417,99,278914,1,8,2:0:0:0:
118,326,279076,5,8,2:0:0:0:
400,21,279237,1,8,2:0:0:0:
492,267,279398,5,10,2:0:0:0:
449,269,279479,1,8,2:0:0:0:
408,258,279560,1,8,2:0:0:0:
374,230,279640,1,8,2:0:0:0:
341,205,279721,1,8,2:0:0:0:
299,192,279802,1,8,2:0:0:0:
256,192,279882,5,6,3:2:0:0:
256,192,279963,12,0,283914,2:0:0:0:
