osu file format v14

[General]
AudioFilename: audio.mp3
AudioLeadIn: 0
PreviewTime: 124156
Countdown: 0
SampleSet: Soft
StackLeniency: 0.7
Mode: 0
LetterboxInBreaks: 0
WidescreenStoryboard: 0

[Editor]
DistanceSpacing: 0.9
BeatDivisor: 4
GridSize: 4
TimelineZoom: 3.699998

[Metadata]
Title:Soundscape
TitleUnicode:サウンドスケープ
Artist:TRUE
ArtistUnicode:TRUE
Creator:SkyFlame
Version:Meg's Extra
Source:響け!ユーフォニアム2
Tags:sound hibike euphonium season 2 opening full size anime -laura- akitoshi corinn kalibe kibbleru kowari meg iMage-- japanese OP ver. version female vocal pop jpop
BeatmapID:1791963
BeatmapSetID:534054

[Difficulty]
HPDrainRate:6
CircleSize:4
OverallDifficulty:9
ApproachRate:9.5
SliderMultiplier:1.8
SliderTickRate:1

[Events]
//Background and Video events
0,0,"eupho.jpg",0,0
//Break Periods
2,82824,89841
2,210566,212906
2,264760,266454
//Storyboard Layer 0 (Background)
//Storyboard Layer 1 (Fail)
//Storyboard Layer 2 (Pass)
//Storyboard Layer 3 (Foreground)
//Storyboard Layer 4 (Overlay)
//Storyboard Sound Samples

[TimingPoints]
44,322.58064516129,4,2,1,60,1,0
14237,-133.333333333333,4,2,1,50,0,0
21979,-100,4,2,1,60,0,0
35205,-133.333333333333,4,2,1,60,0,0
38592,-100,4,2,1,60,0,0
46710,-83.3333333333333,4,2,1,60,0,0
49076,-83.3333333333333,4,2,1,70,0,1
49398,-76.9230769230769,4,2,1,70,0,1
49721,-90.9090909090909,4,2,1,70,0,1
59721,-76.9230769230769,4,2,1,70,0,1
60043,-90.9090909090909,4,2,1,70,0,1
69560,-90.9090909090909,4,2,1,70,0,0
69721,-90.9090909090909,4,2,1,80,0,1
74398,-83.3333333333333,4,2,1,80,0,1
74882,-125,4,2,1,70,0,1
77463,-83.3333333333333,4,2,1,80,0,1
80043,-83.3333333333333,4,2,1,60,0,0
90366,-100,4,2,1,60,0,0
111334,-133.333333333333,4,2,1,60,0,0
114721,-100,4,2,1,60,0,0
122785,-83.3333333333333,4,2,1,60,0,0
125205,-100,4,2,1,70,0,1
125527,-76.9230769230769,4,2,1,70,0,1
125850,-90.9090909090909,4,2,1,70,0,1
135850,-76.9230769230769,4,2,1,70,0,1
136173,-90.9090909090909,4,2,1,70,0,1
145689,-90.9090909090909,4,2,1,70,0,0
145850,-90.9090909090909,4,2,1,80,0,1
150527,-83.3333333333333,4,2,1,80,0,1
151011,-125,4,2,1,70,0,1
153592,-83.3333333333333,4,2,1,80,0,1
156173,-133.333333333333,4,2,1,60,0,0
160043,-100,4,2,1,60,0,0
181979,-133.333333333333,4,2,1,60,0,0
185689,-100,4,2,1,60,0,0
187140,-100,4,2,1,70,0,0
202624,-100,4,2,1,80,0,0
202947,-76.9230769230769,4,2,1,80,0,0
206334,-83.3333333333333,4,2,1,80,0,0
210366,-83.3333333333333,4,2,1,60,0,0
214076,-83.3333333333333,4,2,1,80,0,1
214156,-83.3333333333333,4,2,1,80,0,0
214398,-83.3333333333333,4,2,1,80,0,1
214479,-83.3333333333333,4,2,1,80,0,0
214721,-83.3333333333333,4,2,1,80,0,1
214802,-83.3333333333333,4,2,1,80,0,0
215043,-83.3333333333333,4,2,1,80,0,1
215124,-83.3333333333333,4,2,1,80,0,0
215205,-100,4,2,1,80,0,0
215527,-90.9090909090909,4,2,1,80,0,1
220689,-133.333333333333,4,2,1,80,0,0
221011,-76.9230769230769,4,2,1,80,0,1
221334,-83.3333333333333,4,2,1,80,0,1
231011,-100,4,2,1,80,0,0
231334,-76.9230769230769,4,2,1,80,0,1
231656,-83.3333333333333,4,2,1,80,0,1
251495,-83.3333333333333,4,2,1,80,0,0
251656,-83.3333333333333,4,2,1,90,0,1
256818,-125,4,2,1,80,0,1
259398,-83.3333333333333,4,2,1,90,0,1
259721,-71.4285714285714,4,2,1,90,0,1
261656,-83.3333333333333,4,2,1,90,0,1
264560,-83.3333333333333,4,2,1,60,0,0
267140,-100,4,2,1,95,0,1
269721,-100,4,2,1,80,0,0
276011,-133.333333333333,4,2,1,60,0,0
277463,-100,4,2,1,80,0,0
283914,-100,4,2,1,5,0,0

[Colours]
Combo1 : 138,104,155
Combo2 : 92,132,204
Combo3 : 231,200,109
Combo4 : 189,141,163

[HitObjects]
412,316,850,6,0,L|456:323,2,45.081,0|0|12,3:2|3:0|2:0,2:0:0:0:
148,296,1334,5,14,2:0:0:0:
248,264,1495,1,10,2:0:0:0:
348,232,1656,1,10,2:0:0:0:
364,244,1979,1,10,2:0:0:0:
380,256,2302,1,10,2:0:0:0:
440,124,2463,5,10,2:0:0:0:
437,104,2785,1,10,2:0:0:0:
434,84,3108,1,10,2:0:0:0:
292,136,3269,5,10,2:0:0:0:
409,233,3431,1,10,2:0:0:0:
332,72,3592,2,0,P|267:62|221:109,1,135.522,10|0,2:0|2:0,2:0:0:0:
212,144,3914,5,10,2:0:0:0:
244,248,4076,1,10,2:0:0:0:
276,352,4237,1,10,2:0:0:0:
256,348,4560,1,10,2:0:0:0:
236,344,4882,1,10,2:0:0:0:
60,360,5043,5,10,2:0:0:0:
48,344,5366,2,0,P|34:258|95:196,1,180.324,10|10,2:0|2:0,2:0:0:0:
256,192,5850,1,10,2:0:0:0:
277,166,5931,1,8,2:0:0:0:
285,133,6011,1,8,2:0:0:0:
279,100,6092,1,8,2:0:0:0:
259,73,6173,2,0,L|214:69,1,45.36,10|8,2:0|2:0,2:0:0:0:
40,144,6334,2,0,L|84:147,1,45.36,8|8,2:0|2:0,2:0:0:0:
316,252,6495,6,0,P|384:224|488:305,2,180,6|8|2,3:2|0:0|3:2,0:0:0:0:
81,296,7302,1,0,3:0:0:0:
191,367,7463,2,0,P|203:323|203:279,1,90,10|0,0:0|0:0,0:0:0:0:
127,59,7785,6,0,L|135:193,1,135,2|0,3:2|0:0,0:0:0:0:
135,193,8108,1,10,0:0:0:0:
316,251,8269,2,0,P|331:210|328:165,1,90,2|0,3:2|0:0,0:0:0:0:
203,279,8592,2,0,P|199:323|215:365,1,90,2|8,3:0|0:0,0:0:0:0:
407,151,8914,6,0,P|346:90|266:118,1,180,6|0,3:2|3:0,0:0:0:0:
46,175,9398,2,0,L|134:193,2,90,8|0|10,0:0|0:0|3:2,0:0:0:0:
316,251,9882,1,10,3:0:0:0:
164,86,10043,1,10,0:0:0:0:
54,337,10205,6,0,P|34:298|33:253,1,90,6|0,3:2|0:0,0:0:0:0:
164,86,10527,2,0,P|184:125|185:170,1,90,2|8,3:0|0:0,0:0:0:0:
285,338,10850,1,4,3:2:0:0:
285,338,11173,2,0,L|329:331,1,45,2|0,3:0|3:0,0:0:0:0:
427,352,11334,2,0,P|443:287|418:225,1,135,10|0,0:0|0:0,0:0:0:0:
418,225,11656,6,0,L|328:219,1,90,6|0,3:2|0:0,0:0:0:0:
164,86,11979,2,0,L|253:91,1,90,10|2,0:0|0:0,0:0:0:0:
482,186,12302,1,10,0:0:0:0:
285,338,12463,1,10,0:0:0:0:
253,91,12624,1,10,0:0:0:0:
291,325,12785,6,0,P|299:281|289:237,1,90,4|0,3:2|0:0,0:0:0:0:
67,275,13108,1,0,3:0:0:0:
67,275,13189,1,0,3:0:0:0:
67,275,13269,2,0,L|111:271,1,45,8|0,0:0|0:0,0:0:0:0:
174,179,13431,2,0,L|218:182,1,45,8|0,0:0|0:0,0:0:0:0:
332,307,13592,5,2,3:2:0:0:
371,328,13672,1,2,3:2:0:0:
415,331,13753,1,2,3:2:0:0:
456,313,13833,1,2,3:2:0:0:
486,280,13914,2,0,P|490:258|486:236,1,45,8|8,0:0|0:0,0:0:0:0:
402,145,14076,2,0,P|397:166|401:188,1,45,0|0,3:2|3:2,0:0:0:0:
468,88,14237,6,0,P|408:60|346:81,1,135.243005149842,6|0,2:0|3:2,2:0:0:0:
248,52,14721,1,0,2:0:0:0:
248,52,14882,2,0,P|236:83|232:117,1,67.6215025749207,0|0,3:2|2:0,2:0:0:0:
144,168,15205,2,0,P|139:134|128:102,1,67.6215025749207,2|0,3:2|2:0,2:0:0:0:
71,239,15527,6,0,P|132:267|196:252,2,135.033755149842,2|2|2,3:2|3:2|3:2,2:0:0:0:
232,116,16495,1,2,3:2:0:0:
368,336,16818,6,0,L|364:268,1,67.6215025749207,2|0,3:2|2:0,2:0:0:0:
284,328,17140,2,0,L|280:260,1,67.6215025749207,2|0,3:2|2:0,2:0:0:0:
200,320,17463,2,0,L|196:252,1,67.6215025749207,2|0,3:2|2:0,2:0:0:0:
116,312,17785,2,0,L|108:177,1,135.243005149842,6|0,3:2|3:2,2:0:0:0:
364,268,18431,5,0,3:2:0:0:
364,268,18592,1,8,2:0:0:0:
292,179,18753,2,0,P|321:163|354:156,1,67.6215025749207,2|0,3:2|2:0,2:0:0:0:
484,104,19076,2,0,P|454:87|421:80,1,67.6215025749207,2|0,3:2|2:0,2:0:0:0:
427,223,19398,6,0,P|439:288|398:338,1,135.243005149842,6|0,3:2|3:2,2:0:0:0:
220,179,20043,2,0,P|191:163|158:156,1,67.6215025749207,2|0,3:2|2:0,2:0:0:0:
28,104,20366,2,0,P|58:87|91:80,1,67.6215025749207,2|0,3:2|2:0,2:0:0:0:
85,223,20689,6,0,P|73:288|114:338,1,135.243005149842,2|0,3:2|3:2,2:0:0:0:
256,216,21334,2,0,L|256:148,1,67.6215025749207,2|0,3:2|2:0,2:0:0:0:
180,76,21656,2,0,P|139:104|89:104,1,101.641503862381,2|0,3:2|2:0,2:0:0:0:
112,24,21979,6,0,L|245:42,1,135.522,14|0,2:0|2:0,2:0:0:0:
344,36,22302,2,0,L|349:80,3,45.174,10|8|10|8,3:2|2:0|2:0|2:0,2:0:0:0:
384,104,22624,1,8,3:2:0:0:
381,131,22705,1,8,2:0:0:0:
378,159,22785,1,8,2:0:0:0:
375,187,22866,1,8,2:0:0:0:
372,215,22947,2,0,L|377:259,3,45.174,10|8|10|8,2:0|2:0|2:0|2:0,2:0:0:0:
382,303,23269,5,0,3:2:0:0:
200,248,23431,1,10,3:2:0:0:
200,248,23753,5,10,3:2:0:0:
116,128,23914,1,6,2:0:0:0:
312,96,24076,1,2,3:2:0:0:
112,219,24237,2,0,P|116:286|161:333,1,135.522,14|0,2:0|2:0,2:0:0:0:
208,352,24560,6,0,B|260:328|260:328|381:343,1,180.324,6|8,3:2|2:0,2:0:0:0:
476,220,25043,1,0,2:0:0:0:
355,251,25205,2,0,P|354:207|366:163,1,90.1619999999999,0|0,3:2|3:2,2:0:0:0:
492,32,25527,2,0,P|503:75|502:120,1,90.1619999999999,10|0,2:0|2:0,2:0:0:0:
476,220,25850,6,0,L|342:201,1,135.522,2|0,3:2|2:0,2:0:0:0:
342,201,26173,2,0,L|329:290,1,90.1619999999999,10|0,2:0|2:0,2:0:0:0:
188,360,26495,2,0,L|175:270,1,90.1619999999999,2|0,3:2|3:2,2:0:0:0:
280,111,26818,2,0,P|322:96|366:96,1,90.1619999999999,10|0,2:0|2:0,2:0:0:0:
188,175,27140,6,0,P|102:161|63:83,1,180.324,2|10,3:2|2:0,2:0:0:0:
160,84,27624,1,0,2:0:0:0:
92,260,27785,1,2,3:2:0:0:
188,175,27947,1,0,3:2:0:0:
207,340,28108,6,0,P|294:317|384:317,1,180.324,14|0,2:0|3:2,2:0:0:0:
496,219,28592,1,0,3:2:0:0:
496,219,28753,2,0,P|431:206|400:149,1,135.522,8|2,2:0|2:0,2:0:0:0:
399,120,29076,2,0,P|406:75|408:30,1,90.1619999999999,2|0,3:2|3:2,2:0:0:0:
288,201,29398,2,0,P|281:156|279:111,1,90.1619999999999,10|0,2:0|2:0,2:0:0:0:
296,68,29640,1,0,2:0:0:0:
296,68,29721,6,0,B|252:68|252:68|208:54,2,90.1619999999999,6|0|8,3:2|2:0|2:0,2:0:0:0:
480,144,30205,1,2,2:0:0:0:
376,224,30366,2,0,P|368:268|364:313,1,90.1619999999999,2|0,3:2|2:0,2:0:0:0:
216,360,30689,2,0,P|181:331|144:305,1,90.1619999999999,10|0,2:0|2:0,2:0:0:0:
32,252,31011,5,2,3:2:0:0:
66,98,31173,1,0,2:0:0:0:
182,203,31334,1,8,2:0:0:0:
80,184,31495,1,2,2:0:0:0:
216,76,31656,2,0,L|305:86,1,90.1619999999999,2|0,3:2|3:2,2:0:0:0:
392,200,31979,2,0,L|302:210,1,90.1619999999999,10|0,2:0|2:0,2:0:0:0:
168,360,32302,6,0,P|152:304|176:220,1,135.522,6|0,3:2|2:0,2:0:0:0:
182,203,32624,1,10,2:0:0:0:
60,328,32785,1,2,2:0:0:0:
268,292,32947,2,0,P|312:298|355:310,1,90.1619999999999,0|0,3:2|3:2,2:0:0:0:
168,360,33269,1,10,2:0:0:0:
432,352,33431,6,0,B|460:252|400:280|422:176,1,180.324,6|8,3:2|2:3,2:0:0:0:
422,176,33914,1,8,2:3:0:0:
280,24,34076,2,0,P|265:66|265:111,1,90.1619999999999,4|8,3:2|2:0,2:0:0:0:
304,208,34398,1,0,3:2:0:0:
472,100,34560,2,0,P|428:88|383:91,1,90.1619999999999,8|8,2:3|2:3,2:0:0:0:
200,194,34882,5,4,3:2:0:0:
200,194,35205,2,0,P|136:172|69:174,2,135.033755149842,2|10|2,3:2|2:0|3:2,2:0:0:0:
264,272,36011,6,0,L|252:338,1,67.6215025749207,2|0,3:2|2:0,2:0:0:0:
365,238,36334,1,8,2:0:0:0:
388,372,36495,2,0,L|365:238,1,135.243005149842,2|10,3:2|2:0,2:0:0:0:
365,238,37140,1,2,3:2:0:0:
468,184,37302,1,2,2:0:0:0:
448,72,37463,6,0,P|425:47|393:37,1,67.6215025749207,4|0,3:2|2:0,2:0:0:0:
240,44,37785,2,0,L|139:59,1,101.641503862381,2|0,3:2|2:0,2:0:0:0:
96,52,38108,1,10,3:2:0:0:
204,184,38269,1,8,2:0:0:0:
35,211,38431,1,10,2:0:0:0:
252,124,38592,6,0,P|277:204|213:260,1,180.324,14|10,2:0|3:2,2:0:0:0:
96,52,39076,1,10,3:2:0:0:
203,183,39237,2,0,P|293:189|381:172,1,180.324,14|0,3:2|3:2,2:0:0:0:
256,348,39721,1,8,2:3:0:0:
256,36,40043,5,4,3:2:0:0:
256,36,40366,2,0,P|220:62|178:77,1,90.1619999999999,10|0,2:0|3:2,2:0:0:0:
23,105,40689,2,0,P|63:123|98:152,1,90.1619999999999,2|0,3:2|3:2,2:0:0:0:
200,272,41011,2,0,P|195:227|203:183,1,90.1619999999999,10|0,2:0|2:0,2:0:0:0:
312,112,41334,6,0,P|317:157|309:201,1,90.1619999999999,6|0,3:2|2:0,2:0:0:0:
98,152,41656,1,10,2:0:0:0:
257,348,41818,1,2,2:0:0:0:
257,348,41898,1,2,2:0:0:0:
257,348,41979,2,0,P|293:322|335:307,1,90.1619999999999,2|0,3:2|3:2,2:0:0:0:
489,279,42302,2,0,P|449:261|414:232,1,90.1619999999999,10|0,2:0|2:0,2:0:0:0:
468,40,42624,6,0,L|289:66,1,180.324,6|8,3:2|2:0,2:0:0:0:
172,192,43108,1,0,2:0:0:0:
23,100,43269,1,10,2:0:0:0:
44,73,43350,1,8,2:0:0:0:
73,55,43431,1,8,2:0:0:0:
105,48,43511,1,8,2:0:0:0:
139,53,43592,1,8,2:0:0:0:
102,278,43753,6,0,B|118:162|118:162|172:192,1,180.324,6|2,3:2|3:2,2:0:0:0:
377,276,44237,1,10,2:0:0:0:
260,87,44398,1,2,3:2:0:0:
244,308,44560,1,10,2:0:0:0:
386,138,44721,1,2,3:2:0:0:
172,192,44882,1,10,2:0:0:0:
452,212,45043,1,2,3:2:0:0:
288,348,45205,6,0,B|280:304|280:304|287:258,1,90.1619999999999,8|2,2:0|3:2,2:0:0:0:
386,49,45527,2,0,B|393:94|393:94|385:138,1,90.1619999999999,10|10,2:0|2:0,2:0:0:0:
372,160,45769,1,8,2:0:0:0:
359,183,45850,1,6,2:3:0:0:
212,92,46011,1,6,2:3:0:0:
452,212,46173,1,6,2:3:0:0:
102,278,46334,1,14,2:0:0:0:
102,278,46710,6,0,P|134:264|170:260,1,72.3527978027343,10|0,2:0|2:0,2:0:0:0:
224,204,46925,2,0,P|191:189|155:185,1,72.3527978027343,10|0,2:0|2:0,2:0:0:0:
102,130,47140,2,0,P|134:115|170:111,1,72.3527978027343,10|0,2:0|2:0,2:0:0:0:
253,48,47355,6,0,L|264:120,1,72.3527978027343,10|0,2:0|2:0,2:0:0:0:
336,152,47570,2,0,L|346:223,1,72.3527978027343,10|0,2:0|2:0,2:0:0:0:
428,326,47785,6,0,L|444:219,1,108.194396704102,14|0,2:0|2:0,2:0:0:0:
504,56,48108,2,0,P|454:35|402:46,1,108.194396704102,2|0,2:0|3:0,2:0:0:0:
384,64,48350,1,0,3:2:0:0:
372,88,48431,6,0,L|368:141,1,54.4319983520508,2|2,2:0|2:0,2:0:0:0:
264,284,48592,2,0,L|260:230,1,54.4319983520508,0|0,3:2|3:2,2:0:0:0:
152,48,48753,2,0,P|98:55|51:81,1,108.194396704102,10|0,2:0|2:0,2:0:0:0:
256,108,49076,5,10,2:0:0:0:
267,109,49156,1,8,2:0:0:0:
278,111,49237,1,8,2:0:0:0:
289,113,49318,1,8,2:0:0:0:
321,118,49398,6,0,P|390:73|453:125,1,176.178591966248,12|0,3:2|2:0,2:0:0:0:
488,200,49721,6,0,L|471:297,1,99.1782030212402,0|0,3:2|3:2,2:0:0:0:
260,230,50043,1,10,2:0:0:0:
435,380,50205,6,0,P|442:289|353:268,1,198.356406042481,2|2,3:2|3:2,2:0:0:0:
126,193,50689,1,8,3:2:0:0:
260,68,50850,2,0,P|266:116|267:166,1,99.1782030212402,2|0,3:2|2:0,2:0:0:0:
119,291,51173,2,0,P|119:241|126:192,1,99.1782030212402,2|8,3:2|2:0,2:0:0:0:
84,16,51495,1,2,2:0:0:0:
260,68,51656,6,0,L|358:54,1,99.1782030212402,0|0,3:2|2:0,2:0:0:0:
126,193,51979,2,0,P|82:170|53:130,1,99.1782030212402,8|0,2:0|2:0,2:0:0:0:
184,336,52302,1,2,3:2:0:0:
276,180,52463,1,0,3:2:0:0:
24,248,52624,1,10,2:0:0:0:
278,287,52785,6,0,P|327:283|375:297,1,99.1782030212402,6|0,3:2|2:0,2:0:0:0:
468,360,53108,1,2,3:2:0:0:
484,148,53269,1,8,2:0:0:0:
276,180,53431,2,0,P|230:160|195:126,1,99.1782030212402,6|0,3:2|2:0,2:0:0:0:
356,88,53753,1,2,3:2:0:0:
279,288,53914,1,8,2:0:0:0:
484,148,54076,1,10,2:0:0:0:
484,148,54156,1,8,2:0:0:0:
484,148,54237,6,0,B|508:76|480:23|480:23|410:31,1,198.356406042481,4|8,3:2|2:0,2:0:0:0:
276,180,54721,1,0,2:0:0:0:
392,308,54882,2,0,L|488:285,2,99.1782030212402,2|0|10,3:2|3:2|2:0,2:0:0:0:
203,360,55366,6,0,P|185:269|92:257,1,198.356406042481,2|0,3:2|3:2,2:0:0:0:
296,232,55850,1,10,2:0:0:0:
128,328,56011,1,0,3:2:0:0:
179,142,56173,1,2,2:0:0:0:
128,328,56334,1,0,3:2:0:0:
32,160,56495,1,10,2:0:0:0:
128,328,56656,1,0,2:0:0:0:
296,232,56818,6,0,P|344:224|394:222,1,99.1782030212402,2|0,3:2|3:2,2:0:0:0:
179,142,57140,2,0,P|129:140|80:132,1,99.1782030212402,10|0,2:0|3:2,2:0:0:0:
280,24,57463,1,10,2:0:0:0:
196,236,57624,1,0,3:2:0:0:
422,203,57785,1,10,2:0:0:0:
121,296,57947,6,0,P|106:202|179:142,1,198.356406042481,6|8,3:2|2:0,2:0:0:0:
337,258,58431,1,2,3:2:0:0:
365,283,58511,1,0,3:2:0:0:
399,297,58592,1,0,3:2:0:0:
436,300,58673,1,0,3:2:0:0:
472,292,58753,6,0,L|485:271,1,24.9480007553101,10|0,2:0|2:0,2:0:0:0:
240,320,59076,2,0,L|253:299,1,24.9480007553101,10|0,2:0|2:0,2:0:0:0:
8,348,59398,5,2,3:2:0:0:
14,337,59479,1,0,3:2:0:0:
21,327,59560,1,0,3:2:0:0:
28,317,59640,1,0,3:2:0:0:
48,286,59721,6,0,P|5:211|29:129,1,176.178591966248,12|0,2:0|2:0,2:0:0:0:
35,79,60043,6,0,P|80:102|128:110,1,99.1782030212402,0|0,3:2|3:2,2:0:0:0:
260,32,60366,1,10,2:0:0:0:
313,215,60527,6,0,L|164:203,1,149.07420453186,2|0,3:2|2:0,2:0:0:0:
116,200,60850,1,2,3:2:0:0:
201,378,61011,1,8,2:0:0:0:
338,133,61173,6,0,P|392:180|388:251,1,149.07420453186,2|0,3:2|2:0,2:0:0:0:
356,288,61495,1,2,3:2:0:0:
500,192,61656,1,8,2:0:0:0:
392,56,61818,1,6,2:0:0:0:
313,215,61979,6,0,L|411:207,1,99.1782030212402,0|0,3:2|3:2,2:0:0:0:
184,332,62302,2,0,L|85:324,1,99.1782030212402,12|0,2:0|2:0,2:0:0:0:
176,168,62624,1,0,3:2:0:0:
288,316,62785,1,0,3:2:0:0:
328,104,62947,1,10,2:0:0:0:
112,220,63108,6,0,B|91:175|91:175|102:126,1,99.1782030212402,6|0,3:2|2:0,2:0:0:0:
375,91,63431,1,2,3:2:0:0:
375,91,63511,1,0,3:0:0:0:
375,91,63592,2,0,P|352:99|328:103,1,49.8960015106202,8|0,2:0|2:0,2:0:0:0:
236,252,63753,6,0,B|280:231|280:231|329:242,1,99.1782030212402,6|0,3:2|2:0,2:0:0:0:
112,220,64076,1,2,3:2:0:0:
276,156,64237,1,8,2:0:0:0:
249,330,64398,1,0,3:2:0:0:
12,192,64560,6,0,B|36:124|36:124|84:84|155:105,1,198.356406042481,6|8,3:2|2:0,2:0:0:0:
120,352,65043,1,0,3:2:0:0:
120,352,65124,1,0,3:0:0:0:
120,352,65205,1,2,3:2:0:0:
268,244,65366,1,0,3:2:0:0:
101,170,65527,1,10,2:0:0:0:
268,244,65689,6,0,B|250:174|250:174|271:126|271:126|254:54,1,198.356406042481,2|0,3:2|3:2,2:0:0:0:
83,82,66173,2,0,P|129:99|178:104,1,99.1782030212402,10|0,2:0|3:2,2:0:0:0:
363,222,66495,2,0,P|316:239|267:244,1,99.1782030212402,2|0,3:2|3:2,2:0:0:0:
83,362,66818,2,0,P|130:379|179:384,1,99.1782030212402,10|0,2:0|3:2,2:0:0:0:
64,184,67140,6,0,L|44:288,1,99.1782030212402,6|0,3:2|3:2,2:0:0:0:
250,159,67463,2,0,L|231:61,1,99.1782030212402,10|0,2:0|3:2,2:0:0:0:
136,351,67785,2,0,P|158:341|182:334,1,49.8960015106202,10|0,2:0|3:2,2:0:0:0:
260,264,67947,2,0,P|284:266|308:272,1,49.8960015106202,0|0,3:2|3:2,2:0:0:0:
384,344,68108,1,10,3:2:0:0:
132,260,68269,6,0,P|156:169|249:158,1,198.356406042481,6|8,3:2|2:0,2:0:0:0:
384,344,68753,1,8,2:0:0:0:
212,232,68914,1,8,2:0:0:0:
410,249,69076,1,8,3:2:0:0:
448,217,69156,1,8,2:0:0:0:
467,171,69237,1,8,2:0:0:0:
464,122,69318,1,8,2:0:0:0:
440,80,69398,1,8,3:2:0:0:
440,80,69721,5,14,2:0:0:0:
280,48,69882,1,2,3:2:0:0:
467,171,70043,5,10,2:0:0:0:
214,116,70205,1,2,3:2:0:0:
440,80,70366,5,10,2:0:0:0:
215,210,70527,1,2,3:2:0:0:
467,171,70689,5,8,2:0:0:0:
280,48,70850,1,2,3:2:0:0:
280,48,70931,1,0,3:2:0:0:
280,48,71011,5,8,2:0:0:0:
421,254,71173,1,2,3:2:0:0:
421,254,71253,1,0,3:2:0:0:
421,254,71334,5,8,2:0:0:0:
214,116,71495,1,2,3:2:0:0:
198,365,71656,5,8,2:0:0:0:
318,186,71818,1,0,3:2:0:0:
115,260,71979,1,8,2:0:0:0:
322,318,72140,1,0,3:2:0:0:
32,348,72302,5,10,2:0:0:0:
56,148,72463,1,2,3:2:0:0:
318,186,72624,5,10,2:0:0:0:
115,260,72785,1,2,3:2:0:0:
322,318,72947,5,10,2:0:0:0:
269,110,73108,1,10,3:2:0:0:
198,365,73269,1,8,2:0:0:0:
63,52,73431,5,6,3:2:0:0:
63,52,73753,5,6,3:2:0:0:
63,52,74076,5,6,3:2:0:0:
63,52,74398,6,0,L|77:103,1,54.4319983520508,2|0,3:2|3:2,2:0:0:0:
156,204,74560,2,0,L|170:152,1,54.4319983520508,12|0,2:0|2:0,2:0:0:0:
249,52,74721,1,8,3:2:0:0:
60,208,74882,6,0,P|88:272|153:299,1,144.2592,6|0,3:2|2:0,2:0:0:0:
288,372,75366,2,0,P|316:307|381:280,1,144.2592,10|8,2:0|2:3,2:0:0:0:
507,207,75850,2,0,P|479:186|444:178,1,72.1295999999999,6|0,2:3|2:0,2:0:0:0:
280,204,76173,6,0,B|276:144|276:144|288:120|288:120|284:63,1,144.2592,6|0,2:0|2:0,2:0:0:0:
468,68,76656,1,2,3:2:0:0:
468,68,76737,1,0,3:2:0:0:
468,68,76818,2,0,P|435:79|399:86,1,72.1295999999999,10|0,2:0|2:0,2:0:0:0:
212,100,77140,1,2,2:0:0:0:
352,160,77302,1,2,2:0:0:0:
140,27,77463,6,0,P|116:76|118:129,1,108.194396704102,4|0,3:2|2:0,2:0:0:0:
216,260,77785,1,8,2:0:0:0:
212,100,77947,1,0,3:2:0:0:
56,265,78108,1,8,2:0:0:0:
277,318,78269,1,0,3:2:0:0:
86,137,78431,1,10,2:0:0:0:
151,355,78592,1,2,3:2:0:0:
307,190,78753,6,0,P|315:164|315:137,1,54.4319983520508,10|8,2:0|2:0,2:0:0:0:
228,40,78914,2,0,P|220:65|220:92,1,54.4319983520508,8|8,3:2|2:0,2:0:0:0:
384,96,79076,2,0,P|365:76|342:62,1,54.4319983520508,10|8,2:0|2:0,2:0:0:0:
151,134,79237,2,0,P|169:153|192:167,1,54.4319983520508,10|8,2:0|2:0,2:0:0:0:
340,224,79398,6,0,P|347:198|347:171,1,54.4319983520508,8|8,2:0|2:0,2:0:0:0:
195,6,79560,2,0,P|187:31|187:58,1,54.4319983520508,8|8,2:0|2:0,2:0:0:0:
256,264,79721,5,10,2:0:0:0:
292,303,79802,1,8,2:0:0:0:
343,316,79882,1,10,2:0:0:0:
394,298,79963,1,8,2:0:0:0:
426,256,80043,5,4,3:2:0:0:
256,192,80124,12,4,82624,3:2:0:0:
424,160,90366,6,0,L|409:248,1,90.1619999999999,6|0,3:2|2:0,2:0:0:0:
444,344,90689,2,0,L|355:329,1,90.1619999999999,8|0,2:0|2:0,2:0:0:0:
260,364,91011,2,0,L|274:275,1,90.1619999999999,0|0,3:2|3:2,2:0:0:0:
240,180,91334,2,0,L|328:194,1,90.1619999999999,10|0,2:0|2:0,2:0:0:0:
128,220,91656,6,0,P|123:175|131:131,1,90.1619999999999,2|0,3:2|2:0,2:0:0:0:
40,96,91979,2,0,P|68:61|105:35,1,90.1619999999999,10|0,2:0|2:0,2:0:0:0:
243,91,92302,2,0,P|247:135|239:179,1,90.1619999999999,2|0,3:2|3:2,2:0:0:0:
331,215,92624,2,0,P|302:249|265:275,1,90.1619999999999,10|0,2:0|3:2,2:0:0:0:
232,288,92866,1,0,3:2:0:0:
232,288,92947,6,0,B|186:277|186:277|143:281,1,90.1619999999999,2|0,3:2|2:0,2:0:0:0:
264,148,93269,2,0,B|295:114|295:114|313:74,1,90.1619999999999,10|0,2:0|2:0,2:0:0:0:
369,245,93592,2,0,B|382:289|382:289|407:325,1,90.1619999999999,0|0,3:2|3:2,2:0:0:0:
467,119,93914,6,0,P|398:63|311:74,1,180.324,14|0,2:0|3:2,2:0:0:0:
136,64,94398,1,0,3:2:0:0:
136,64,94560,2,0,P|149:106|156:151,1,90.1619999999999,8|0,2:0|2:0,2:0:0:0:
36,288,94882,2,0,B|104:272|104:272|166:289,1,135.522,2|0,3:2|2:0,2:0:0:0:
200,312,95205,2,0,P|206:267|220:224,1,90.1619999999999,10|0,2:0|2:0,2:0:0:0:
424,368,95527,6,0,B|300:352|300:352|350:329,1,180.324,6|8,3:2|2:0,2:0:0:0:
303,187,96011,1,2,2:0:0:0:
416,283,96173,2,0,P|423:239|423:194,1,90.1619999999999,2|0,3:2|2:0,2:0:0:0:
227,135,96495,2,0,P|219:179|219:224,1,90.1619999999999,10|0,2:0|2:0,2:0:0:0:
491,147,96818,6,0,P|414:112|345:163,1,180.324,2|8,3:2|2:0,2:0:0:0:
472,348,97302,1,0,2:0:0:0:
471,347,97463,2,0,P|427:341|382:339,1,90.1619999999999,2|0,3:2|3:2,2:0:0:0:
236,292,97785,2,0,P|264:256|288:218,1,90.1619999999999,10|0,2:0|2:0,2:0:0:0:
264,60,98108,6,0,P|174:68|84:67,1,180.324,10|10,2:0|2:0,2:0:0:0:
24,272,98592,1,2,3:2:0:0:
132,179,98753,1,8,2:0:0:0:
176,184,98834,1,8,2:0:0:0:
213,208,98914,1,8,2:0:0:0:
235,247,98995,1,8,2:0:0:0:
236,292,99076,1,10,2:0:0:0:
217,332,99156,1,8,2:0:0:0:
182,360,99237,1,10,2:0:0:0:
464,172,99560,5,10,2:0:0:0:
464,172,99882,1,8,2:0:0:0:
312,248,100043,1,10,3:2:0:0:
454,342,100205,1,10,2:0:0:0:
484,144,100366,2,0,B|472:40|472:40|456:66,1,135.522,6|0,3:2|2:0,2:0:0:0:
400,128,100689,6,0,L|311:111,1,90.1619999999999,6|0,3:2|2:0,2:0:0:0:
223,264,101011,2,0,L|311:247,1,90.1619999999999,8|0,2:0|2:0,2:0:0:0:
96,328,101334,1,0,3:2:0:0:
268,356,101495,1,0,3:2:0:0:
200,164,101656,2,0,P|187:207|180:251,1,90.1619999999999,10|0,2:0|2:0,2:0:0:0:
12,140,101979,6,0,L|101:150,1,90.1619999999999,2|0,3:2|2:0,2:0:0:0:
288,88,102302,2,0,L|198:77,1,90.1619999999999,10|0,2:0|2:0,2:0:0:0:
13,226,102624,2,0,L|102:236,1,90.1619999999999,2|0,3:2|3:2,2:0:0:0:
289,174,102947,2,0,L|199:163,1,90.1619999999999,10|0,2:0|3:2,2:0:0:0:
180,200,103189,1,0,3:2:0:0:
180,200,103269,6,0,L|190:334,1,135.522,2|0,3:2|2:0,2:0:0:0:
272,376,103592,2,0,L|264:286,1,90.1619999999999,10|0,2:0|3:2,2:0:0:0:
283,249,103834,1,0,3:0:0:0:
283,249,103914,2,0,L|372:259,1,90.1619999999999,2|0,3:2|3:2,2:0:0:0:
508,104,104237,6,0,L|330:84,1,180.324,14|0,2:0|3:2,2:0:0:0:
440,336,104721,1,0,3:2:0:0:
440,336,104882,2,0,P|465:299|473:255,1,90.1619999999999,8|2,2:0|2:0,2:0:0:0:
464,220,105124,1,2,2:0:0:0:
464,220,105205,2,0,L|419:225,2,45.081,2|8|0,3:2|2:0|3:2,2:0:0:0:
332,332,105527,2,0,P|266:316|199:318,1,135.522,10|0,2:0|2:0,2:0:0:0:
144,380,105850,6,0,P|120:297|181:237,1,180.324,6|8,3:2|2:0,2:0:0:0:
332,332,106334,1,2,2:0:0:0:
476,248,106495,2,0,L|461:159,1,90.1619999999999,2|0,3:2|2:0,2:0:0:0:
351,20,106818,2,0,P|318:77|320:143,1,135.522,10|0,2:0|2:0,2:0:0:0:
376,208,107140,6,0,B|316:224|316:224|260:200|260:200|205:214,1,180.324,2|8,3:2|2:0,2:0:0:0:
332,332,107624,1,0,2:0:0:0:
120,344,107785,2,0,L|110:254,1,90.1619999999999,2|0,3:2|3:2,2:0:0:0:
320,144,108108,2,0,L|310:233,1,90.1619999999999,10|0,2:0|2:0,2:0:0:0:
44,140,108431,6,0,B|96:112|96:112|184:136|184:136|166:111,1,180.324,6|10,3:2|2:0,2:0:0:0:
28,36,108914,1,2,2:0:0:0:
155,201,109076,2,0,L|166:111,1,90.1619999999999,0|0,3:0|3:2,2:0:0:0:
68,280,109398,1,10,2:0:0:0:
240,351,109560,6,0,P|318:309|407:313,1,180.324,6|8,3:2|2:3,2:0:0:0:
407,313,110043,1,8,2:3:0:0:
238,232,110205,2,0,P|196:213|154:200,1,90.1619999999999,4|8,3:2|2:0,2:0:0:0:
68,280,110527,1,0,3:2:0:0:
28,75,110689,2,0,L|43:164,1,90.1619999999999,8|8,2:3|2:3,2:0:0:0:
176,332,111011,5,4,3:2:0:0:
176,332,111334,2,0,P|209:324|243:325,1,67.6215025749207,2|0,3:2|2:0,2:0:0:0:
376,336,111656,2,0,P|352:311|336:281,1,67.6215025749207,10|0,2:0|2:0,2:0:0:0:
279,161,111979,1,2,3:2:0:0:
304,76,112140,1,2,3:2:0:0:
376,24,112302,5,0,2:0:0:0:
376,24,112463,2,0,P|431:61|497:52,1,135.243005149842,8|0,2:0|3:2,2:0:0:0:
279,161,112947,2,0,P|224:124|158:133,1,135.243005149842,10|2,2:0|3:2,2:0:0:0:
48,56,113431,1,2,2:0:0:0:
48,56,113592,5,4,3:2:0:0:
56,208,113914,1,2,3:2:0:0:
64,360,114237,5,10,3:2:0:0:
192,278,114398,1,8,2:0:0:0:
56,208,114560,1,10,2:0:0:0:
223,287,114721,6,0,P|308:276|337:195,1,180.324,14|10,2:0|3:2,2:0:0:0:
408,352,115205,1,10,3:2:0:0:
415,161,115366,2,0,P|346:109|269:145,1,180.324,14|0,3:2|3:2,2:0:0:0:
256,176,115769,1,0,3:2:0:0:
256,208,115850,1,8,3:2:0:0:
408,352,116173,5,4,3:2:0:0:
408,352,116495,2,0,P|450:338|494:329,1,90.1619999999999,10|0,2:0|3:2,2:0:0:0:
440,131,116818,2,0,P|429:175|426:220,1,90.1619999999999,2|0,3:2|3:2,2:0:0:0:
232,268,117140,1,10,2:0:0:0:
296,152,117302,1,0,2:0:0:0:
291,336,117463,6,0,P|208:358|145:299,2,180.045,6|10|2,3:2|2:0|3:2,2:0:0:0:
124,220,118269,1,0,3:2:0:0:
124,220,118431,2,0,P|86:243|65:283,1,90.1619999999999,10|0,2:0|2:0,2:0:0:0:
303,241,118753,6,0,L|295:151,1,90.1619999999999,2|0,3:2|2:0,2:0:0:0:
72,48,119076,2,0,L|64:137,1,90.1619999999999,8|0,2:0|2:0,2:0:0:0:
160,352,119398,1,10,2:0:0:0:
193,347,119479,1,8,2:0:0:0:
226,342,119560,1,8,2:0:0:0:
260,337,119640,1,8,2:0:0:0:
293,332,119721,1,8,2:0:0:0:
471,215,119882,6,0,P|399:167|316:191,1,180.324,6|2,3:2|3:2,2:0:0:0:
384,264,120366,1,10,2:0:0:0:
484,108,120527,1,0,3:2:0:0:
472,316,120689,1,10,2:0:0:0:
316,191,120850,1,0,3:2:0:0:
193,347,121011,1,10,2:0:0:0:
416,228,121173,1,2,3:2:0:0:
416,228,121253,1,0,3:0:0:0:
416,228,121334,6,0,L|405:138,1,90.1619999999999,8|2,2:0|3:2,2:0:0:0:
232,32,121656,2,0,L|221:121,1,90.1619999999999,10|8,2:0|2:0,2:0:0:0:
248,152,121898,1,8,2:0:0:0:
248,152,121979,2,0,L|205:166,1,45.36,4|0,2:3|2:0,2:0:0:0:
120,216,122140,2,0,L|162:230,1,45.36,6|0,2:3|2:0,2:0:0:0:
248,280,122302,2,0,L|205:294,1,45.36,6|0,2:3|2:0,2:0:0:0:
40,348,122463,1,14,2:0:0:0:
39,347,122839,6,0,P|28:314|28:278,1,71.9999978027344,10|0,0:0|0:0,0:0:0:0:
51,206,123054,2,0,P|66:173|92:148,1,71.9999978027344,10|0,0:0|0:0,0:0:0:0:
159,113,123269,2,0,P|192:101|228:101,1,71.9999978027344,10|0,0:0|0:0,0:0:0:0:
300,124,123484,2,0,P|332:139|357:165,1,71.9999978027344,10|0,0:0|0:0,0:0:0:0:
393,232,123699,2,0,P|404:265|404:301,1,71.9999978027344,10|0,0:0|0:0,0:0:0:0:
351,359,123914,6,0,P|405:337|460:329,1,108.194396704102,14|0,2:0|2:0,2:0:0:0:
163,230,124237,2,0,P|109:252|54:260,1,108.194396704102,2|0,3:2|2:0,2:0:0:0:
315,207,124560,5,2,2:0:0:0:
361,215,124640,1,0,3:0:0:0:
404,197,124721,1,0,3:2:0:0:
431,159,124802,1,0,3:2:0:0:
433,112,124882,1,10,2:0:0:0:
410,72,124963,1,0,3:2:0:0:
369,50,125043,1,0,3:0:0:0:
323,53,125124,1,0,3:2:0:0:
285,81,125205,6,0,L|281:126,3,45.174,10|8|8|8,2:0|2:0|2:0|2:0,2:0:0:0:
351,132,125527,6,0,P|435:127|482:197,1,176.178591966248,12|0,3:2|2:0,2:0:0:0:
503,268,125850,6,0,P|454:274|408:291,1,99.1782030212402,0|0,3:2|3:2,2:0:0:0:
288,360,126173,1,10,2:0:0:0:
281,125,126334,6,0,L|288:223,1,99.1782030212402,2|0,3:2|2:0,2:0:0:0:
128,336,126656,2,0,L|135:237,1,99.1782030212402,2|8,3:2|3:2,2:0:0:0:
365,105,126979,2,0,L|372:203,1,99.1782030212402,2|0,3:2|2:0,2:0:0:0:
212,356,127302,2,0,L|219:257,1,99.1782030212402,2|8,3:2|2:0,2:0:0:0:
260,96,127624,1,2,2:0:0:0:
344,284,127785,6,0,P|434:260|448:167,1,198.356406042481,0|8,3:2|2:0,2:0:0:0:
134,237,128269,1,0,2:0:0:0:
296,80,128431,1,2,3:2:0:0:
372,203,128592,1,0,3:2:0:0:
217,150,128753,1,10,2:0:0:0:
457,72,128914,5,6,3:2:0:0:
457,72,129237,1,2,3:2:0:0:
372,203,129398,1,8,2:0:0:0:
272,32,129560,2,0,P|226:14|176:14,1,99.1782030212402,6|0,3:2|2:0,2:0:0:0:
312,272,129882,2,0,P|357:289|407:289,1,99.1782030212402,2|8,3:2|2:0,2:0:0:0:
144,168,130205,1,10,2:0:0:0:
144,168,130285,1,8,2:0:0:0:
144,168,130366,6,0,B|124:228|124:228|152:296|152:296|130:353,1,198.356406042481,4|8,3:2|2:0,2:0:0:0:
48,136,130850,1,0,2:0:0:0:
248,64,131011,2,0,L|263:161,1,99.1782030212402,2|0,3:2|3:2,2:0:0:0:
92,32,131334,1,10,2:0:0:0:
24,240,131495,6,0,B|76:244|120:216|120:216|189:284,1,198.356406042481,2|0,3:2|3:2,2:0:0:0:
392,320,131979,1,10,2:0:0:0:
360,147,132140,1,0,3:2:0:0:
360,147,132221,1,0,3:0:0:0:
360,146,132302,2,0,P|311:156|262:161,1,99.1782030212402,2|0,2:0|3:2,2:0:0:0:
76,28,132624,2,0,P|125:33|173:42,1,99.1782030212402,10|0,2:0|3:2,2:0:0:0:
128,248,132947,6,0,L|118:149,1,99.1782030212402,2|0,3:2|3:2,2:0:0:0:
118,149,133189,1,0,3:0:0:0:
118,149,133269,1,10,2:0:0:0:
262,161,133431,1,0,3:2:0:0:
216,312,133592,1,10,2:0:0:0:
20,208,133753,1,0,3:2:0:0:
173,42,133914,1,10,2:0:0:0:
300,256,134076,6,0,P|349:258|397:247,1,99.1782030212402,6|0,3:2|2:0,2:0:0:0:
476,79,134398,1,8,2:0:0:0:
452,57,134479,1,0,3:0:0:0:
420,47,134560,1,2,3:2:0:0:
388,51,134640,1,0,3:2:0:0:
360,68,134721,1,0,3:2:0:0:
341,95,134802,1,0,3:2:0:0:
336,128,134882,6,0,L|340:152,1,24.9480007553101,14|0,2:0|2:0,2:0:0:0:
200,272,135205,2,0,L|204:247,1,24.9480007553101,10|0,2:0|2:0,2:0:0:0:
80,63,135527,1,2,3:2:0:0:
92,66,135607,1,0,3:2:0:0:
104,70,135688,1,0,3:2:0:0:
116,73,135768,1,0,3:2:0:0:
156,88,135850,6,0,P|108:157|27:141,1,176.178591966248,12|0,2:0|2:0,2:0:0:0:
7,264,136173,6,0,P|55:249|104:246,1,99.1782030212402,0|0,3:2|3:2,2:0:0:0:
232,348,136495,1,10,2:0:0:0:
364,200,136656,6,0,L|341:53,1,149.07420453186,2|0,3:2|2:0,2:0:0:0:
364,24,136979,1,2,3:2:0:0:
492,128,137140,1,8,2:0:0:0:
268,260,137302,6,0,L|245:113,1,149.07420453186,2|0,3:2|2:0,2:0:0:0:
268,84,137624,1,2,3:2:0:0:
492,128,137785,1,8,2:0:0:0:
341,299,137947,1,6,2:0:0:0:
396,76,138108,6,0,P|432:42|477:21,1,99.1782030212402,0|0,3:2|3:2,2:0:0:0:
506,234,138431,2,0,L|490:346,1,99.1782030212402,8|0,2:0|2:0,2:0:0:0:
284,352,138753,1,8,3:2:0:0:
263,307,138834,1,8,3:2:0:0:
273,260,138914,1,8,3:2:0:0:
309,227,138995,1,8,3:2:0:0:
358,223,139076,2,0,P|381:230|402:244,1,49.8960015106202,10|0,2:0|2:0,2:0:0:0:
176,344,139237,5,6,3:2:0:0:
176,344,139560,1,2,3:2:0:0:
420,288,139721,1,8,2:0:0:0:
116,200,139882,1,6,3:2:0:0:
116,200,140205,5,2,3:2:0:0:
276,148,140366,1,8,2:0:0:0:
188,304,140527,1,0,3:2:0:0:
203,44,140689,6,0,P|298:22|379:74,1,198.356406042481,6|8,3:2|2:0,2:0:0:0:
500,144,141173,1,0,3:2:0:0:
500,144,141253,1,0,3:0:0:0:
500,143,141334,2,0,P|485:191|484:240,1,99.1782030212402,2|0,3:2|3:2,2:0:0:0:
320,224,141656,1,10,2:0:0:0:
472,356,141818,6,0,B|432:324|432:324|388:348|388:348|348:336|292:347,1,198.356406042481,2|0,3:2|3:2,2:0:0:0:
168,240,142302,1,10,2:0:0:0:
320,224,142463,1,0,3:2:0:0:
108,324,142624,1,2,3:2:0:0:
146,144,142785,1,0,3:2:0:0:
146,144,142866,1,0,3:0:0:0:
146,144,142947,2,0,P|161:191|167:240,1,99.1782030212402,10|0,2:0|3:2,2:0:0:0:
312,64,143269,6,0,B|268:48|268:48|216:53,1,99.1782030212402,6|0,3:2|3:2,2:0:0:0:
52,248,143592,2,0,B|96:264|96:264|147:258,1,99.1782030212402,10|0,2:0|3:2,2:0:0:0:
330,298,143914,1,10,2:0:0:0:
325,261,143995,1,0,3:2:0:0:
320,224,144076,1,0,3:2:0:0:
315,187,144156,1,0,3:2:0:0:
310,150,144237,1,10,3:2:0:0:
88,23,144398,6,0,B|58:66|68:128|112:152|112:152|137:142|161:143,1,198.000006042481,6|8,0:2|0:0,0:0:0:0:
296,48,144882,1,8,2:0:0:0:
248,268,145043,1,8,2:0:0:0:
36,188,145205,1,8,3:2:0:0:
261,159,145366,1,8,2:0:0:0:
285,154,145447,1,8,2:0:0:0:
309,149,145527,2,0,L|453:181,1,149.07420453186,8|0,3:2|3:2,2:0:0:0:
480,196,145850,5,14,2:0:0:0:
464,364,146011,1,0,3:2:0:0:
388,136,146173,5,8,2:0:0:0:
372,304,146334,1,2,3:2:0:0:
296,76,146495,5,10,2:0:0:0:
280,244,146656,1,2,3:2:0:0:
204,16,146818,5,10,2:0:0:0:
188,184,146979,1,2,3:2:0:0:
188,184,147060,1,0,3:2:0:0:
188,184,147140,5,8,2:0:0:0:
388,136,147302,1,2,3:2:0:0:
172,352,147463,5,8,2:0:0:0:
372,304,147624,1,2,3:2:0:0:
372,304,147705,1,0,3:2:0:0:
372,304,147785,5,8,2:0:0:0:
188,184,147947,1,0,3:2:0:0:
388,136,148108,1,8,2:0:0:0:
204,16,148269,1,0,3:2:0:0:
204,16,148350,1,0,3:0:0:0:
204,16,148431,5,10,2:0:0:0:
280,244,148592,1,2,3:2:0:0:
44,195,148753,5,10,2:0:0:0:
296,76,148914,1,2,3:2:0:0:
182,293,149076,5,10,2:0:0:0:
51,87,149237,1,10,3:2:0:0:
394,28,149398,1,8,2:0:0:0:
274,354,149560,5,6,3:2:0:0:
274,354,149882,5,6,3:2:0:0:
274,354,150205,5,6,3:2:0:0:
274,354,150527,6,0,P|298:341|324:333,2,54.0971983520508,2|0|12,3:2|3:2|2:0,2:0:0:0:
140,280,150850,1,8,2:0:0:0:
336,252,151011,6,0,P|342:181|314:115,1,144.2592,6|0,3:2|2:0,2:0:0:0:
107,172,151495,2,0,P|165:213|235:221,1,144.2592,10|8,2:0|2:3,2:0:0:0:
290,14,151979,2,0,P|256:26|229:50,1,72.1295999999999,6|0,2:3|2:0,2:0:0:0:
314,115,152302,6,0,L|457:107,1,144.2592,6|0,2:0|2:0,2:0:0:0:
500,260,152785,1,2,3:2:0:0:
500,260,152866,1,0,3:2:0:0:
500,260,152947,2,0,P|465:253|429:251,1,72.1295999999999,10|0,2:0|2:0,2:0:0:0:
308,296,153269,1,2,2:0:0:0:
256,192,153431,1,2,2:0:0:0:
164,347,153592,6,0,P|111:354|62:333,1,108.194396704102,4|0,3:2|2:0,2:0:0:0:
212,112,153914,2,0,P|265:105|314:126,1,108.194396704102,8|0,2:0|3:2,2:0:0:0:
283,282,154237,5,8,2:0:0:0:
88,176,154398,1,0,3:2:0:0:
308,296,154560,1,10,2:0:0:0:
64,163,154721,1,2,3:2:0:0:
313,125,154882,5,10,2:0:0:0:
184,344,155043,1,0,3:2:0:0:
184,344,155124,1,0,3:2:0:0:
184,344,155205,2,0,P|184:317|191:290,1,54.4319983520508,10|8,2:0|2:0,2:0:0:0:
380,192,155366,2,0,P|386:218|387:245,1,54.4319983520508,10|8,2:0|2:0,2:0:0:0:
224,204,155527,5,8,2:0:0:0:
183,209,155608,1,8,2:0:0:0:
143,215,155689,1,8,2:0:0:0:
103,220,155769,1,8,2:0:0:0:
63,226,155850,2,0,P|63:199|70:172,1,54.4319983520508,10|8,2:0|2:0,2:0:0:0:
258,73,156011,2,0,P|264:99|265:126,1,54.4319983520508,10|8,2:0|2:0,2:0:0:0:
339,323,156173,6,0,P|404:337|460:302,1,135.243005149842,4|0,3:2|3:2,2:0:0:0:
512,188,156656,2,0,L|494:54,1,135.243005149842,8|0,2:0|2:3,2:0:0:0:
375,20,157140,2,0,P|371:53|375:86,1,67.6215025749207,4|0,2:3|2:0,2:0:0:0:
388,208,157463,6,0,L|254:190,1,135.243005149842,6|0,3:2|2:0,2:0:0:0:
156,308,157947,1,0,3:2:0:0:
156,308,158027,1,8,2:0:0:0:
156,308,158108,2,0,L|222:298,1,67.6215025749207,10|0,2:0|3:2,2:0:0:0:
239,120,158431,2,0,P|208:131|189:158,1,67.6215025749207,0|0,3:2|3:2,2:0:0:0:
128,208,158673,1,0,3:2:0:0:
128,208,158753,6,0,P|120:117|29:122,1,202.864507724762,6|0,3:2|2:0,2:0:0:0:
32,220,159398,1,2,3:2:0:0:
196,88,159560,1,8,2:0:0:0:
196,88,159721,2,0,L|262:98,1,67.6215025749207,2|0,3:2|2:0,2:0:0:0:
455,79,160043,6,0,P|375:99|381:182,1,180.324,6|8,3:2|2:0,2:0:0:0:
487,304,160527,2,0,P|487:259|478:215,1,90.1619999999999,6|0,3:2|2:0,2:0:0:0:
280,132,160850,2,0,P|270:175|270:220,1,90.1619999999999,6|0,3:2|2:0,2:0:0:0:
381,182,161173,1,0,3:2:0:0:
200,52,161334,6,0,B|140:36|140:36|24:61,1,180.324,6|10,3:2|2:0,2:0:0:0:
270,220,161818,1,2,3:2:0:0:
104,144,161979,1,10,2:0:0:0:
311,132,162140,1,2,3:2:0:0:
217,318,162302,1,10,3:2:0:0:
40,188,162463,6,0,P|38:102|115:67,1,180.324,14|0,2:0|3:2,2:0:0:0:
352,144,162947,1,10,3:2:0:0:
160,240,163108,1,0,3:2:0:0:
408,240,163269,1,10,2:0:0:0:
104,144,163431,1,0,3:2:0:0:
256,352,163592,1,10,2:0:0:0:
256,32,163753,1,0,3:2:0:0:
444,140,163914,5,14,2:0:0:0:
439,173,163995,1,8,2:0:0:0:
422,202,164076,1,8,2:0:0:0:
397,224,164156,1,8,2:0:0:0:
365,234,164237,1,10,2:0:0:0:
331,233,164318,1,8,2:0:0:0:
300,220,164398,1,8,2:0:0:0:
276,197,164479,1,8,2:0:0:0:
262,167,164560,5,10,2:0:0:0:
260,197,164640,1,8,2:0:0:0:
257,227,164721,1,8,2:0:0:0:
255,256,164802,1,8,2:0:0:0:
253,286,164882,1,10,2:0:0:0:
250,316,164963,1,8,2:0:0:0:
248,346,165043,5,10,2:0:0:0:
132,84,165366,1,10,2:0:0:0:
52,224,165527,1,10,2:0:0:0:
92,219,165608,1,0,3:0:0:0:
132,214,165689,1,0,3:0:0:0:
172,209,165769,1,0,3:0:0:0:
211,204,165850,6,0,P|227:221|238:240,1,45.36,0|0,3:2|3:2,2:0:0:0:
312,96,166011,2,0,P|327:79|338:60,1,45.36,0|0,3:2|3:2,2:0:0:0:
376,256,166173,2,0,P|391:272|402:291,1,45.36,8|0,2:0|3:2,2:0:0:0:
160,280,166334,6,0,L|145:145,1,135.522,6|0,3:2|2:0,2:0:0:0:
144,112,166656,1,0,3:2:0:0:
312,296,166818,2,0,P|357:296|402:290,1,90.1619999999999,12|0,2:0|2:0,2:0:0:0:
471,112,167140,2,0,P|452:152|438:195,1,90.1619999999999,0|2,3:2|3:2,2:0:0:0:
472,352,167463,1,10,2:0:0:0:
236,347,167624,6,0,P|225:262|292:208,1,180.324,2|2,3:2|3:2,2:0:0:0:
402,290,168108,1,10,2:0:0:0:
180,184,168269,1,2,3:2:0:0:
362,46,168431,2,0,P|357:91|352:136,1,90.1619999999999,2|2,2:0|3:2,2:0:0:0:
312,296,168753,1,10,2:0:0:0:
438,195,168914,1,2,3:2:0:0:
268,197,169076,6,0,L|180:184,1,90.1619999999999,0|2,3:2|2:0,2:0:0:0:
56,56,169398,2,0,B|100:40|100:40|144:42,1,90.1619999999999,10|2,2:0|2:0,2:0:0:0:
116,240,169721,1,2,3:2:0:0:
256,120,169882,1,2,3:2:0:0:
236,316,170043,1,8,2:0:0:0:
24,272,170205,6,0,P|22:227|38:185,1,90.1619999999999,6|0,3:2|2:0,2:0:0:0:
143,42,170527,2,0,P|158:83|157:128,1,90.1619999999999,2|8,3:2|2:0,2:0:0:0:
144,348,170850,2,0,B|200:328|200:328|256:356|256:356|311:340,1,180.324,6|0,3:2|3:2,2:0:0:0:
496,260,171334,2,0,L|411:228,1,90.1619999999999,8|2,2:0|3:2,2:0:0:0:
336,256,171576,1,2,3:2:0:0:
336,256,171656,6,0,P|355:172|438:152,1,180.324,6|8,3:2|2:0,2:0:0:0:
403,318,172140,2,0,P|409:273|411:228,1,90.1619999999999,2|0,2:0|3:2,2:0:0:0:
240,108,172463,2,0,P|241:152|248:197,1,90.1619999999999,2|8,3:2|2:0,2:0:0:0:
496,96,172785,6,0,L|361:111,1,135.522,6|0,3:2|2:0,2:0:0:0:
336,88,173108,1,2,3:2:0:0:
321,238,173269,2,0,L|410:227,1,90.1619999999999,10|0,2:0|3:2,2:0:0:0:
150,118,173592,2,0,L|239:107,1,90.1619999999999,2|0,2:0|3:2,2:0:0:0:
51,268,173914,2,0,L|184:252,1,135.522,10|0,2:0|0:0,2:0:0:0:
214,248,174237,5,2,3:2:0:0:
150,118,174398,1,0,3:2:0:0:
321,238,174560,1,8,2:0:0:0:
144,344,174721,6,0,L|54:354,1,90.1619999999999,2|0,3:2|2:0,2:0:0:0:
214,248,175043,1,10,3:2:0:0:
360,356,175205,1,10,2:0:0:0:
116,252,175366,6,0,L|124:162,1,90.1619999999999,14|0,3:2|2:0,2:0:0:0:
264,32,175689,1,10,2:0:0:0:
68,100,175850,1,10,2:0:0:0:
214,248,176011,1,10,2:0:0:0:
214,248,176092,1,8,2:0:0:0:
214,248,176173,6,0,L|219:292,1,45.36,10|0,2:0|2:0,2:0:0:0:
344,324,176334,2,0,L|338:279,1,45.36,2|0,2:0|2:0,2:0:0:0:
248,116,176495,2,0,L|253:160,1,45.36,10|0,2:0|2:0,2:0:0:0:
378,192,176656,2,0,L|372:147,1,45.36,2|0,2:0|2:0,2:0:0:0:
156,31,176818,6,0,P|92:40|67:99,1,135.522,6|0,3:2|2:0,2:0:0:0:
116,160,177140,2,0,P|101:202|95:247,1,90.1619999999999,8|0,2:0|3:2,2:0:0:0:
296,364,177463,1,10,2:0:0:0:
333,340,177543,1,2,2:0:0:0:
348,298,177624,1,2,3:2:0:0:
333,256,177705,1,2,2:0:0:0:
296,232,177785,1,10,2:0:0:0:
259,207,177866,1,2,2:0:0:0:
244,166,177947,1,2,3:2:0:0:
259,124,178027,1,2,2:0:0:0:
296,100,178108,6,0,L|340:102,1,45.36,2|2,2:0|2:0,2:0:0:0:
480,168,178269,2,0,L|435:170,1,45.36,2|2,3:2|2:0,2:0:0:0:
296,232,178431,2,0,L|340:234,1,45.36,10|2,2:0|2:0,2:0:0:0:
480,300,178592,2,0,L|435:302,1,45.36,2|2,3:2|2:0,2:0:0:0:
220,292,178753,5,10,2:0:0:0:
436,72,178914,1,2,3:2:0:0:
333,340,179076,1,10,2:0:0:0:
175,179,179237,1,2,3:2:0:0:
175,179,179318,1,0,3:2:0:0:
175,179,179398,5,6,3:2:0:0:
340,234,179560,1,0,3:2:0:0:
120,268,179721,1,10,2:0:0:0:
395,145,179882,1,2,3:2:0:0:
120,22,180043,5,10,2:0:0:0:
340,234,180205,1,10,2:0:0:0:
46,318,180366,1,10,2:0:0:0:
340,102,180527,5,6,3:2:0:0:
348,116,180850,1,6,3:2:0:0:
356,130,181173,1,6,3:2:0:0:
476,244,181334,5,8,2:0:0:0:
476,244,181441,2,0,P|420:224|363:241,1,120.03,8|0,3:0|3:2,2:0:0:0:
256,344,181818,1,0,3:2:0:0:
256,344,181898,1,0,3:0:0:0:
256,344,181979,6,0,L|122:323,1,135.243005149842,6|0,3:2|3:2,2:0:0:0:
64,184,182463,1,2,2:0:0:0:
160,231,182624,2,0,P|166:198|168:165,1,67.6215025749207,8|0,2:0|2:0,2:0:0:0:
24,40,182947,2,0,P|26:73|32:106,1,67.6215025749207,2|0,3:2|3:2,2:0:0:0:
28,284,183269,5,2,2:0:0:0:
160,231,183431,2,0,L|227:237,1,67.6215025749207,8|0,2:0|3:2,2:0:0:0:
28,284,183753,1,2,3:2:0:0:
256,348,183914,5,10,2:0:0:0:
160,231,184076,2,0,P|154:198|152:165,1,67.6215025749207,2|0,3:2|3:2,2:0:0:0:
220,40,184398,1,2,2:0:0:0:
360,24,184560,6,0,P|419:53|461:106,1,135.243005149842,4|0,3:2|3:2,2:0:0:0:
392,304,185043,1,8,3:2:0:0:
264,152,185205,1,8,2:0:0:0:
488,224,185366,1,8,2:0:0:0:
256,348,185527,1,8,2:0:0:0:
312,68,185689,6,0,B|240:56|240:56|184:68|170:127,1,180.324,14|0,3:2|3:2,2:0:0:0:
363,240,186173,1,8,2:0:0:0:
461,106,186334,1,2,3:2:0:0:
407,308,186495,1,8,2:0:0:0:
354,321,186576,1,8,2:0:0:0:
304,297,186656,1,8,2:0:0:0:
281,247,186737,1,8,2:0:0:0:
295,194,186818,1,8,2:0:0:0:
295,194,187140,6,0,L|385:189,1,90.1619999999999,4|0,3:2|3:2,2:0:0:0:
144,240,187463,2,0,L|54:235,1,90.1619999999999,10|0,2:0|3:2,2:0:0:0:
304,297,187785,2,0,L|394:292,1,90.1619999999999,10|0,2:0|3:2,2:0:0:0:
135,343,188108,2,0,L|45:338,1,90.1619999999999,10|0,2:0|3:2,2:0:0:0:
20,316,188350,1,0,3:2:0:0:
20,316,188431,6,0,P|12:271|14:226,1,90.1619999999999,10|0,2:0|3:2,2:0:0:0:
132,64,188753,2,0,P|139:108|137:153,1,90.1619999999999,10|0,2:0|3:2,2:0:0:0:
244,344,189076,2,0,P|236:299|238:254,1,90.1619999999999,10|0,2:0|3:2,2:0:0:0:
356,92,189398,2,0,P|363:136|361:181,1,90.1619999999999,10|0,2:0|3:2,2:0:0:0:
352,208,189640,1,0,3:2:0:0:
352,207,189721,6,0,P|394:194|433:172,1,90.1619999999999,10|0,2:0|3:2,2:0:0:0:
264,280,190043,2,0,P|303:301|347:312,1,90.1619999999999,8|2,2:0|3:2,2:0:0:0:
150,268,190366,2,0,P|163:310|185:349,1,90.1619999999999,8|2,2:0|3:2,2:0:0:0:
77,179,190689,1,8,2:0:0:0:
264,280,190850,6,0,B|276:224|276:224|252:164|252:164|263:107,1,180.324,6|0,3:2|3:2,2:0:0:0:
150,268,191334,1,8,2:0:0:0:
348,276,191495,6,0,B|360:220|360:220|336:160|336:160|347:103,1,180.324,6|0,3:2|3:2,2:0:0:0:
368,72,191898,1,0,3:2:0:0:
368,72,191979,2,0,P|412:78|456:87,1,90.1619999999999,8|0,2:0|3:2,2:0:0:0:
496,320,192302,5,4,3:2:0:0:
496,320,192463,1,0,3:2:0:0:
376,208,192624,1,10,2:0:0:0:
376,208,192785,1,0,3:2:0:0:
219,255,192947,1,10,2:0:0:0:
219,255,193108,1,0,3:2:0:0:
99,143,193269,1,10,2:0:0:0:
99,143,193431,2,0,L|89:186,1,45.36,0|0,3:2|3:2,2:0:0:0:
63,303,193592,5,10,2:0:0:0:
219,255,193753,1,0,3:2:0:0:
170,99,193914,2,0,P|138:69|94:59,1,90.1619999999999,10|0,2:0|3:2,2:0:0:0:
218,254,194237,1,10,2:0:0:0:
257,276,194318,1,8,2:0:0:0:
302,277,194398,1,8,2:0:0:0:
341,257,194479,1,8,2:0:0:0:
366,220,194560,2,0,L|356:130,1,90.1619999999999,10|0,2:0|3:2,2:0:0:0:
296,20,194882,5,6,3:2:0:0:
476,144,195043,2,0,L|485:233,1,90.1619999999999,0|8,3:2|2:0,2:0:0:0:
280,192,195366,1,2,3:2:0:0:
280,192,195689,1,2,3:2:0:0:
424,64,195850,1,8,2:0:0:0:
300,275,196011,6,0,P|255:275|218:251,1,90.1619999999999,6|0,3:2|2:0,2:0:0:0:
52,136,196334,1,8,2:0:0:0:
55,113,196414,1,8,2:0:0:0:
59,91,196495,1,0,3:2:0:0:
100,248,196656,1,0,3:2:0:0:
260,116,196818,2,0,L|172:137,1,90.1619999999999,8|0,2:0|3:2,2:0:0:0:
40,320,197140,1,10,2:0:0:0:
52,136,197302,1,2,3:2:0:0:
217,251,197463,6,0,P|284:237|351:237,1,135.522,6|0,3:2|2:0,2:0:0:0:
384,248,197785,2,0,L|380:337,1,90.1619999999999,10|2,2:0|2:0,2:0:0:0:
416,120,198108,1,0,3:2:0:0:
468,240,198269,1,0,3:2:0:0:
286,105,198431,1,10,2:0:0:0:
493,14,198592,1,10,2:0:0:0:
328,188,198753,6,0,P|261:193|206:157,1,135.522,2|0,3:2|2:0,2:0:0:0:
196,116,199076,1,10,2:0:0:0:
120,268,199237,1,10,2:0:0:0:
286,105,199398,2,0,L|271:16,1,90.1619999999999,0|0,3:2|3:2,2:0:0:0:
482,151,199721,2,0,L|467:239,1,90.1619999999999,10|2,2:0|2:0,2:0:0:0:
320,344,200043,6,0,P|276:293|212:278,1,135.522,2|0,3:2|2:0,2:0:0:0:
176,292,200366,1,10,2:0:0:0:
328,188,200527,1,10,2:0:0:0:
172,39,200689,2,0,P|153:80|144:124,1,90.1619999999999,0|0,3:2|3:2,2:0:0:0:
60,260,201011,2,0,P|51:215|32:175,1,90.1619999999999,10|2,2:0|2:0,2:0:0:0:
236,192,201334,5,2,3:2:0:0:
72,56,201495,1,0,3:2:0:0:
336,155,201656,1,10,2:0:0:0:
136,229,201818,1,10,2:0:0:0:
353,49,201979,5,0,3:2:0:0:
408,212,202140,1,8,2:0:0:0:
408,212,202221,1,8,2:0:0:0:
408,212,202302,2,0,L|413:256,1,45.36,10|8,2:0|2:0,2:0:0:0:
196,296,202463,2,0,L|201:251,1,45.36,10|8,2:0|2:0,2:0:0:0:
256,56,202624,5,10,2:3:0:0:
256,56,202785,1,8,2:3:0:0:
96,156,202947,2,0,L|210:178,1,117.210594644165,12|2,2:0|2:0,2:0:0:0:
256,48,203269,5,10,2:3:0:0:
256,48,203431,1,8,2:3:0:0:
416,212,203592,2,0,L|301:234,1,117.210594644165,12|0,2:0|2:0,2:0:0:0:
256,40,203914,5,10,2:3:0:0:
256,40,204076,1,8,2:3:0:0:
60,280,204237,2,0,L|174:302,1,117.210594644165,12|0,2:0|2:0,2:0:0:0:
256,32,204560,5,10,3:0:0:0:
256,32,204721,1,8,3:0:0:0:
452,336,204882,2,0,L|337:358,1,117.210594644165,12|0,2:0|3:2,2:0:0:0:
72,168,205205,5,14,3:2:0:0:
256,136,205366,1,0,3:2:0:0:
191,311,205527,1,0,3:2:0:0:
152,100,205689,5,12,2:0:0:0:
336,68,205850,1,0,3:2:0:0:
271,243,206011,1,0,3:2:0:0:
232,32,206173,1,8,2:0:0:0:
456,212,206334,6,0,P|446:309|348:308,1,216.388793408203,4|0,3:2|3:2,2:0:0:0:
148,132,206818,2,0,P|201:130|254:142,1,108.194396704102,8|0,2:0|3:2,2:0:0:0:
96,300,207140,2,0,P|82:332|92:366,2,72.0179978027343,8|8|0,2:0|2:0|3:2,2:0:0:0:
132,259,207463,2,0,P|78:260|25:248,1,108.194396704102,0|0,3:2|3:2,2:0:0:0:
254,141,207785,6,0,P|265:222|262:302,1,162.626395056153,14|0,2:0|2:0,2:0:0:0:
222,338,208108,5,10,2:0:0:0:
367,128,208269,1,8,3:2:0:0:
371,383,208431,1,10,2:0:0:0:
219,181,208592,1,8,3:2:0:0:
463,254,208753,1,10,2:0:0:0:
138,314,208914,5,14,3:2:0:0:
138,314,209237,1,10,2:0:0:0:
249,2,209398,5,14,2:0:0:0:
277,91,209721,5,2,2:0:0:0:
265,184,210043,5,2,2:0:0:0:
214,263,210366,5,6,3:2:0:0:
328,59,213431,5,0,3:0:0:0:
328,59,213511,1,0,3:0:0:0:
328,59,213592,2,0,P|323:86|313:111,1,54.4319983520508,10|8,3:2|3:2,2:0:0:0:
184,168,213753,2,0,P|188:194|198:219,1,54.4319983520508,2|0,3:2|3:2,2:0:0:0:
313,327,213914,5,2,3:2:0:0:
448,148,214076,5,6,3:2:0:0:
64,236,214398,5,6,3:2:0:0:
448,148,214721,5,6,3:2:0:0:
64,236,215043,5,6,3:2:0:0:
64,236,215124,1,0,3:2:0:0:
63,236,215205,2,0,P|70:214|78:193,1,45.36,12|8,2:0|2:0,2:0:0:0:
128,96,215366,2,0,P|147:85|168:76,1,45.36,10|8,2:0|2:0,2:0:0:0:
272,42,215527,6,0,P|372:64|464:88,1,198.356406042481,4|8,3:2|2:0,2:0:0:0:
456,252,216011,1,0,2:0:0:0:
332,288,216173,2,0,P|334:238|342:189,1,99.1782030212402,2|0,3:2|3:2,2:0:0:0:
464,88,216495,1,10,2:0:0:0:
272,42,216656,6,0,P|175:63|79:88,1,198.356406042481,2|0,3:2|3:2,2:0:0:0:
8,232,217140,2,0,P|57:236|105:246,1,99.1782030212402,10|0,2:0|3:2,2:0:0:0:
244,344,217463,2,0,P|223:298|207:252,1,99.1782030212402,2|0,2:0|3:2,2:0:0:0:
223,84,217785,2,0,P|194:124|161:161,1,99.1782030212402,10|0,2:0|2:0,2:0:0:0:
8,232,218108,5,2,3:2:0:0:
207,252,218269,1,0,3:2:0:0:
117,142,218431,1,10,2:0:0:0:
97,341,218592,1,0,3:2:0:0:
280,258,218753,5,10,2:0:0:0:
107,242,218914,1,0,3:2:0:0:
299,60,219076,1,10,2:0:0:0:
359,317,219237,6,0,P|321:347|273:354,1,99.1782030212402,6|0,3:2|2:0,2:0:0:0:
117,142,219560,1,8,2:0:0:0:
156,113,219640,1,0,3:0:0:0:
205,107,219721,1,2,3:2:0:0:
250,126,219802,1,0,3:2:0:0:
295,144,219882,1,0,3:2:0:0:
344,138,219963,1,0,3:2:0:0:
384,109,220043,6,0,P|398:90|409:67,1,49.8960015106202,10|0,2:0|3:2,2:0:0:0:
488,224,220205,1,0,3:2:0:0:
488,224,220285,1,0,3:2:0:0:
488,224,220366,2,0,L|494:273,1,49.8960015106202,10|0,2:0|3:2,2:0:0:0:
365,366,220527,2,0,L|358:316,1,49.8960015106202,0|0,3:2|3:2,2:0:0:0:
236,200,220689,6,0,P|189:181|138:179,1,101.641503862381,2|0,3:2|2:0,2:0:0:0:
172,256,221011,6,0,P|249:216|336:203,1,176.178591966248,12|0,3:2|2:0,2:0:0:0:
396,252,221334,6,0,L|389:144,1,108.194396704102,0|0,3:2|3:2,2:0:0:0:
304,56,221656,1,10,2:0:0:0:
138,179,221818,6,0,P|84:174|37:149,1,108.194396704102,2|0,3:2|2:0,2:0:0:0:
256,348,222140,2,0,P|303:323|356:318,1,108.194396704102,2|8,3:2|3:2,2:0:0:0:
104,372,222463,2,0,L|92:264,1,108.194396704102,2|0,3:2|2:0,2:0:0:0:
289,95,222785,2,0,L|300:202,1,108.194396704102,2|8,3:2|2:0,2:0:0:0:
132,76,223108,1,2,2:0:0:0:
264,280,223269,6,0,B|316:288|316:288|365:262,1,108.194396704102,0|0,3:2|3:2,2:0:0:0:
325,17,223592,2,0,B|273:9|273:9|223:34,1,108.194396704102,12|0,2:0|2:0,2:0:0:0:
172,256,223914,1,2,3:2:0:0:
289,95,224076,1,0,3:2:0:0:
328,332,224237,1,10,2:0:0:0:
111,176,224398,6,0,P|164:164|217:170,1,108.194396704102,6|0,3:2|2:0,2:0:0:0:
392,116,224721,1,2,3:2:0:0:
172,256,224882,1,8,2:0:0:0:
404,377,225043,2,0,L|413:269,1,108.194396704102,6|0,3:2|2:0,2:0:0:0:
296,24,225366,1,2,3:2:0:0:
348,188,225527,1,8,2:0:0:0:
465,61,225689,1,10,2:0:0:0:
309,283,225850,6,0,P|260:259|207:253,1,108.194396704102,4|0,3:2|2:0,2:0:0:0:
4,300,226173,2,0,P|52:323|105:329,1,108.194396704102,8|0,2:0|3:2,2:0:0:0:
348,188,226495,1,2,3:2:0:0:
236,360,226656,1,0,3:2:0:0:
143,177,226818,1,8,2:0:0:0:
394,272,226979,6,0,P|449:186|392:101,1,215.999993408203,2|0,3:2|3:0,0:0:0:0:
188,33,227463,2,0,P|137:49|84:59,1,107.999996704102,8|0,0:0|0:0,0:0:0:0:
348,188,227785,1,2,0:0:0:0:
236,360,227946,1,0,3:0:0:0:
143,177,228108,1,8,0:0:0:0:
400,80,228269,1,0,3:0:0:0:
400,80,228350,1,0,3:0:0:0:
400,80,228431,6,0,P|453:72|506:65,1,108.194396704102,4|0,3:2|3:2,2:0:0:0:
342,345,228753,2,0,P|289:352|236:360,1,108.194396704102,8|0,2:0|3:2,2:0:0:0:
256,92,229076,1,10,2:0:0:0:
448,288,229237,1,0,3:2:0:0:
207,253,229398,1,10,2:0:0:0:
506,65,229560,6,0,L|496:172,1,108.194396704102,6|0,3:2|2:0,2:0:0:0:
136,100,229882,1,8,2:0:0:0:
136,100,229963,1,8,2:0:0:0:
136,100,230043,5,10,2:0:0:0:
400,40,230205,1,0,3:2:0:0:
112,224,230366,5,10,2:0:0:0:
424,164,230527,1,0,3:2:0:0:
88,348,230689,5,10,2:0:0:0:
448,288,230850,1,0,3:2:0:0:
448,288,230931,1,0,3:0:0:0:
448,288,231011,6,0,L|476:253,3,45.174,10|0|0|0,2:0|3:2|3:2|3:2,2:0:0:0:
408,356,231334,6,0,P|335:309|250:321,1,176.178591966248,12|0,2:0|2:0,2:0:0:0:
167,367,231656,6,0,P|118:347|65:334,1,108.194396704102,0|0,3:2|3:2,2:0:0:0:
36,112,231979,1,10,2:0:0:0:
172,284,232140,6,0,L|189:177,1,108.194396704102,2|0,3:2|2:0,2:0:0:0:
316,48,232463,2,0,L|333:154,1,108.194396704102,2|8,3:2|3:2,2:0:0:0:
88,200,232785,1,2,3:2:0:0:
180,48,232947,1,0,2:0:0:0:
304,240,233108,2,0,P|357:240|402:212,1,108.194396704102,2|8,3:2|2:0,2:0:0:0:
456,76,233431,1,2,2:0:0:0:
432,324,233592,6,0,P|332:284|224:282,1,216.388793408203,0|8,3:2|2:0,2:0:0:0:
124,340,234076,1,0,2:0:0:0:
248,176,234237,2,0,P|248:122|242:68,1,108.194396704102,2|0,3:2|3:2,2:0:0:0:
88,200,234560,1,10,2:0:0:0:
276,268,234721,6,0,P|320:238|345:191,1,108.194396704102,6|0,3:2|2:0,2:0:0:0:
160,124,235043,1,2,3:2:0:0:
344,16,235205,1,8,2:0:0:0:
132,216,235366,6,0,P|87:186|62:139,1,108.194396704102,6|0,3:2|2:0,2:0:0:0:
244,68,235689,1,2,3:2:0:0:
345,191,235850,1,8,2:0:0:0:
171,339,236011,1,10,2:0:0:0:
171,339,236092,1,8,2:0:0:0:
171,339,236173,6,0,L|159:123,1,216.388793408203,4|8,3:2|2:0,2:0:0:0:
276,300,236656,1,0,2:0:0:0:
68,247,236818,2,0,L|62:139,1,108.194396704102,2|0,3:2|3:2,2:0:0:0:
171,339,237140,1,10,2:0:0:0:
312,128,237302,6,0,B|370:108|370:108|422:128|434:188|406:239,1,216.388793408203,2|0,3:2|3:2,2:0:0:0:
172,144,237785,1,10,2:0:0:0:
276,300,237947,1,0,3:2:0:0:
232,84,238108,1,10,2:0:0:0:
68,247,238269,1,0,3:2:0:0:
172,24,238431,1,10,2:0:0:0:
345,191,238592,1,0,3:2:0:0:
65,159,238753,6,0,L|171:143,1,108.194396704102,14|0,3:2|3:2,2:0:0:0:
382,284,239076,2,0,L|275:299,1,108.194396704102,10|0,2:0|3:2,2:0:0:0:
320,56,239398,2,0,L|426:40,1,108.194396704102,10|0,2:0|3:2,2:0:0:0:
472,344,239721,1,10,2:0:0:0:
146,331,239882,6,0,P|128:281|134:228,1,107.999996704102,6|0,3:2|0:2,0:0:0:0:
332,36,240205,1,0,3:0:0:0:
385,35,240285,1,0,3:0:0:0:
427,67,240366,1,2,0:0:0:0:
440,118,240446,1,0,3:0:0:0:
419,166,240527,1,2,0:0:0:0:
371,191,240608,1,2,0:0:0:0:
320,181,240689,6,0,L|314:127,1,54.4319983520508,10|0,2:0|3:2,2:0:0:0:
186,14,240850,2,0,L|180:67,1,54.4319983520508,0|0,3:2|3:2,2:0:0:0:
216,302,241011,2,0,L|210:248,1,54.4319983520508,10|0,2:0|3:2,2:0:0:0:
82,135,241173,2,0,L|76:188,1,53.7623983520508,0|0,3:2|3:2,2:0:0:0:
322,360,241334,6,0,L|381:346,3,54.2087983520508,2|0|0|0,3:2|3:2|3:2|3:2,2:0:0:0:
456,327,241656,5,12,2:0:0:0:
277,147,241818,1,0,3:2:0:0:
496,24,241979,1,8,2:0:0:0:
340,264,242140,1,0,3:2:0:0:
210,8,242302,1,10,2:0:0:0:
452,195,242463,1,2,3:2:0:0:
169,311,242624,5,8,2:0:0:0:
386,85,242785,1,2,3:2:0:0:
124,136,242947,1,8,2:0:0:0:
377,342,243108,1,2,3:2:0:0:
54,249,243269,5,8,2:0:0:0:
278,22,243431,1,2,3:2:0:0:
456,327,243592,1,8,2:0:0:0:
124,136,243753,6,0,P|107:85|124:34,1,107.999996704102,12|0,2:0|0:0,0:0:0:0:
383,86,244076,1,8,2:0:0:0:
54,249,244237,1,8,2:0:0:0:
456,327,244398,1,8,2:0:0:0:
244,43,244560,6,0,L|237:96,1,53.9999983520508,8|8,2:0|2:0,0:0:0:0:
408,242,244721,2,0,L|414:188,1,53.9999983520508,8|8,2:0|2:0,0:0:0:0:
124,136,244882,2,0,L|117:189,1,53.9999983520508,8|8,2:0|2:0,0:0:0:0:
316,360,245043,5,10,3:2:0:0:
316,360,245366,5,10,3:2:0:0:
316,360,245689,5,10,3:2:0:0:
315,360,246011,6,0,P|339:346|363:334,1,54.4319983520508,2|0,3:2|3:2,2:0:0:0:
488,300,246173,2,0,P|464:286|440:274,1,54.4319983520508,8|8,3:2|3:2,2:0:0:0:
260,252,246334,1,2,3:2:0:0:
348,68,246495,6,0,P|405:152|352:240,1,216.388793408203,6|8,3:2|2:0,2:0:0:0:
208,352,246979,1,0,3:2:0:0:
68,219,247140,2,0,P|120:208|174:210,1,108.194396704102,2|0,3:2|3:2,2:0:0:0:
362,334,247463,1,10,2:0:0:0:
234,137,247624,6,0,L|207:351,1,216.388793408203,2|0,3:2|3:2,2:0:0:0:
457,219,248108,2,0,L|350:239,1,108.194396704102,10|0,2:0|3:2,2:0:0:0:
127,116,248431,2,0,L|233:136,1,108.194396704102,2|0,3:2|3:2,2:0:0:0:
457,13,248753,2,0,L|350:33,1,108.194396704102,10|0,2:0|3:2,2:0:0:0:
212,240,249076,6,0,P|231:190|232:136,1,108.194396704102,6|0,3:2|3:2,2:0:0:0:
96,296,249398,2,0,P|129:337|175:365,1,108.194396704102,10|0,2:0|3:2,2:0:0:0:
105,168,249721,1,10,2:0:0:0:
78,169,249802,1,0,3:2:0:0:
51,176,249882,1,0,3:2:0:0:
27,187,249963,1,0,3:2:0:0:
5,202,250043,1,10,3:2:0:0:
212,239,250205,6,0,P|234:163|213:86,1,162.626395056153,6|0,3:2|2:0,2:0:0:0:
183,63,250527,2,0,P|237:66|289:51,1,108.194396704102,8|8,2:0|2:0,2:0:0:0:
468,44,250850,1,8,2:0:0:0:
324,172,251011,1,8,3:2:0:0:
307,212,251092,1,8,2:0:0:0:
291,252,251173,1,8,2:0:0:0:
307,292,251253,1,8,2:0:0:0:
323,332,251334,1,8,3:2:0:0:
488,192,251495,1,0,3:2:0:0:
183,63,251656,5,14,2:0:0:0:
376,96,251818,1,2,3:2:0:0:
148,148,251979,5,10,2:0:0:0:
384,188,252140,1,2,3:2:0:0:
113,233,252302,5,10,2:0:0:0:
392,280,252463,1,2,3:2:0:0:
78,318,252624,5,8,2:0:0:0:
400,372,252785,1,2,3:2:0:0:
400,372,252866,1,0,3:2:0:0:
400,372,252947,5,8,2:0:0:0:
256,192,253108,1,2,3:2:0:0:
238,354,253269,1,8,2:0:0:0:
418,210,253431,1,2,3:2:0:0:
418,210,253511,1,0,3:2:0:0:
418,210,253592,5,8,2:0:0:0:
148,148,253753,1,0,3:2:0:0:
368,4,253914,1,8,2:0:0:0:
392,280,254076,1,0,3:2:0:0:
183,63,254237,5,10,2:0:0:0:
192,328,254398,1,2,3:2:0:0:
340,108,254560,5,10,2:0:0:0:
90,198,254721,1,2,3:2:0:0:
345,271,254882,5,10,2:0:0:0:
92,76,255043,1,10,3:2:0:0:
484,186,255205,1,8,2:0:0:0:
192,328,255366,5,6,3:2:0:0:
192,328,255689,5,6,3:2:0:0:
192,328,256011,5,6,3:2:0:0:
192,328,256334,6,0,B|177:260|177:260|220:193|220:193|208:127,1,216.388793408203,2|0,3:2|3:2,2:0:0:0:
67,32,256818,6,0,P|25:88|29:158,1,144.2592,6|0,3:2|2:0,2:0:0:0:
24,272,257302,1,2,3:2:0:0:
24,272,257463,2,0,L|95:275,1,72.1295999999999,8|0,2:0|2:0,2:0:0:0:
192,328,257785,2,0,L|263:324,1,72.1295999999999,2|0,2:0|2:0,2:0:0:0:
388,252,258108,5,2,3:2:0:0:
479,316,258269,2,0,P|423:358|353:356,1,144.2592,8|2,2:0|3:2,2:0:0:0:
228,224,258753,2,0,L|233:152,1,72.1295999999999,10|0,2:0|3:2,2:0:0:0:
364,84,259076,2,0,L|369:155,1,72.1295999999999,2|2,2:0|3:2,2:0:0:0:
140,256,259398,6,0,L|153:94,1,162.626395056153,4|0,3:2|2:0,2:0:0:0:
212,35,259721,6,0,P|124:17|72:90,1,189.730794232178,8|0,2:0|2:0,2:0:0:0:
233,152,260043,5,8,2:0:0:0:
95,275,260205,1,0,3:2:0:0:
308,232,260366,1,10,2:0:0:0:
212,35,260527,1,10,3:2:0:0:
140,256,260689,5,10,2:0:0:0:
340,128,260850,1,8,3:2:0:0:
72,90,261011,1,10,2:0:0:0:
236,312,261173,1,10,2:0:0:0:
457,222,261334,5,8,2:0:0:0:
478,187,261414,1,8,2:0:0:0:
482,147,261495,1,8,2:0:0:0:
468,110,261576,1,8,2:0:0:0:
440,82,261656,2,0,L|335:107,1,108.194396704102,10|10,2:0|2:0,2:0:0:0:
104,222,261979,6,0,P|135:317|235:311,1,216.388793408203,6|8,3:2|2:0,2:0:0:0:
256,48,262463,1,6,3:2:0:0:
256,48,262785,1,10,3:2:0:0:
212,180,262947,1,8,3:2:0:0:
468,64,263108,6,0,B|498:109|474:169|474:169|434:205|441:265,1,216.388793408203,14|0,3:2|3:2,2:0:0:0:
256,48,263592,1,8,2:0:0:0:
388,120,263753,1,0,3:2:0:0:
212,180,263914,1,8,2:0:0:0:
468,64,264076,1,2,3:2:0:0:
441,349,264237,1,10,2:0:0:0:
441,349,264318,1,0,3:2:0:0:
441,349,264398,1,2,3:2:0:0:
441,349,264479,1,0,3:2:0:0:
441,349,264560,5,6,3:2:0:0:
71,349,266979,5,0,3:2:0:0:
71,349,267060,1,0,3:2:0:0:
71,349,267140,2,0,L|65:259,1,90.1619999999999,14|0,3:2|3:2,2:0:0:0:
104,40,267463,5,8,2:0:0:0:
275,184,267624,1,0,3:2:0:0:
16,168,267785,1,8,2:0:0:0:
260,60,267947,1,0,3:2:0:0:
172,360,268108,2,0,L|166:270,1,90.1619999999999,10|0,2:0|3:2,2:0:0:0:
416,48,268431,5,10,2:0:0:0:
458,61,268511,1,0,3:2:0:0:
488,94,268592,1,0,3:2:0:0:
497,138,268673,1,0,3:2:0:0:
484,180,268753,1,10,2:0:0:0:
452,211,268834,1,8,2:0:0:0:
409,221,268914,1,10,2:0:0:0:
366,209,268995,1,8,2:0:0:0:
335,177,269076,5,8,2:0:0:0:
304,145,269156,1,8,2:0:0:0:
261,133,269237,1,8,2:0:0:0:
218,143,269318,1,8,2:0:0:0:
186,174,269398,1,10,2:0:0:0:
173,216,269479,1,8,2:0:0:0:
182,260,269560,1,10,2:0:0:0:
212,293,269640,1,8,2:0:0:0:
255,306,269721,6,0,P|264:263|259:218,1,90.1619999999999,6|0,3:2|2:0,2:0:0:0:
100,112,270043,2,0,P|90:155|95:200,1,90.1619999999999,8|0,2:0|2:0,2:0:0:0:
274,131,270366,2,0,P|231:122|186:127,1,90.1619999999999,2|0,3:2|2:0,2:0:0:0:
80,286,270689,2,0,P|123:296|168:291,1,90.1619999999999,10|0,2:0|2:0,2:0:0:0:
384,286,271011,6,0,P|343:211|258:218,1,180.324,2|10,3:2|2:0,2:0:0:0:
98,143,271495,2,0,L|186:127,1,90.1619999999999,2|0,2:0|3:2,2:0:0:0:
292,304,271818,2,0,L|204:288,1,90.1619999999999,2|8,2:0|2:0,2:0:0:0:
48,224,272140,1,2,2:0:0:0:
211,47,272302,6,0,P|269:111|237:190,1,180.324,4|8,3:2|2:0,2:0:0:0:
98,143,272785,2,0,L|103:53,1,90.1619999999999,0|8,2:0|3:2,2:0:0:0:
203,287,273108,1,10,3:2:0:0:
186,126,273269,1,10,2:0:0:0:
55,222,273431,6,0,P|48:266|49:311,1,90.1619999999999,6|0,3:2|2:0,2:0:0:0:
292,376,273753,2,0,P|299:331|298:286,1,90.1619999999999,2|8,3:2|2:0,2:0:0:0:
185,125,274076,1,6,3:2:0:0:
185,125,274398,2,0,P|206:135|227:142,1,45.36,2|0,3:2|2:0,2:0:0:0:
320,152,274560,2,0,L|308:17,1,135.522,8|0,2:0|2:0,2:0:0:0:
400,36,274882,6,0,L|407:125,1,90.1619999999999,6|0,3:2|2:0,2:0:0:0:
360,268,275205,1,10,2:0:0:0:
227,142,275366,1,2,3:2:0:0:
460,220,275527,1,10,2:0:0:0:
308,17,275689,1,10,2:0:0:0:
209,251,275850,1,10,2:0:0:0:
407,125,276011,6,0,P|339:120|273:131,1,135.243005149842,6|8,3:2|2:3,2:0:0:0:
263,320,276495,2,0,P|281:291|292:259,1,67.6215025749207,2|4,2:0|2:3,2:0:0:0:
188,132,276818,2,0,P|198:163|216:192,1,67.6215025749207,2|0,2:0|3:2,2:0:0:0:
392,232,277140,2,0,P|425:225|458:223,1,67.6215025749207,2|0,3:2|2:0,2:0:0:0:
480,64,277463,6,0,B|416:36|416:36|307:53,1,180.324,6|0,3:2|3:2,2:0:0:0:
216,192,277947,1,0,3:2:0:0:
111,62,278108,1,8,2:0:0:0:
49,311,278269,1,8,2:0:0:0:
296,241,278431,1,8,2:0:0:0:
125,214,278592,1,8,2:0:0:0:
307,53,278753,5,10,2:0:0:0:
392,232,278914,1,8,2:0:0:0:
213,317,279076,1,8,2:0:0:0:
128,138,279237,1,8,2:0:0:0:
307,53,279398,5,10,2:0:0:0:
303,105,279479,1,8,2:0:0:0:
300,157,279560,1,8,2:0:0:0:
297,210,279640,1,8,2:0:0:0:
294,262,279721,1,8,2:0:0:0:
291,315,279802,1,8,2:0:0:0:
288,367,279882,1,6,3:2:0:0:
256,192,279963,12,0,283914,2:0:0:0:
