osu file format v14

[General]
AudioFilename: audio.mp3
AudioLeadIn: 0
PreviewTime: 124156
Countdown: 0
SampleSet: Soft
StackLeniency: 0.6
Mode: 0
LetterboxInBreaks: 0
WidescreenStoryboard: 1

[Editor]
DistanceSpacing: 1
BeatDivisor: 4
GridSize: 4
TimelineZoom: 4.999997

[Metadata]
Title:Soundscape
TitleUnicode:サウンドスケープ
Artist:TRUE
ArtistUnicode:TRUE
Creator:SkyFlame
Version:Kowari's Expert
Source:響け!ユーフォニアム2
Tags:sound hibike euphonium season 2 opening full size anime -laura- akitoshi corinn kalibe kibbleru kowari meg iMage-- japanese OP ver. version female vocal pop jpop
BeatmapID:2274002
BeatmapSetID:534054

[Difficulty]
HPDrainRate:6
CircleSize:3.8
OverallDifficulty:8.8
ApproachRate:9.3
SliderMultiplier:1.75
SliderTickRate:1

[Events]
//Background and Video events
0,0,"background.jpg",0,0
//Break Periods
2,210566,213038
2,264760,266425
//Storyboard Layer 0 (Background)
//Storyboard Layer 1 (Fail)
//Storyboard Layer 2 (Pass)
//Storyboard Layer 3 (Foreground)
//Storyboard Layer 4 (Overlay)
//Storyboard Sound Samples

[TimingPoints]
44,322.58064516129,4,2,1,60,1,0
1011,-111.111111111111,4,2,1,60,0,0
1252,-111.111111111111,4,2,1,5,0,0
1334,-111.111111111111,4,2,1,60,0,0
1656,-100,4,2,1,60,0,0
6495,-90.9090909090909,4,2,1,70,0,0
13592,-90.9090909090909,4,2,1,60,0,0
14237,-125,4,2,1,50,0,0
22302,-125,4,2,1,60,0,0
23431,-100,4,2,1,60,0,0
24560,-111.111111111111,4,2,1,60,0,0
34882,-125,4,2,1,60,0,0
35205,-125,4,2,1,50,0,0
38592,-111.111111111111,4,2,1,60,0,0
43753,-99.9999999999999,4,2,1,60,0,0
44075,-99.9999999999999,4,2,1,70,0,0
46011,-99.9999999999999,4,2,1,50,0,0
46173,-99.9999999999999,4,2,1,45,0,0
46334,-99.9999999999999,4,2,1,70,0,0
46710,-76.9230769230769,4,2,1,50,0,0
46925,-76.9230769230769,4,2,1,55,0,0
47140,-76.9230769230769,4,2,1,60,0,0
47355,-76.9230769230769,4,2,1,65,0,0
47570,-76.9230769230769,4,2,1,70,0,0
47785,-76.9230769230769,4,2,1,80,0,0
48107,-76.9230769230769,4,2,1,60,0,0
48431,-125,4,2,1,60,0,0
49076,-125,4,2,1,70,0,0
49398,-90.9090909090909,4,2,1,90,0,1
49720,-90.9090909090909,4,2,1,80,0,1
59398,-90.9090909090909,4,2,1,80,0,0
59721,-90.9090909090909,4,2,1,90,0,1
60043,-90.9090909090909,4,2,1,80,0,1
74882,-117.647058823529,4,2,1,60,0,0
77463,-117.647058823529,4,2,1,80,0,0
79076,-95.238095238095,4,2,1,80,0,0
80043,-90.9090909090909,4,2,1,60,0,0
80284,-90.9090909090909,4,2,1,5,0,0
80366,-90.9090909090909,4,2,1,90,0,0
80527,-90.9090909090909,4,2,1,70,0,0
89721,-90.9090909090909,4,2,1,75,0,0
90366,-111.111111111111,4,2,1,60,0,0
98431,-111.111111111111,4,2,1,65,0,0
100366,-111.111111111111,4,2,1,60,0,0
111011,-125,4,2,1,60,0,0
111334,-125,4,2,1,55,0,0
114721,-111.111111111111,4,2,1,60,0,0
119882,-99.9999999999999,4,2,1,60,0,0
120204,-99.9999999999999,4,2,1,70,0,0
122140,-99.9999999999999,4,2,1,50,0,0
122302,-99.9999999999999,4,2,1,45,0,0
122463,-99.9999999999999,4,2,1,70,0,0
122785,-76.9230769230769,4,2,1,50,0,0
123054,-76.9230769230769,4,2,1,55,0,0
123269,-76.9230769230769,4,2,1,60,0,0
123484,-76.9230769230769,4,2,1,65,0,0
123699,-76.9230769230769,4,2,1,70,0,0
123914,-76.9230769230769,4,2,1,80,0,0
124236,-76.9230769230769,4,2,1,60,0,0
124560,-125,4,2,1,60,0,0
125205,-125,4,2,1,70,0,0
125527,-90.9090909090909,4,2,1,90,0,1
125849,-90.9090909090909,4,2,1,80,0,1
135123,-90.9090909090909,4,2,1,5,0,1
135205,-71.4285714285714,4,2,1,80,0,1
135446,-71.4285714285714,4,2,1,5,0,1
135527,-90.9090909090909,4,2,1,80,0,0
135850,-90.9090909090909,4,2,1,90,0,1
136172,-90.9090909090909,4,2,1,80,0,1
145769,-90.9090909090909,4,2,1,80,0,0
145850,-90.9090909090909,4,2,1,80,0,1
151011,-117.647058823529,4,2,1,60,0,1
153592,-95.238095238095,4,2,1,80,0,1
156173,-125,4,2,1,60,0,0
161334,-100,4,2,1,65,0,0
163914,-100,4,2,1,70,0,0
165527,-111.111111111111,4,2,1,70,0,0
166334,-99.9999999999999,4,2,1,70,0,0
176818,-99.9999999999999,4,2,1,74,0,0
181979,-99.9999999999999,4,2,1,68,0,0
184560,-99.9999999999999,4,2,1,62,0,0
185689,-99.9999999999999,4,2,1,70,0,0
187140,-90.9090909090909,4,2,1,72,0,0
194882,-90.9090909090909,4,2,1,76,0,0
196495,-90.9090909090909,4,2,1,75,0,0
197463,-90.9090909090909,4,2,1,70,0,0
200043,-90.9090909090909,4,2,1,72,0,0
202624,-90.9090909090909,4,2,1,60,0,0
202947,-83.3333333333333,4,2,1,90,0,0
203269,-83.3333333333333,4,2,1,60,0,0
203592,-83.3333333333333,4,2,1,90,0,0
203914,-83.3333333333333,4,2,1,60,0,0
204237,-83.3333333333333,4,2,1,90,0,0
204560,-83.3333333333333,4,2,1,60,0,0
204882,-71.4285714285714,4,2,1,90,0,0
205205,-71.4285714285714,4,2,1,80,0,0
206334,-90.9090909090909,4,2,1,80,0,0
207785,-90.9090909090909,4,2,1,85,0,0
213592,-90.9090909090909,4,2,1,70,0,0
214076,-100,4,2,1,80,0,1
215205,-76.9230769230769,4,2,1,80,0,1
215527,-90.9090909090909,4,2,1,80,0,1
220043,-71.4285714285714,4,2,1,80,0,1
220285,-71.4285714285714,4,2,1,5,0,1
220366,-52.6315789473684,4,2,1,80,0,1
220608,-52.6315789473684,4,2,1,5,0,1
220689,-100,4,2,1,80,0,0
220930,-100,4,2,1,5,0,0
221011,-71.4285714285714,4,2,1,90,0,1
221252,-71.4285714285714,4,2,1,5,0,1
221334,-71.4285714285714,4,2,1,80,0,1
221818,-90.9090909090909,4,2,1,80,0,1
231011,-100,4,2,1,80,0,0
231334,-90.9090909090909,4,2,1,90,0,1
231656,-90.9090909090909,4,2,1,85,0,1
241253,-90.9090909090909,4,2,1,85,0,0
241334,-83.3333333333333,4,2,1,85,0,1
241656,-83.3333333333333,4,2,1,92,0,1
243753,-90.9090909090909,4,2,1,92,0,1
245043,-100,4,2,1,92,0,0
246495,-90.9090909090909,4,2,1,80,0,1
251576,-90.9090909090909,4,2,1,80,0,0
251656,-100,4,2,1,85,0,1
256818,-117.647058823529,4,2,1,60,0,0
259398,-117.647058823529,4,2,1,80,0,0
261656,-95.238095238095,4,2,1,80,0,0
261979,-95.238095238095,4,2,1,90,0,0
264560,-95.238095238095,4,2,1,45,0,0
267140,-95.238095238095,4,2,1,75,0,0
268431,-95.238095238095,4,2,1,80,0,0
269721,-95.238095238095,4,2,1,70,0,0
276011,-95.238095238095,4,2,1,65,0,0
277463,-95.238095238095,4,2,1,70,0,0
279882,-303.030303030303,4,2,1,72,0,0
283914,-303.030303030303,4,2,1,5,0,0

[Colours]
Combo1 : 138,104,155
Combo2 : 92,132,204
Combo3 : 231,200,109
Combo4 : 189,141,163

[HitObjects]
78,350,850,5,0,3:2:0:0:
78,350,931,1,0,3:0:0:0:
78,350,1011,2,0,B|127:344|127:344|152:359|152:359|210:354,1,118.125,12|0,2:0|2:0,2:0:0:0:
268,347,1334,5,14,2:0:0:0:
168,162,1495,1,10,2:0:0:0:
362,240,1656,2,0,P|287:246|254:249,1,87.5,10|0,2:0|2:0,2:0:0:0:
66,211,1979,2,0,P|57:147|75:117,1,87.5,10|0,2:0|2:0,2:0:0:0:
244,241,2302,1,10,2:0:0:0:
85,378,2463,6,0,P|30:370|-19:365,1,87.5,10|0,2:0|2:0,2:0:0:0:
274,247,2785,2,0,P|283:311|265:341,1,87.5,10|0,2:0|2:0,2:0:0:0:
118,186,3108,1,10,2:0:0:0:
315,115,3269,1,10,2:0:0:0:
113,51,3431,1,10,2:0:0:0:
248,210,3592,2,0,B|293:222|293:222|350:197,1,87.5,10|0,2:0|2:0,2:0:0:0:
480,29,3914,5,10,2:0:0:0:
295,130,4076,1,10,2:0:0:0:
460,258,4237,2,0,P|480:210|464:167,1,87.5,10|0,2:0|2:0,2:0:0:0:
268,235,4560,2,0,P|277:313|280:343,1,87.5,10|0,2:0|2:0,2:0:0:0:
386,142,4882,1,10,2:0:0:0:
183,89,5043,6,0,P|124:90|89:118,1,87.5,10|0,2:0|2:0,2:0:0:0:
153,308,5366,2,0,P|160:233|163:206,1,87.5,10|0,2:0|2:0,2:0:0:0:
280,46,5689,1,10,2:0:0:0:
425,196,5850,1,10,2:0:0:0:
396,228,5931,1,8,2:0:0:0:
356,244,6011,1,8,2:0:0:0:
312,241,6092,1,8,2:0:0:0:
275,219,6173,1,10,2:0:0:0:
251,182,6253,1,8,2:0:0:0:
215,157,6334,1,8,2:0:0:0:
172,151,6414,1,8,2:0:0:0:
131,165,6495,6,0,P|139:252|146:324,1,144.375,6|0,3:2|2:0,2:0:0:0:
200,366,6818,2,0,P|257:365|294:337,1,96.25,8|0,2:0|2:0,2:0:0:0:
452,210,7140,2,0,P|458:264|466:317,1,96.25,2|0,3:2|2:0,2:0:0:0:
309,158,7463,1,10,2:0:0:0:
491,52,7624,1,0,2:0:0:0:
303,171,7785,6,0,B|196:167|244:107|114:109,1,192.5,2|10,3:2|2:0,2:0:0:0:
160,318,8269,2,0,B|180:273|180:273|146:205,1,96.25,2|0,2:0|3:2,2:0:0:0:
22,67,8592,2,0,B|2:112|2:112|36:180,1,96.25,2|8,2:0|2:0,2:0:0:0:
187,21,8914,5,2,2:0:0:0:
187,21,8995,1,2,2:0:0:0:
187,21,9076,2,0,P|265:5|337:29,1,144.375,6|0,3:2|2:0,2:0:0:0:
360,90,9398,2,0,P|354:168|352:199,1,96.25,8|0,2:0|2:0,2:0:0:0:
196,330,9721,1,8,3:2:0:0:
423,278,9882,1,10,3:2:0:0:
220,163,10043,1,10,2:0:0:0:
289,364,10205,6,0,P|309:307|287:256,1,96.25,6|0,3:2|2:0,2:0:0:0:
170,113,10527,1,2,3:2:0:0:
77,304,10689,1,8,2:0:0:0:
289,379,10850,2,0,P|372:368|404:365,1,96.25,6|0,3:2|2:0,2:0:0:0:
498,187,11173,1,2,3:2:0:0:
498,187,11253,1,2,2:0:0:0:
498,187,11334,2,0,B|439:184|439:184|411:204|411:204|339:202,1,144.375,8|0,2:0|2:0,2:0:0:0:
296,156,11656,5,6,3:2:0:0:
454,298,11818,1,0,3:2:0:0:
440,87,11979,1,10,2:0:0:0:
298,258,12140,1,2,3:2:0:0:
224,58,12302,5,10,2:0:0:0:
412,198,12463,1,10,3:2:0:0:
201,305,12624,1,10,3:2:0:0:
348,153,12785,6,0,B|364:32|364:32|340:69|298:85,1,192.5,6|8,3:2|2:0,2:0:0:0:
150,216,13269,1,8,2:0:0:0:
77,16,13431,1,8,2:0:0:0:
258,142,13592,1,8,2:0:0:0:
258,142,13673,1,0,3:2:0:0:
258,142,13753,2,0,L|197:144,1,48.125,0|0,3:2|3:2,2:0:0:0:
96,158,13914,2,0,P|67:199|77:247,1,96.25,10|0,2:0|3:2,2:0:0:0:
200,330,14237,6,0,B|278:336|251:287|349:300,2,140,6|0|0,2:0|3:2|3:2,2:0:0:0:
122,270,15043,1,0,2:0:0:0:
203,215,15205,2,0,P|216:171|205:139,1,70,2|0,3:2|2:0,2:0:0:0:
98,92,15527,6,0,P|34:98|5:100,1,70,2|0,3:2|2:0,2:0:0:0:
206,35,15850,2,0,P|270:41|299:43,1,70,2|0,3:2|2:0,2:0:0:0:
381,93,16173,1,2,3:2:0:0:
453,26,16334,1,0,2:0:0:0:
381,93,16495,2,0,P|364:124|372:165,1,70,2|0,3:2|2:0,2:0:0:0:
467,240,16818,6,0,P|411:243|359:251,1,105,2|0,3:2|2:0,2:0:0:0:
317,315,17140,2,0,B|353:329|353:329|388:319,1,70,2|0,3:2|2:0,2:0:0:0:
286,214,17463,2,0,B|250:200|250:200|215:210,1,70,2|0,3:2|2:0,2:0:0:0:
160,332,17785,6,0,B|156:279|156:279|130:259|130:259|126:193,1,140,6|0,3:2|3:2,2:0:0:0:
207,105,18269,1,0,2:0:0:0:
35,161,18431,1,0,3:2:0:0:
222,215,18592,1,8,2:0:0:0:
114,100,18753,2,0,P|102:58|115:24,1,70,2|0,3:2|2:0,2:0:0:0:
279,24,19076,2,0,P|291:66|278:100,1,70,2|2,3:2|3:2,2:0:0:0:
284,90,19318,1,2,2:0:0:0:
284,90,19398,6,0,P|352:96|431:104,1,140,6|0,2:0|3:2,2:0:0:0:
477,185,19882,1,0,2:0:0:0:
399,244,20043,2,0,B|385:212|385:212|397:179,1,70,2|0,3:2|2:0,2:0:0:0:
480,274,20366,2,0,B|494:305|494:305|482:339,1,70,2|0,3:2|2:0,2:0:0:0:
387,367,20689,6,0,B|306:368|343:321|245:320,2,140,2|0|2,3:2|3:2|3:2,2:0:0:0:
478,264,21495,1,0,2:0:0:0:
389,221,21656,2,0,P|382:275|378:309,1,70,2|0,3:2|2:0,2:0:0:0:
337,112,21979,6,0,P|294:83|230:93,1,105,14|0,2:0|2:0,2:0:0:0:
198,146,22302,2,0,L|205:193,1,35,10|8,3:2|2:0,2:0:0:0:
220,276,22463,1,10,2:0:0:0:
194,299,22543,1,8,2:0:0:0:
162,313,22624,1,8,3:2:0:0:
127,314,22705,1,8,2:0:0:0:
94,304,22785,1,8,2:0:0:0:
67,282,22866,1,8,2:0:0:0:
50,252,22947,2,0,L|60:205,1,35,10|8,2:0|2:0,2:0:0:0:
110,135,23108,2,0,L|102:100,1,35,10|8,2:0|2:0,2:0:0:0:
80,4,23269,5,0,3:2:0:0:
198,155,23431,2,0,B|292:161|262:99|373:117,1,175,10|10,3:2|3:2,2:0:0:0:
512,260,23914,1,6,2:0:0:0:
341,197,24076,1,2,3:2:0:0:
471,68,24237,2,0,P|463:137|460:171,1,87.5,14|0,2:0|2:0,2:0:0:0:
391,296,24560,6,0,B|305:274|305:274|267:283|251:332,1,157.5,6|8,3:2|2:0,2:0:0:0:
140,211,25043,1,0,2:0:0:0:
248,95,25205,2,0,P|262:140|251:181,1,78.7500000000001,0|0,3:2|3:2,2:0:0:0:
111,230,25527,2,0,P|97:185|108:144,1,78.7500000000001,10|0,2:0|2:0,2:0:0:0:
205,34,25850,6,0,P|304:49|381:59,1,157.5,2|10,3:2|2:0,2:0:0:0:
445,190,26334,1,0,2:0:0:0:
292,230,26495,2,0,B|278:188|278:188|304:147,1,78.7500000000001,2|0,3:2|3:2,2:0:0:0:
384,290,26818,2,0,P|457:298|489:302,1,78.7500000000001,10|0,2:0|2:0,2:0:0:0:
237,372,27140,6,0,B|181:357|181:357|141:369|141:369|72:350,1,157.5,2|10,3:2|2:0,2:0:0:0:
170,220,27624,1,0,2:0:0:0:
25,282,27785,1,2,3:2:0:0:
178,322,27947,1,0,3:2:0:0:
233,159,28108,6,0,B|221:56|221:56|210:89|191:109,1,157.5,14|0,2:0|3:2,2:0:0:0:
90,221,28592,1,0,3:2:0:0:
12,84,28753,2,0,P|56:75|91:91,1,78.7500000000001,8|2,2:0|2:0,2:0:0:0:
102,108,28995,1,2,2:0:0:0:
102,108,29076,2,0,P|95:150|91:187,1,78.7500000000001,2|0,3:2|3:2,2:0:0:0:
193,336,29398,2,0,P|186:293|182:257,1,78.7500000000001,10|0,2:0|2:0,2:0:0:0:
260,120,29721,6,0,P|333:88|424:118,1,157.5,6|8,3:2|2:0,2:0:0:0:
507,226,30205,1,2,2:0:0:0:
356,272,30366,2,0,P|342:221|350:190,1,78.7500000000001,2|0,3:2|2:0,2:0:0:0:
477,56,30689,2,0,P|491:107|483:138,1,78.7500000000001,10|0,2:0|2:0,2:0:0:0:
358,11,31011,5,2,3:2:0:0:
276,146,31173,2,0,P|217:136|191:131,1,78.7500000000001,0|8,2:0|2:0,2:0:0:0:
103,7,31495,1,2,2:0:0:0:
249,64,31656,1,2,3:2:0:0:
249,64,31737,1,0,3:2:0:0:
249,64,31818,1,0,3:2:0:0:
111,141,31979,2,0,P|86:179|95:258,1,118.125,10|0,2:0|2:0,2:0:0:0:
162,284,32302,6,0,P|232:278|264:276,1,78.7500000000001,6|0,3:2|3:2,2:0:0:0:
392,237,32624,1,10,2:0:0:0:
286,353,32785,1,2,2:0:0:0:
311,196,32947,2,0,B|317:158|317:158|296:121,1,78.7500000000001,0|0,3:2|3:2,2:0:0:0:
297,122,33189,1,0,3:2:0:0:
297,122,33269,1,10,2:0:0:0:
173,245,33431,6,0,B|80:217|80:217|51:236|13:241,1,157.5,6|8,3:2|2:3,2:0:0:0:
18,82,33914,2,0,P|65:80|96:105,1,78.7500000000001,8|4,2:3|3:2,2:0:0:0:
177,228,34237,1,8,2:0:0:0:
226,78,34398,1,0,3:2:0:0:
291,238,34560,1,8,2:3:0:0:
337,82,34721,1,8,2:3:0:0:
337,82,34802,1,8,2:3:0:0:
337,82,34882,6,0,P|399:79|430:78,1,70,6|0,3:2|2:0,2:0:0:0:
462,176,35205,2,0,P|400:173|369:172,1,70,2|0,3:2|2:0,2:0:0:0:
288,215,35527,2,0,P|265:249|288:354,1,140,10|2,2:0|3:2,2:0:0:0:
416,286,36011,6,0,P|381:273|346:280,1,70,2|0,3:2|2:0,2:0:0:0:
277,364,36334,1,8,2:0:0:0:
197,285,36495,1,2,3:2:0:0:
287,219,36656,1,0,3:2:0:0:
198,150,36818,2,0,P|135:157|107:160,1,70,10|0,2:0|3:2,2:0:0:0:
30,103,37140,1,2,3:2:0:0:
106,252,37302,1,2,2:0:0:0:
236,69,37463,6,0,P|286:42|380:60,2,140,4|2|10,3:2|3:2|3:2,2:0:0:0:
322,238,38269,1,8,2:0:0:0:
223,163,38431,5,10,2:0:0:0:
223,163,38511,1,10,2:0:0:0:
223,163,38592,2,0,B|281:162|281:162|317:145|317:145|382:152,1,157.5,14|10,2:0|3:2,2:0:0:0:
494,256,39076,1,10,3:2:0:0:
364,344,39237,2,0,B|260:320|260:320|319:376,1,157.5,14|0,3:2|3:2,2:0:0:0:
475,329,39721,2,0,P|493:287|485:246,1,78.7500000000001,8|0,2:3|3:2,2:0:0:0:
426,218,39963,5,0,3:2:0:0:
426,218,40043,2,0,P|432:175|437:133,1,78.7500000000001,4|0,3:2|2:0,2:0:0:0:
321,12,40366,2,0,P|327:55|332:97,1,78.7500000000001,10|0,2:0|3:2,2:0:0:0:
260,207,40689,1,2,3:2:0:0:
427,130,40850,1,0,3:2:0:0:
239,72,41011,2,0,P|197:67|164:79,1,78.7500000000001,10|0,2:0|2:0,2:0:0:0:
98,187,41334,6,0,P|24:180|-4:177,1,78.7500000000001,6|0,3:2|2:0,2:0:0:0:
169,304,41656,2,0,P|208:300|247:296,1,78.7500000000001,10|2,2:0|2:0,2:0:0:0:
374,213,41979,1,2,3:2:0:0:
228,165,42140,1,0,3:2:0:0:
346,312,42302,2,0,B|363:348|363:348|342:383,1,78.7500000000001,10|0,2:0|2:0,2:0:0:0:
508,263,42624,6,0,B|419:267|465:212|353:213,1,157.5,6|8,3:2|2:0,2:0:0:0:
217,273,43108,1,0,2:0:0:0:
290,137,43269,1,10,2:0:0:0:
290,137,43350,1,8,2:0:0:0:
290,137,43431,2,0,L|290:188,1,39.375,8|8,2:0|2:0,2:0:0:0:
295,300,43592,1,8,2:0:0:0:
287,99,43753,6,0,P|227:67|122:96,1,175,6|2,3:2|3:2,2:0:0:0:
53,270,44237,1,10,2:0:0:0:
19,80,44398,1,2,3:2:0:0:
192,165,44560,1,10,2:0:0:0:
4,207,44721,1,2,3:2:0:0:
171,301,44882,1,10,2:0:0:0:
102,121,45043,1,2,3:2:0:0:
11,312,45205,6,0,P|49:327|100:314,1,87.5000000000001,8|2,2:0|3:2,2:0:0:0:
235,188,45527,2,0,P|192:178|152:193,1,87.5000000000001,10|10,2:0|2:0,2:0:0:0:
152,193,45769,1,8,2:0:0:0:
152,193,45850,1,6,2:3:0:0:
277,340,46011,1,6,2:3:0:0:
138,373,46173,1,6,2:3:0:0:
255,193,46334,1,14,2:0:0:0:
202,119,46710,6,0,P|166:92|121:90,1,75.8333333333334,10|0,2:0|2:0,2:0:0:0:
342,219,46925,2,0,P|380:221|414:206,1,75.8333333333334,10|0,2:0|2:0,2:0:0:0:
169,220,47140,2,0,P|138:240|119:273,1,75.8333333333334,10|0,2:0|2:0,2:0:0:0:
308,118,47355,2,0,P|322:83|318:45,1,75.8333333333334,10|0,2:0|2:0,2:0:0:0:
256,282,47570,2,0,P|266:319|291:346,1,75.8333333333334,10|0,2:0|2:0,2:0:0:0:
499,231,47785,6,0,B|387:193|387:193|340:201|320:238|355:304,1,227.5,14|2,2:0|2:0,2:0:0:0:
421,47,48269,1,0,2:0:0:0:
421,47,48431,2,0,P|355:32|332:27,1,70,2|0,2:0|3:2,2:0:0:0:
352,31,48673,1,0,3:2:0:0:
352,31,48753,2,0,P|325:65|321:96,1,70,10|0,2:0|2:0,2:0:0:0:
94,217,49076,1,10,2:0:0:0:
65,198,49156,1,8,2:0:0:0:
50,166,49237,1,8,2:0:0:0:
56,132,49318,1,8,2:0:0:0:
79,106,49398,6,0,B|151:112|151:112|186:146|186:146|283:147,1,192.5,12|0,3:2|3:2,2:0:0:0:
473,62,49882,1,0,3:2:0:0:
337,248,50043,1,10,2:0:0:0:
331,16,50205,6,0,P|356:65|342:108,1,96.25,2|0,3:2|2:0,2:0:0:0:
220,296,50527,1,2,3:2:0:0:
439,222,50689,1,8,3:2:0:0:
227,130,50850,2,0,P|135:123|113:121,1,96.25,2|0,3:2|2:0,2:0:0:0:
231,332,51173,1,2,3:2:0:0:
367,146,51334,2,0,B|415:131|415:131|464:152,1,96.25,8|2,2:0|2:0,2:0:0:0:
300,317,51656,6,0,P|292:251|281:166,1,144.375,0|0,3:2|2:0,2:0:0:0:
225,119,51979,2,0,P|199:172|211:210,1,96.25,8|0,2:0|2:0,2:0:0:0:
405,83,52302,1,2,3:2:0:0:
180,30,52463,1,0,3:2:0:0:
346,189,52624,1,10,2:0:0:0:
127,261,52785,6,0,P|86:189|117:80,1,192.5,6|2,3:2|3:2,2:0:0:0:
296,226,53269,1,8,2:0:0:0:
114,370,53431,2,0,P|47:362|16:358,1,96.25,6|0,3:2|2:0,2:0:0:0:
195,172,53753,1,2,3:2:0:0:
295,379,53914,1,8,2:0:0:0:
454,210,54076,1,10,2:0:0:0:
454,210,54156,1,8,2:0:0:0:
454,210,54237,6,0,P|468:156|455:111,1,96.25,4|0,3:2|2:0,2:0:0:0:
245,257,54560,2,0,P|295:265|345:275,1,96.25,8|0,2:0|2:0,2:0:0:0:
466,81,54882,1,2,3:2:0:0:
243,159,55043,1,0,3:2:0:0:
433,291,55205,1,10,2:0:0:0:
322,72,55366,6,0,P|195:83|121:90,1,192.5,2|0,3:2|3:2,2:0:0:0:
228,300,55850,2,0,P|251:240|239:191,1,96.25,10|0,2:0|3:2,2:0:0:0:
35,117,56173,2,0,P|12:177|24:226,1,96.25,2|0,2:0|3:2,2:0:0:0:
182,366,56495,2,0,B|286:343|286:343|322:368,1,144.375,10|0,2:0|2:0,2:0:0:0:
394,355,56818,6,0,B|410:305|410:305|389:260,1,96.25,2|0,3:2|3:2,2:0:0:0:
214,117,57140,1,10,2:0:0:0:
437,54,57302,1,0,3:2:0:0:
283,226,57463,1,10,2:0:0:0:
300,4,57624,1,0,3:2:0:0:
120,148,57785,1,10,2:0:0:0:
351,154,57947,6,0,P|453:166|470:168,1,96.25,6|0,3:2|2:0,2:0:0:0:
270,16,58269,1,8,2:0:0:0:
195,235,58431,1,2,3:2:0:0:
158,265,58511,1,0,3:2:0:0:
112,275,58592,1,0,3:2:0:0:
67,259,58673,1,0,3:2:0:0:
38,221,58753,2,0,P|49:140|52:105,1,96.25,10|0,2:0|3:2,2:0:0:0:
278,170,59076,2,0,P|298:212|290:265,1,96.25,10|0,2:0|3:2,2:0:0:0:
140,369,59398,1,2,3:2:0:0:
140,369,59479,1,0,3:2:0:0:
140,369,59560,2,0,L|150:313,1,48.125,0|0,3:2|3:2,2:0:0:0:
191,116,59721,6,0,B|145:75|145:75|168:213,1,192.5,12|0,2:0|3:2,2:0:0:0:
350,345,60205,1,0,3:2:0:0:
124,296,60366,1,10,2:0:0:0:
303,151,60527,6,0,P|354:136|402:147,1,96.25,2|0,3:2|2:0,2:0:0:0:
233,309,60850,1,2,3:2:0:0:
264,80,61011,1,8,2:0:0:0:
447,221,61173,2,0,P|436:287|431:326,1,96.25,2|0,3:2|2:0,2:0:0:0:
268,154,61495,1,2,3:2:0:0:
190,366,61656,2,0,B|240:383|240:383|286:367,1,96.25,8|6,2:0|2:0,2:0:0:0:
74,263,61979,5,0,3:2:0:0:
301,228,62140,1,0,3:2:0:0:
160,43,62302,2,0,P|141:92|159:141,1,96.25,12|0,2:0|2:0,2:0:0:0:
294,314,62624,1,0,3:2:0:0:
375,98,62785,1,0,3:2:0:0:
493,297,62947,1,10,2:0:0:0:
285,196,63108,6,0,P|182:211|87:224,1,192.5,6|2,3:2|3:2,2:0:0:0:
243,44,63592,1,8,2:0:0:0:
394,217,63753,2,0,P|408:272|398:319,1,96.25,6|0,3:2|2:0,2:0:0:0:
230,153,64076,1,2,3:2:0:0:
451,89,64237,1,8,2:0:0:0:
306,268,64398,1,0,3:2:0:0:
198,62,64560,6,0,B|149:51|149:51|100:73,1,96.25,6|0,3:2|2:0,2:0:0:0:
311,176,64882,1,8,2:0:0:0:
116,294,65043,1,0,3:2:0:0:
116,294,65124,1,0,3:2:0:0:
116,294,65205,2,0,P|124:219|127:188,1,96.25,2|0,3:2|3:2,2:0:0:0:
313,63,65527,1,10,2:0:0:0:
419,269,65689,6,0,P|354:310|238:272,1,192.5,2|0,3:2|3:2,2:0:0:0:
425,132,66173,1,10,2:0:0:0:
222,21,66334,1,0,3:2:0:0:
222,21,66414,1,0,3:2:0:0:
222,21,66495,2,0,P|231:84|238:131,1,96.25,2|0,3:2|3:2,2:0:0:0:
444,218,66818,2,0,P|456:160|442:115,1,96.25,10|0,2:0|3:2,2:0:0:0:
271,274,67140,5,6,3:2:0:0:
485,363,67302,1,0,3:2:0:0:
361,168,67463,1,10,2:0:0:0:
240,364,67624,1,0,3:2:0:0:
193,147,67785,1,10,2:0:0:0:
380,283,67947,1,0,3:2:0:0:
380,283,68027,1,0,3:2:0:0:
380,283,68108,1,10,3:2:0:0:
156,339,68269,6,0,B|32:309|32:309|107:386,1,192.5,6|8,3:2|2:0,2:0:0:0:
255,207,68753,1,8,2:0:0:0:
39,126,68914,1,8,2:0:0:0:
167,318,69076,1,8,3:2:0:0:
204,90,69237,1,8,2:0:0:0:
229,70,69318,1,8,2:0:0:0:
258,56,69398,1,8,3:2:0:0:
289,50,69479,1,0,3:2:0:0:
321,52,69560,1,0,3:2:0:0:
352,62,69640,1,0,3:2:0:0:
379,79,69721,6,0,P|367:178|365:202,1,96.25,14|2,2:0|3:2,2:0:0:0:
182,312,70043,1,10,2:0:0:0:
407,257,70205,1,2,3:2:0:0:
191,173,70366,1,10,2:0:0:0:
301,367,70527,1,2,3:2:0:0:
301,123,70689,1,8,2:0:0:0:
109,251,70850,6,0,P|45:241|20:200,1,96.25,2|8,3:2|2:0,2:0:0:0:
180,44,71173,1,2,3:2:0:0:
180,44,71253,1,0,3:2:0:0:
180,44,71334,2,0,P|184:106|187:149,1,96.25,8|2,2:0|3:2,2:0:0:0:
324,324,71656,1,8,2:0:0:0:
116,220,71818,1,0,3:2:0:0:
343,183,71979,1,8,2:0:0:0:
181,347,72140,1,0,3:2:0:0:
412,355,72302,6,0,B|429:310|429:310|405:257,1,96.25,10|2,2:0|3:2,2:0:0:0:
218,136,72624,1,10,2:0:0:0:
441,81,72785,1,2,3:2:0:0:
300,265,72947,1,10,2:0:0:0:
233,44,73108,1,10,3:2:0:0:
107,237,73269,1,8,2:0:0:0:
317,139,73431,6,0,P|383:149|422:154,1,96.25,6|0,3:2|2:0,2:0:0:0:
154,42,73753,2,0,P|88:52|49:57,1,96.25,6|0,3:2|2:0,2:0:0:0:
245,193,74076,2,0,P|270:244|213:367,1,192.5,6|2,3:2|3:2,2:0:0:0:
221,361,74479,1,0,3:2:0:0:
221,361,74560,1,12,2:0:0:0:
115,157,74721,1,8,3:2:0:0:
318,269,74882,6,0,P|416:257|487:249,1,148.750000000001,6|0,3:2|2:0,2:0:0:0:
491,119,75366,2,0,P|439:98|349:139,1,148.750000000001,10|8,2:0|2:3,2:0:0:0:
286,245,75850,1,6,2:3:0:0:
194,146,76011,1,4,2:3:0:0:
99,242,76173,6,0,B|121:330|121:330|74:380,1,148.750000000001,6|0,2:0|2:0,2:0:0:0:
204,268,76656,1,2,3:2:0:0:
204,268,76737,1,0,3:2:0:0:
204,268,76818,2,0,P|248:263|285:281,1,74.3750000000003,10|0,2:0|2:0,2:0:0:0:
367,370,77140,2,0,P|323:375|286:357,1,74.3750000000003,2|2,2:0|2:0,2:0:0:0:
430,302,77463,5,4,3:2:0:0:
430,302,77785,1,8,2:0:0:0:
313,113,77947,1,0,3:2:0:0:
508,214,78108,1,8,2:0:0:0:
289,237,78269,1,0,3:2:0:0:
422,59,78431,1,10,2:0:0:0:
217,139,78592,1,2,3:2:0:0:
417,230,78753,5,10,2:0:0:0:
229,345,78914,1,8,3:2:0:0:
229,345,78995,1,8,2:0:0:0:
229,345,79076,2,0,L|216:293,1,45.9375000000001,10|8,2:0|2:0,2:0:0:0:
319,155,79237,2,0,L|307:199,1,45.9375000000001,10|8,2:0|2:0,2:0:0:0:
109,297,79398,1,8,2:0:0:0:
74,277,79479,1,8,2:0:0:0:
47,247,79560,1,8,2:0:0:0:
31,210,79640,1,8,2:0:0:0:
27,170,79721,1,10,2:0:0:0:
36,132,79802,1,8,2:0:0:0:
57,97,79882,1,10,2:0:0:0:
88,72,79963,1,8,2:0:0:0:
125,57,80043,6,0,B|186:64|186:64|210:88|210:88|276:94,1,144.375,4|0,3:2|2:0,2:0:0:0:
321,44,80366,2,0,P|367:22|420:34,1,96.25,14|0,2:0|2:0,2:0:0:0:
470,232,80689,1,0,3:2:0:0:
266,173,80850,1,0,3:2:0:0:
432,42,81011,2,0,P|421:111|417:146,1,96.25,8|2,2:0|2:0,2:0:0:0:
417,137,81253,1,2,2:0:0:0:
417,137,81334,6,0,B|314:163|345:82|219:112,1,192.5,2|10,3:2|2:0,2:0:0:0:
252,320,81818,2,0,P|280:265|269:227,1,96.25,2|0,2:0|3:2,2:0:0:0:
95,119,82140,2,0,P|67:174|78:212,1,96.25,2|8,2:0|2:0,2:0:0:0:
187,369,82463,5,6,2:0:0:0:
187,369,82543,1,2,2:0:0:0:
187,369,82624,2,0,P|269:357|336:347,1,144.375,2|0,3:2|2:0,2:0:0:0:
400,313,82947,2,0,P|471:322|503:326,1,96.25,8|0,2:0|2:0,2:0:0:0:
360,162,83269,1,0,3:2:0:0:
321,371,83431,1,10,2:0:0:0:
477,228,83592,1,10,2:0:0:0:
300,111,83753,6,0,P|274:164|285:201,1,96.25,6|0,3:2|2:0,2:0:0:0:
495,214,84076,1,2,3:2:0:0:
299,295,84237,1,8,2:0:0:0:
412,127,84398,2,0,P|401:60|395:23,1,96.25,6|0,3:2|2:0,2:0:0:0:
283,218,84721,1,2,3:2:0:0:
283,218,84802,1,2,2:0:0:0:
283,218,84882,2,0,B|239:211|239:211|219:218|219:218|183:214,1,96.25,10|0,2:0|2:0,2:0:0:0:
0,30,85205,6,0,P|47:-3|151:23,1,144.375,6|0,3:2|2:0,2:0:0:0:
200,33,85527,2,0,P|187:88|181:130,1,96.25,10|2,2:0|2:0,2:0:0:0:
179,340,85850,1,2,3:2:0:0:
84,151,86011,1,2,2:0:0:0:
0,327,86173,1,8,2:0:0:0:
189,233,86334,6,0,P|247:226|288:257,1,96.25,2|0,2:0|3:2,2:0:0:0:
92,346,86656,1,2,2:0:0:0:
142,139,86818,1,8,2:0:0:0:
238,327,86979,1,2,2:0:0:0:
338,141,87140,1,8,2:0:0:0:
338,141,87221,1,8,2:0:0:0:
338,141,87302,2,0,L|323:87,1,48.125,10|8,2:0|2:0,2:0:0:0:
432,192,87463,1,10,2:0:0:0:
225,149,87624,1,2,3:2:0:0:
400,12,87785,6,0,B|427:55|427:55|412:105,1,96.25,14|0,3:2|3:2,2:0:0:0:
264,246,88108,1,10,2:0:0:0:
462,173,88269,1,0,3:2:0:0:
255,120,88431,1,10,2:0:0:0:
388,283,88592,1,0,3:2:0:0:
185,222,88753,1,10,2:0:0:0:
338,76,88914,6,0,P|345:142|350:187,1,96.25,6|0,3:2|2:0,2:0:0:0:
237,353,89237,1,8,2:0:0:0:
434,276,89398,2,0,L|488:292,2,48.125,8|8|8,2:0|2:0|2:0,2:0:0:0:
246,175,89721,2,0,P|191:163|140:190,1,96.25,8|8,2:0|2:0,2:0:0:0:
155,176,89963,1,8,2:0:0:0:
155,176,90043,1,10,2:0:0:0:
331,288,90205,1,8,2:0:0:0:
198,368,90366,6,0,P|114:356|42:348,1,157.5,6|8,3:2|2:0,2:0:0:0:
12,192,90850,1,0,2:0:0:0:
167,170,91011,2,0,P|176:214|155:255,1,78.7500000000001,0|0,3:2|3:2,2:0:0:0:
2,193,91334,2,0,P|-7:148|13:107,1,78.7500000000001,10|0,2:0|2:0,2:0:0:0:
150,48,91656,6,0,B|250:67|250:67|266:48|305:27,1,157.5,2|10,3:2|2:0,2:0:0:0:
436,101,92140,1,0,2:0:0:0:
324,212,92302,2,0,P|328:148|331:122,1,78.7500000000001,2|0,3:2|3:2,2:0:0:0:
430,261,92624,2,0,P|434:325|437:351,1,78.7500000000001,10|0,2:0|2:0,2:0:0:0:
290,384,92947,6,0,P|256:346|303:246,1,157.5,2|10,3:2|2:0,2:0:0:0:
434,198,93431,1,0,2:0:0:0:
255,174,93592,1,0,3:2:0:0:
345,318,93753,1,0,3:2:0:0:
359,147,93914,6,0,B|374:91|374:91|352:59|352:59|367:-8,1,157.5,14|0,2:0|3:2,2:0:0:0:
256,191,94398,1,0,3:2:0:0:
152,70,94560,2,0,P|201:51|234:54,1,78.7500000000001,8|0,2:0|2:0,2:0:0:0:
141,184,94882,1,2,3:2:0:0:
3,107,95043,1,0,3:2:0:0:
133,196,95205,2,0,P|137:246|139:284,1,78.7500000000001,10|0,2:0|2:0,2:0:0:0:
263,369,95527,6,0,B|359:369|308:319|426:313,1,157.5,6|8,3:2|2:0,2:0:0:0:
512,203,96011,1,2,2:0:0:0:
356,174,96173,1,2,3:2:0:0:
472,279,96334,1,0,2:0:0:0:
448,123,96495,2,0,B|441:83|441:83|464:49,1,78.7500000000001,10|0,2:0|2:0,2:0:0:0:
367,210,96818,6,0,P|321:234|211:197,1,157.5,2|8,3:2|2:0,2:0:0:0:
340,103,97302,1,0,2:0:0:0:
205,21,97463,2,0,P|212:78|218:118,1,78.7500000000001,2|0,3:2|3:2,2:0:0:0:
103,209,97785,2,0,P|110:152|116:112,1,78.7500000000001,10|0,2:0|2:0,2:0:0:0:
195,265,98108,5,10,2:0:0:0:
44,310,98269,1,0,3:2:0:0:
184,383,98431,1,10,2:0:0:0:
100,231,98592,1,2,3:2:0:0:
263,208,98753,1,8,2:0:0:0:
263,208,98834,1,8,2:0:0:0:
263,208,98914,2,0,L|269:259,1,39.375,8|8,2:0|2:0,2:0:0:0:
338,357,99076,2,0,L|342:317,1,39.375,10|8,2:0|2:0,2:0:0:0:
403,198,99237,2,0,L|407:237,1,39.375,10|8,2:0|2:0,2:0:0:0:
491,296,99398,5,0,3:2:0:0:
452,115,99560,2,0,P|395:93|311:147,1,157.5,10|8,2:0|2:0,2:0:0:0:
259,284,100043,1,10,3:2:0:0:
389,194,100205,1,10,2:0:0:0:
233,106,100366,2,0,P|181:117|148:123,1,78.7500000000001,6|0,3:2|2:0,2:0:0:0:
36,226,100689,6,0,B|101:232|101:232|125:255|125:255|190:265,1,157.5,6|8,3:2|2:0,2:0:0:0:
334,216,101173,1,0,2:0:0:0:
253,350,101334,1,0,3:2:0:0:
246,188,101495,1,0,3:2:0:0:
353,302,101656,2,0,P|404:309|436:299,1,78.7500000000001,10|0,2:0|2:0,2:0:0:0:
505,162,101979,6,0,P|409:148|338:137,1,157.5,2|10,3:2|2:0,2:0:0:0:
243,21,102463,1,0,2:0:0:0:
149,147,102624,2,0,P|136:191|147:232,1,78.7500000000001,2|0,3:2|3:2,2:0:0:0:
280,299,102947,2,0,P|293:255|282:214,1,78.7500000000001,10|0,2:0|2:0,2:0:0:0:
157,134,103269,6,0,P|81:143|61:145,1,78.7500000000001,2|0,3:2|2:0,2:0:0:0:
278,218,103592,2,0,P|354:209|374:207,1,78.7500000000001,10|0,2:0|2:0,2:0:0:0:
489,125,103914,1,2,3:2:0:0:
418,296,104076,1,0,3:2:0:0:
351,69,104237,6,0,P|296:40|197:58,1,157.5,14|0,2:0|3:2,2:0:0:0:
110,180,104721,1,0,3:2:0:0:
262,219,104882,2,0,B|275:181|275:181|265:135,1,78.7500000000001,8|2,2:0|2:0,2:0:0:0:
196,285,105205,1,2,3:2:0:0:
347,325,105366,1,0,3:2:0:0:
242,207,105527,1,10,2:0:0:0:
144,356,105689,1,0,2:0:0:0:
51,229,105850,6,0,P|58:168|65:105,1,118.125,6|0,3:2|2:0,2:0:0:0:
103,41,106173,2,0,P|151:31|183:44,1,78.7500000000001,8|2,2:0|2:0,2:0:0:0:
297,142,106495,1,2,3:2:0:0:
140,133,106656,1,0,2:0:0:0:
246,250,106818,2,0,P|243:309|242:340,1,78.7500000000001,10|0,2:0|2:0,2:0:0:0:
393,372,107140,6,0,P|439:330|414:232,1,157.5,2|8,3:2|2:0,2:0:0:0:
289,162,107624,1,0,2:0:0:0:
435,106,107785,1,2,3:2:0:0:
341,233,107947,1,0,3:2:0:0:
309,78,108108,2,0,B|271:63|271:63|228:77,1,78.7500000000001,10|0,2:0|2:0,2:0:0:0:
115,178,108431,1,6,3:2:0:0:
69,27,108592,1,0,3:2:0:0:
204,107,108753,1,10,2:0:0:0:
99,262,108914,6,0,P|33:256|2:253,1,78.7500000000001,2|0,2:0|3:2,2:0:0:0:
181,189,109237,1,0,3:2:0:0:
181,189,109318,1,0,3:2:0:0:
181,189,109398,1,10,2:0:0:0:
226,340,109560,2,0,P|264:356|311:333,1,78.7500000000001,6|0,3:2|2:0,2:0:0:0:
378,209,109882,5,8,2:3:0:0:
437,354,110043,1,8,2:3:0:0:
308,261,110205,1,4,3:2:0:0:
463,237,110366,5,8,2:0:0:0:
361,116,110527,1,0,3:2:0:0:
511,70,110689,1,8,2:3:0:0:
405,186,110850,1,8,2:3:0:0:
326,43,111011,6,0,P|281:37|243:59,1,70,4|0,3:2|2:0,2:0:0:0:
211,147,111334,2,0,P|256:153|294:131,1,70,2|0,3:2|2:0,2:0:0:0:
153,69,111656,2,0,P|123:101|127:197,1,140,10|2,2:0|3:2,2:0:0:0:
213,260,112140,6,0,P|268:256|305:254,1,70,2|0,3:2|2:0,2:0:0:0:
359,337,112463,1,8,2:0:0:0:
433,253,112624,1,2,3:2:0:0:
348,179,112785,1,0,3:2:0:0:
438,112,112947,2,0,P|472:99|509:109,1,70,10|0,2:0|3:2,2:0:0:0:
358,202,113269,1,2,3:2:0:0:
318,66,113431,1,2,2:0:0:0:
183,154,113592,6,0,B|129:144|129:144|95:161|95:161|32:154,2,140,4|2|10,3:2|3:2|3:2,2:0:0:0:
289,309,114398,1,8,2:0:0:0:
59,319,114560,5,10,2:0:0:0:
59,319,114640,1,8,2:0:0:0:
59,319,114721,2,0,P|107:265|203:289,1,157.5,14|10,2:0|3:2,2:0:0:0:
304,377,115205,1,10,3:2:0:0:
430,283,115366,2,0,B|335:262|335:262|315:242|317:204,1,157.5,14|0,3:2|3:2,2:0:0:0:
316,206,115769,1,0,3:2:0:0:
316,206,115850,1,8,3:2:0:0:
473,14,116173,6,0,P|488:58|475:98,1,78.7500000000001,4|0,3:2|2:0,2:0:0:0:
330,133,116495,2,0,P|315:89|328:49,1,78.7500000000001,10|0,2:0|3:2,2:0:0:0:
411,215,116818,1,2,3:2:0:0:
255,193,116979,1,0,3:2:0:0:
405,114,117140,1,10,2:0:0:0:
318,267,117302,1,0,2:0:0:0:
191,134,117463,6,0,P|131:142|106:145,1,78.7500000000001,6|0,3:2|2:0,2:0:0:0:
34,280,117785,2,0,B|72:296|72:296|126:280,1,78.7500000000001,10|0,2:0|3:2,2:0:0:0:
254,224,118108,1,2,3:2:0:0:
175,360,118269,1,0,3:2:0:0:
136,206,118431,1,10,2:0:0:0:
249,314,118592,1,0,2:0:0:0:
300,154,118753,6,0,P|341:129|464:153,1,157.5,2|8,3:2|2:0,2:0:0:0:
498,303,119237,1,0,2:0:0:0:
352,361,119398,1,10,2:0:0:0:
352,361,119479,1,8,2:0:0:0:
352,361,119560,2,0,L|359:300,1,39.375,8|8,2:0|2:0,2:0:0:0:
378,204,119721,1,8,2:0:0:0:
237,309,119882,6,0,B|171:294|171:294|131:308|131:308|64:294,1,175,6|2,3:2|3:2,2:0:0:0:
16,108,120366,1,10,2:0:0:0:
191,185,120527,1,0,3:2:0:0:
1,220,120689,1,10,2:0:0:0:
145,93,120850,1,0,3:2:0:0:
218,270,121011,1,10,2:0:0:0:
338,118,121173,1,2,3:2:0:0:
386,293,121334,6,0,P|377:349|372:383,1,87.5000000000001,8|2,2:0|3:2,2:0:0:0:
494,193,121656,2,0,P|485:137|480:103,1,87.5000000000001,10|8,2:0|2:0,2:0:0:0:
480,106,121898,1,8,2:0:0:0:
480,106,121979,1,4,2:3:0:0:
316,207,122140,1,6,2:3:0:0:
247,26,122302,1,6,2:3:0:0:
401,140,122463,1,14,2:0:0:0:
93,300,122785,6,0,P|122:248|172:217,1,113.75,10|0,2:0|2:0,2:0:0:0:
413,206,123054,2,0,P|379:221|342:219,1,75.8333333333334,10|0,2:0|2:0,2:0:0:0:
136,87,123269,2,0,P|173:94|202:119,1,75.8333333333334,10|0,2:0|2:0,2:0:0:0:
291,346,123484,2,0,P|265:318|256:282,1,75.8333333333334,10|0,2:0|2:0,2:0:0:0:
318,45,123699,2,0,P|321:83|308:118,1,75.8333333333334,10|0,2:0|2:0,2:0:0:0:
114,87,123914,6,0,B|97:64|66:47|66:47|229:68,1,227.5,14|2,2:0|3:2,2:0:0:0:
116,292,124398,1,0,3:2:0:0:
116,292,124479,1,0,3:2:0:0:
116,292,124560,2,0,P|71:283|19:276,1,70,2|0,2:0|3:2,2:0:0:0:
47,280,124802,1,0,3:2:0:0:
47,280,124882,2,0,P|21:319|21:347,1,70,10|0,2:0|3:0,2:0:0:0:
248,376,125205,1,10,2:0:0:0:
282,372,125285,1,8,2:0:0:0:
317,368,125366,1,8,2:0:0:0:
352,364,125447,1,8,2:0:0:0:
387,360,125527,6,0,P|416:280|360:180,1,192.5,12|0,3:2|3:2,2:0:0:0:
157,100,126011,1,0,3:2:0:0:
376,24,126173,1,10,2:0:0:0:
252,219,126334,2,0,P|169:211|127:206,1,96.25,2|0,3:2|2:0,2:0:0:0:
8,32,126656,5,2,3:2:0:0:
58,258,126818,1,8,3:2:0:0:
243,120,126979,2,0,P|258:56|244:19,1,96.25,2|0,3:2|2:0,2:0:0:0:
69,175,127302,1,2,3:2:0:0:
258,306,127463,2,0,P|331:299|374:296,1,96.25,8|2,2:0|2:0,2:0:0:0:
502,121,127785,6,0,B|405:94|405:94|368:110|362:140,1,144.375,0|0,3:2|2:0,2:0:0:0:
376,193,128108,2,0,P|444:201|476:190,1,96.25,8|0,2:0|2:0,2:0:0:0:
284,53,128431,1,2,3:2:0:0:
225,276,128592,1,0,3:2:0:0:
389,114,128753,1,10,2:0:0:0:
177,21,128914,6,0,B|168:100|168:100|198:128|198:128|184:210,1,192.5,6|2,3:2|3:2,2:0:0:0:
31,372,129398,1,8,2:0:0:0:
9,140,129560,2,0,P|61:121|103:137,1,96.25,6|0,3:2|2:0,2:0:0:0:
240,314,129882,1,2,3:2:0:0:
25,230,130043,1,8,2:0:0:0:
219,103,130205,5,10,2:0:0:0:
219,103,130285,1,8,2:0:0:0:
219,103,130366,2,0,P|283:112|378:124,1,144.375,4|0,3:2|2:0,2:0:0:0:
421,172,130689,2,0,B|429:222|429:222|402:268,1,96.25,8|0,2:0|2:0,2:0:0:0:
180,312,131011,1,2,3:2:0:0:
327,132,131173,1,0,3:2:0:0:
381,356,131334,1,10,2:0:0:0:
217,193,131495,6,0,P|147:203|113:207,1,96.25,2|0,3:2|2:0,2:0:0:0:
283,40,131818,1,0,3:2:0:0:
368,254,131979,2,0,P|421:275|470:250,1,96.25,10|0,2:0|3:2,2:0:0:0:
277,114,132302,1,2,2:0:0:0:
496,42,132463,1,0,3:2:0:0:
363,230,132624,2,0,P|357:154|355:126,1,96.25,10|0,2:0|3:2,2:0:0:0:
144,36,132947,5,2,3:2:0:0:
102,262,133108,1,0,3:2:0:0:
266,99,133269,1,10,2:0:0:0:
34,117,133431,1,0,3:2:0:0:
231,235,133592,5,10,2:0:0:0:
11,289,133753,1,0,3:2:0:0:
157,122,133914,1,10,2:0:0:0:
249,334,134076,2,0,P|288:352|348:348,1,96.25,6|0,3:2|2:0,2:0:0:0:
478,165,134398,5,8,2:0:0:0:
478,165,134479,1,0,3:2:0:0:
478,165,134560,2,0,L|415:157,1,48.125,2|0,3:2|3:2,2:0:0:0:
344,236,134721,2,0,L|391:242,1,48.125,0|0,3:2|3:2,2:0:0:0:
345,82,134882,6,0,B|253:105|253:105|225:92|202:66,1,144.375,14|0,2:0|2:0,2:0:0:0:
265,19,135205,6,0,P|289:75|197:157,1,183.75,10|0,2:0|2:0,2:0:0:0:
138,140,135527,6,0,L|133:85,1,48.125,2|0,3:2|3:0,2:0:0:0:
304,212,135689,2,0,L|299:259,1,48.125,0|0,3:2|3:2,2:0:0:0:
173,358,135850,6,0,B|155:231|155:231|178:268|208:289,1,192.5,12|0,2:0|3:2,2:0:0:0:
23,124,136334,1,0,3:2:0:0:
242,195,136495,1,10,2:0:0:0:
64,342,136656,2,0,B|45:295|45:295|63:250,1,96.25,2|0,3:2|2:0,2:0:0:0:
240,105,136979,5,2,3:2:0:0:
262,334,137140,1,8,2:0:0:0:
418,162,137302,2,0,P|467:167|521:173,1,96.25,2|0,3:2|2:0,2:0:0:0:
333,315,137624,1,2,3:2:0:0:
247,100,137785,1,8,2:0:0:0:
424,248,137947,5,14,2:0:0:0:
424,248,138027,1,2,2:0:0:0:
424,248,138108,1,0,3:2:0:0:
170,315,138269,1,0,3:2:0:0:
356,138,138431,1,8,2:0:0:0:
330,384,138592,1,0,2:0:0:0:
197,163,138753,5,8,3:2:0:0:
197,163,138834,1,8,3:2:0:0:
197,163,138914,2,0,L|142:173,1,48.125,8|8,3:2|3:2,2:0:0:0:
280,282,139076,2,0,L|335:272,1,48.125,10|8,2:0|2:0,2:0:0:0:
411,85,139237,6,0,P|372:64|316:77,1,96.25,6|0,3:2|2:0,2:0:0:0:
178,254,139560,1,2,3:2:0:0:
86,42,139721,1,8,2:0:0:0:
273,176,139882,2,0,P|336:180|380:182,1,96.25,6|0,3:2|2:0,2:0:0:0:
195,27,140205,1,2,3:2:0:0:
75,224,140366,1,8,2:0:0:0:
274,359,140527,5,0,3:2:0:0:
274,359,140608,1,0,3:2:0:0:
274,359,140689,2,0,P|293:314|282:266,1,96.25,6|0,3:2|2:0,2:0:0:0:
62,202,141011,2,0,P|43:247|54:295,1,96.25,8|0,2:0|3:2,2:0:0:0:
237,152,141334,1,2,3:2:0:0:
29,52,141495,1,0,3:2:0:0:
168,235,141656,1,10,2:0:0:0:
299,43,141818,6,0,P|401:60|496:73,1,192.5,2|0,3:2|3:2,2:0:0:0:
505,303,142302,1,10,2:0:0:0:
300,195,142463,2,0,B|408:161|408:161|448:181|453:225,1,192.5,0|0,3:2|3:2,2:0:0:0:
251,359,142947,2,0,P|217:307|218:263,1,96.25,10|0,2:0|3:2,2:0:0:0:
357,92,143269,5,6,3:2:0:0:
333,337,143431,1,0,3:2:0:0:
196,87,143592,1,10,2:0:0:0:
147,333,143753,1,0,3:2:0:0:
356,197,143914,1,10,2:0:0:0:
356,197,143995,1,0,3:2:0:0:
356,197,144076,2,0,L|279:206,1,48.125,0|0,3:2|3:2,2:0:0:0:
76,220,144237,1,10,3:2:0:0:
204,28,144398,6,0,P|273:8|387:94,1,192.5,6|8,3:2|2:0,2:0:0:0:
213,232,144882,1,8,2:0:0:0:
431,158,145043,1,8,2:0:0:0:
202,119,145205,1,8,3:2:0:0:
355,291,145366,1,8,2:0:0:0:
335,325,145447,1,8,2:0:0:0:
304,351,145527,1,8,3:2:0:0:
267,366,145608,1,8,2:3:0:0:
227,368,145689,1,0,3:2:0:0:
189,356,145769,1,0,3:2:0:0:
157,333,145850,6,0,B|145:281|145:281|174:232,1,96.25,14|0,2:0|3:2,2:0:0:0:
345,68,146173,1,8,2:0:0:0:
105,138,146334,1,2,3:2:0:0:
346,200,146495,1,10,2:0:0:0:
193,1,146656,1,2,3:2:0:0:
161,250,146818,1,10,2:0:0:0:
334,70,146979,5,2,3:2:0:0:
334,70,147060,1,0,3:2:0:0:
334,70,147140,2,0,P|389:56|430:73,1,96.25,8|2,2:0|3:2,2:0:0:0:
277,273,147463,1,8,2:0:0:0:
159,52,147624,1,2,3:2:0:0:
159,52,147705,1,0,3:2:0:0:
159,52,147785,5,8,2:0:0:0:
372,183,147947,1,0,3:2:0:0:
163,321,148108,1,8,2:0:0:0:
280,100,148269,1,0,3:2:0:0:
394,323,148431,6,0,P|475:331|507:334,1,96.25,10|2,2:0|3:2,2:0:0:0:
282,193,148753,1,10,2:0:0:0:
509,90,148914,1,2,3:2:0:0:
383,308,149076,1,10,2:0:0:0:
315,63,149237,1,10,3:2:0:0:
212,290,149398,1,8,2:0:0:0:
146,47,149560,6,0,P|97:30|36:46,1,96.25,6|0,3:2|2:0,2:0:0:0:
237,206,149882,2,0,P|286:223|347:207,1,96.25,6|0,3:2|2:0,2:0:0:0:
87,144,150205,2,0,P|73:271|63:351,1,192.5,6|2,3:2|3:2,2:0:0:0:
65,335,150608,1,0,3:2:0:0:
65,335,150689,1,12,2:0:0:0:
244,161,150850,1,8,2:0:0:0:
327,355,151011,6,0,B|419:362|378:316|483:316,1,148.750000000001,6|0,3:2|2:0,2:0:0:0:
489,183,151495,2,0,P|425:165|349:224,1,148.750000000001,10|8,2:0|2:3,2:0:0:0:
239,269,151979,1,6,2:3:0:0:
239,269,152302,6,0,B|231:210|231:210|245:182|245:182|232:115,1,148.750000000001,6|0,2:0|2:0,2:0:0:0:
318,21,152785,1,2,3:2:0:0:
318,21,152866,1,0,3:2:0:0:
318,21,152947,2,0,P|400:36|468:47,1,148.750000000001,10|2,2:0|2:0,2:0:0:0:
494,177,153431,1,2,2:0:0:0:
290,259,153592,6,0,B|274:214|274:214|299:175,1,91.8750000000002,4|0,3:2|2:0,2:0:0:0:
120,46,153914,1,8,2:0:0:0:
184,257,154076,1,0,3:2:0:0:
309,76,154237,1,8,2:0:0:0:
101,149,154398,1,0,3:2:0:0:
298,249,154560,1,10,2:0:0:0:
87,314,154721,1,2,3:2:0:0:
212,132,154882,5,10,2:0:0:0:
329,344,155043,1,0,3:2:0:0:
329,344,155124,1,0,3:2:0:0:
329,344,155205,2,0,L|384:339,1,45.9375000000001,10|8,2:0|2:0,2:0:0:0:
448,192,155366,2,0,L|402:196,1,45.9375000000001,10|8,2:0|2:0,2:0:0:0:
251,265,155527,1,8,2:0:0:0:
208,281,155608,1,8,2:0:0:0:
163,278,155689,1,8,2:0:0:0:
123,256,155769,1,8,2:0:0:0:
96,219,155850,2,0,L|111:160,1,45.9375000000001,10|8,2:0|2:0,2:0:0:0:
234,72,156011,2,0,L|219:131,1,45.9375000000001,10|8,2:0|2:0,2:0:0:0:
14,118,156173,6,0,P|71:71|146:79,1,140,4|0,3:2|3:2,2:0:0:0:
191,200,156656,2,0,P|195:249|204:346,1,140,8|0,2:0|2:3,2:0:0:0:
316,256,157140,1,4,2:3:0:0:
379,381,157302,1,0,2:0:0:0:
485,290,157463,6,0,P|506:235|473:148,1,140,6|0,3:2|2:0,2:0:0:0:
349,117,157947,1,0,3:2:0:0:
349,117,158027,1,8,2:0:0:0:
349,117,158108,2,0,B|293:129|293:129|272:148|272:148|206:160,1,140,10|0,2:0|3:2,2:0:0:0:
86,109,158592,1,0,3:2:0:0:
10,226,158753,6,0,P|-11:274|131:272,1,280,6|2,3:2|3:2,2:0:0:0:
89,141,159560,1,8,2:0:0:0:
208,214,159721,2,0,P|265:208|295:204,1,70,2|0,3:2|2:0,2:0:0:0:
429,136,160043,5,6,3:2:0:0:
301,27,160205,2,0,P|261:20|221:35,1,70,0|8,3:2|2:0,2:0:0:0:
415,131,160527,2,0,P|426:74|431:54,1,70,6|0,3:2|2:0,2:0:0:0:
289,197,160850,2,0,P|308:274|321:346,1,140,6|0,3:2|3:2,2:0:0:0:
149,380,161334,6,0,B|130:341|130:341|148:294,1,87.5,6|0,3:2|3:2,2:0:0:0:
304,162,161656,1,10,2:0:0:0:
76,110,161818,1,2,3:2:0:0:
228,254,161979,1,10,2:0:0:0:
197,46,162140,1,2,3:2:0:0:
75,218,162302,1,10,3:2:0:0:
306,121,162463,6,0,P|362:131|398:136,1,87.5,14|0,2:0|3:2,2:0:0:0:
511,340,162785,1,0,3:2:0:0:
511,340,162866,1,0,3:2:0:0:
511,340,162947,1,10,3:2:0:0:
308,238,163108,1,0,3:2:0:0:
509,133,163269,5,10,2:0:0:0:
300,38,163431,1,0,3:2:0:0:
417,232,163592,1,10,2:0:0:0:
497,19,163753,1,0,3:2:0:0:
322,164,163914,5,14,2:0:0:0:
189,12,164076,1,8,2:0:0:0:
189,12,164156,1,8,2:0:0:0:
189,12,164237,2,0,L|183:62,1,43.75,10|8,2:0|2:0,2:0:0:0:
221,244,164398,2,0,L|226:200,1,43.75,8|8,2:0|2:0,2:0:0:0:
106,121,164560,1,10,2:0:0:0:
64,132,164640,1,8,2:0:0:0:
30,159,164721,1,8,2:0:0:0:
10,197,164802,1,8,2:0:0:0:
8,241,164882,1,10,2:0:0:0:
23,281,164963,1,8,2:0:0:0:
54,312,165043,6,0,B|92:310|92:310|110:301|110:301|158:298,1,87.5,10|0,2:0|2:0,2:0:0:0:
343,194,165366,1,10,2:0:0:0:
177,116,165527,6,0,B|174:156|202:179|202:179|173:217|173:217|223:227|255:268|259:344|202:376,1,315,10|8,2:0|2:0,2:0:0:0:
343,228,166334,6,0,P|396:215|431:228,1,87.5000000000001,6|0,3:2|2:0,2:0:0:0:
303,373,166656,1,0,3:2:0:0:
194,213,166818,2,0,P|201:154|205:123,1,87.5000000000001,8|0,2:0|2:0,2:0:0:0:
359,12,167140,1,0,3:2:0:0:
169,50,167302,1,2,3:2:0:0:
328,157,167463,1,10,2:0:0:0:
149,227,167624,6,0,B|52:223|95:171|-21:175,1,175,2|2,3:2|3:2,2:0:0:0:
134,50,168108,1,10,2:0:0:0:
257,197,168269,2,0,P|264:257|189:336,1,175,2|2,3:2|3:2,2:0:0:0:
137,149,168753,1,10,2:0:0:0:
308,61,168914,5,2,3:2:0:0:
308,61,168995,1,0,3:2:0:0:
308,61,169076,2,0,B|358:74|358:74|392:63|392:63|439:74,1,131.25,2|0,3:2|2:0,2:0:0:0:
485,130,169398,2,0,P|496:174|474:213,1,87.5000000000001,10|2,2:0|2:0,2:0:0:0:
293,268,169721,1,2,3:2:0:0:
474,330,169882,1,2,3:2:0:0:
364,172,170043,1,8,2:0:0:0:
262,336,170205,6,0,P|197:346|155:355,1,87.5000000000001,6|0,3:2|2:0,2:0:0:0:
65,192,170527,1,2,3:2:0:0:
250,245,170689,1,8,2:0:0:0:
191,62,170850,2,0,B|165:98|165:98|177:145,1,87.5000000000001,6|0,3:2|2:0,2:0:0:0:
360,197,171173,1,0,3:2:0:0:
184,275,171334,1,8,2:0:0:0:
290,100,171495,5,2,3:2:0:0:
290,100,171576,1,2,3:2:0:0:
290,100,171656,2,0,P|351:110|395:114,1,87.5000000000001,6|0,3:2|2:0,2:0:0:0:
494,266,171979,1,8,2:0:0:0:
307,312,172140,2,0,P|302:259|318:227,1,87.5000000000001,2|0,2:0|3:2,2:0:0:0:
464,104,172463,1,2,3:2:0:0:
391,282,172624,1,8,2:0:0:0:
250,150,172785,6,0,P|184:120|79:153,1,175,6|2,3:2|3:2,2:0:0:0:
159,324,173269,2,0,P|177:277|167:238,1,87.5000000000001,10|0,2:0|3:2,2:0:0:0:
22,94,173592,2,0,P|4:141|14:180,1,87.5000000000001,2|0,2:0|3:2,2:0:0:0:
83,354,173914,2,0,B|180:332|180:332|219:368,1,131.25,10|0,2:0|3:2,2:0:0:0:
281,362,174237,6,0,P|286:316|292:273,1,87.5000000000001,2|0,3:2|3:2,2:0:0:0:
164,129,174560,1,8,2:0:0:0:
331,34,174721,2,0,B|431:8|405:82|499:49,1,175,2|10,3:2|3:2,2:0:0:0:
353,211,175205,1,10,2:0:0:0:
154,107,175366,6,0,B|41:84|41:84|91:146,1,175,14|10,3:2|2:0,2:0:0:0:
215,267,175850,1,10,2:0:0:0:
249,37,176011,5,10,2:0:0:0:
249,37,176092,1,2,3:2:0:0:
249,37,176173,2,0,B|212:12|212:12|168:21,1,87.5000000000001,10|0,2:0|2:0,2:0:0:0:
329,239,176495,2,0,B|366:264|366:264|407:255,1,87.5000000000001,10|0,2:0|2:0,2:0:0:0:
510,92,176818,6,0,B|438:92|438:92|410:115|410:115|333:119,1,175,6|8,3:2|2:0,2:0:0:0:
158,200,177302,1,2,3:2:0:0:
123,225,177382,1,2,0:2:0:0:
112,267,177463,1,10,0:2:0:0:
125,308,177543,1,2,0:2:0:0:
158,336,177624,2,0,L|219:326,1,43.75,2|2,3:2|0:2,0:0:0:0:
294,203,177785,2,0,L|233:193,1,43.75,10|2,0:2|0:2,0:0:0:0:
29,145,177947,6,0,P|22:92|37:53,1,87.5000000000001,2|2,3:2|2:0,2:0:0:0:
214,11,178269,1,2,0:2:0:0:
231,51,178350,1,2,0:2:0:0:
232,94,178431,1,10,0:2:0:0:
203,127,178511,1,2,0:2:0:0:
163,146,178592,1,2,3:2:0:0:
140,183,178673,1,2,0:2:0:0:
147,225,178753,1,10,0:2:0:0:
393,139,178914,2,0,B|352:121|352:121|304:128,1,87.5,2|8,3:0|0:0,0:0:0:0:
237,321,179237,5,2,3:2:0:0:
237,321,179318,1,0,3:2:0:0:
237,321,179398,2,0,P|305:330|336:335,1,87.5000000000001,6|0,3:2|3:2,2:0:0:0:
499,160,179721,1,10,2:0:0:0:
261,219,179882,1,2,3:2:0:0:
490,330,180043,5,10,2:0:0:0:
409,52,180205,1,10,2:0:0:0:
313,311,180366,1,10,2:0:0:0:
239,48,180527,6,0,B|196:35|196:35|152:55,1,87.5000000000001,6|0,3:2|2:0,2:0:0:0:
315,288,180850,2,0,B|358:301|358:301|402:281,1,87.5000000000001,6|2,3:2|2:0,2:0:0:0:
265,175,181173,1,6,3:2:0:0:
148,349,181334,5,8,2:0:0:0:
148,349,181441,2,0,P|109:362|61:348,1,58.3333333333334,8|0,2:0|3:2,2:0:0:0:
65,227,181656,1,0,3:2:0:0:
65,227,181764,2,0,P|104:214|152:228,1,58.3333333333334,0|0,3:2|3:2,2:0:0:0:
230,274,181979,6,0,B|220:204|220:204|237:174|237:174|223:81,1,175,6|0,3:2|3:2,2:0:0:0:
108,288,182463,1,2,2:0:0:0:
304,358,182624,2,0,B|401:330|401:330|434:297|426:258,1,175,8|2,2:0|3:2,2:0:0:0:
272,181,183108,1,0,3:2:0:0:
407,70,183269,6,0,P|459:80|497:86,1,87.5000000000001,2|8,2:0|2:0,2:0:0:0:
289,195,183592,1,0,3:2:0:0:
256,23,183753,1,2,3:2:0:0:
133,146,183914,1,10,2:0:0:0:
302,99,184076,1,2,3:2:0:0:
240,262,184237,2,0,P|194:273|156:254,1,87.5000000000001,0|2,3:2|2:0,2:0:0:0:
59,112,184560,5,4,3:2:0:0:
59,112,184882,1,0,3:2:0:0:
102,318,185043,1,8,3:2:0:0:
219,80,185205,1,8,2:0:0:0:
15,215,185366,1,8,2:0:0:0:
269,278,185527,1,8,2:0:0:0:
139,38,185689,6,0,B|118:159|118:159|138:137|175:118,1,175,14|0,3:2|3:2,2:0:0:0:
207,314,186173,2,0,P|153:322|111:306,1,87.5000000000001,8|2,2:0|3:2,2:0:0:0:
268,187,186495,1,8,2:0:0:0:
268,187,186576,1,8,2:0:0:0:
268,187,186656,2,0,L|274:237,1,43.7500000000001,8|8,2:0|2:0,2:0:0:0:
297,353,186818,1,8,2:0:0:0:
329,354,186898,1,8,2:0:0:0:
362,355,186979,1,8,2:0:0:0:
395,357,187060,1,8,2:0:0:0:
428,358,187140,6,0,P|461:302|441:211,1,144.375,4|0,3:2|2:0,2:0:0:0:
388,180,187463,2,0,P|311:191|280:196,1,96.25,10|0,2:0|3:2,2:0:0:0:
138,22,187785,1,10,2:0:0:0:
355,103,187947,1,0,3:2:0:0:
146,202,188108,1,10,2:0:0:0:
268,9,188269,5,0,3:2:0:0:
268,9,188350,1,0,3:2:0:0:
268,9,188431,2,0,P|285:59|265:106,1,96.25,10|0,2:0|3:2,2:0:0:0:
57,184,188753,2,0,P|40:134|60:87,1,96.25,10|0,2:0|3:2,2:0:0:0:
235,239,189076,1,10,2:0:0:0:
15,310,189237,1,0,3:2:0:0:
146,120,189398,1,10,2:0:0:0:
231,335,189560,5,0,3:2:0:0:
231,335,189640,1,0,3:2:0:0:
231,335,189721,2,0,P|331:326|439:319,1,192.5,10|8,2:0|2:0,2:0:0:0:
346,100,190205,2,0,B|304:78|304:78|253:99,1,96.25,2|8,3:2|2:0,2:0:0:0:
445,232,190527,1,2,3:2:0:0:
498,6,190689,1,8,2:0:0:0:
297,170,190850,6,0,P|261:254|321:353,1,192.5,6|0,3:2|3:2,2:0:0:0:
436,151,191334,1,8,2:0:0:0:
235,37,191495,2,0,B|158:44|158:44|127:74|127:74|44:81,1,192.5,6|0,3:2|3:2,2:0:0:0:
61,88,191898,1,0,3:2:0:0:
61,88,191979,2,0,P|41:139|58:179,1,96.25,8|0,2:0|3:2,2:0:0:0:
266,270,192302,6,0,B|168:254|168:254|139:274|135:300,1,144.375,4|0,3:2|2:0,2:0:0:0:
169,359,192624,2,0,P|219:352|270:345,1,96.25,10|0,2:0|3:2,2:0:0:0:
393,153,192947,1,10,2:0:0:0:
354,380,193108,1,0,3:2:0:0:
227,117,193269,1,10,2:0:0:0:
178,343,193431,1,0,3:2:0:0:
379,134,193592,6,0,P|431:121|480:138,1,96.25,10|0,2:0|3:2,2:0:0:0:
348,327,193914,2,0,P|343:277|336:198,1,96.25,10|0,2:0|3:2,2:0:0:0:
189,98,194237,2,0,L|182:161,1,48.125,10|8,2:0|2:0,2:0:0:0:
248,255,194398,2,0,L|253:207,1,48.125,8|8,2:0|2:0,2:0:0:0:
91,142,194560,2,0,B|60:183|60:183|83:232,1,96.25,10|0,2:0|3:2,2:0:0:0:
285,121,194882,5,6,3:2:0:0:
157,313,195043,1,0,3:2:0:0:
154,80,195205,1,8,2:0:0:0:
273,276,195366,2,0,P|352:269|396:265,1,96.25,2|0,3:2|2:0,2:0:0:0:
484,66,195689,1,2,3:2:0:0:
275,165,195850,1,8,2:0:0:0:
421,342,196011,6,0,P|454:300|409:182,1,192.5,6|8,3:2|2:0,2:0:0:0:
409,182,196414,1,8,2:0:0:0:
409,182,196495,1,0,3:2:0:0:
189,251,196656,1,0,3:2:0:0:
321,347,196818,1,8,2:0:0:0:
321,347,196898,1,8,2:0:0:0:
321,347,196979,2,0,L|335:283,1,48.125,0|0,3:2|3:2,2:0:0:0:
249,161,197140,2,0,P|195:170|148:178,1,96.25,10|2,2:0|3:2,2:0:0:0:
15,41,197463,5,6,3:2:0:0:
202,82,197624,1,0,3:2:0:0:
75,240,197785,2,0,P|54:177|65:147,1,96.25,10|2,2:0|2:0,2:0:0:0:
228,250,198108,1,0,3:2:0:0:
76,367,198269,1,0,3:2:0:0:
153,189,198431,1,10,2:0:0:0:
284,329,198592,1,10,2:0:0:0:
369,156,198753,5,2,3:2:0:0:
212,267,198914,1,0,3:2:0:0:
380,361,199076,2,0,B|399:315|399:315|381:271,1,96.25,10|10,2:0|2:0,2:0:0:0:
236,145,199398,1,0,3:2:0:0:
423,97,199560,1,0,3:2:0:0:
280,247,199721,2,0,P|208:238|176:234,1,96.25,10|2,2:0|2:0,2:0:0:0:
71,79,200043,6,0,B|189:57|189:57|233:90|208:150,1,192.5,2|10,3:2|2:0,2:0:0:0:
104,277,200527,2,0,P|95:218|124:177,1,96.25,10|0,2:0|3:2,2:0:0:0:
301,150,200850,1,0,3:2:0:0:
226,327,201011,2,0,P|212:254|206:218,1,96.25,10|2,2:0|2:0,2:0:0:0:
368,110,201334,5,2,3:2:0:0:
177,74,201495,1,0,3:2:0:0:
297,223,201656,1,10,2:0:0:0:
463,124,201818,2,0,B|475:78|475:78|458:29,1,96.25,10|0,2:0|3:2,2:0:0:0:
307,242,202140,1,8,2:0:0:0:
307,242,202221,1,8,2:0:0:0:
307,242,202302,2,0,L|361:253,1,48.125,10|8,2:0|2:0,2:0:0:0:
498,210,202463,2,0,L|444:199,1,48.125,10|8,2:0|2:0,2:0:0:0:
225,143,202624,5,10,2:3:0:0:
284,365,202785,1,8,2:3:0:0:
62,300,202947,2,0,P|46:243|64:194,1,105,12|2,2:0|2:0,2:0:0:0:
290,69,203269,5,10,2:3:0:0:
204,307,203431,1,8,2:3:0:0:
445,235,203592,2,0,B|466:182|466:182|446:128,1,105,12|0,2:0|2:0,2:0:0:0:
217,39,203914,5,10,2:3:0:0:
315,272,204076,1,8,2:3:0:0:
103,135,204237,2,0,P|12:143|-14:145,1,105,12|0,2:0|2:0,2:0:0:0:
312,16,204560,5,10,3:0:0:0:
189,235,204721,1,8,3:0:0:0:
412,276,204882,2,0,B|463:274|463:274|486:253|486:253|533:253,1,122.5,12|0,2:0|3:2,2:0:0:0:
318,149,205205,5,14,3:2:0:0:
234,363,205366,1,0,3:2:0:0:
399,202,205527,1,0,3:2:0:0:
167,207,205689,1,12,2:0:0:0:
318,32,205850,1,0,3:2:0:0:
284,260,206011,1,0,3:2:0:0:
186,49,206173,1,8,2:0:0:0:
106,265,206334,6,0,P|47:272|7:244,1,96.25,4|0,3:2|2:0,2:0:0:0:
162,75,206656,1,0,3:2:0:0:
275,277,206818,2,0,P|263:343|258:380,1,96.25,8|0,2:0|3:2,2:0:0:0:
158,164,207140,1,8,2:0:0:0:
158,164,207221,1,8,2:0:0:0:
158,164,207302,2,0,L|213:154,1,48.125,0|0,3:2|3:2,2:0:0:0:
391,209,207463,2,0,L|343:217,1,48.125,0|0,3:2|3:2,2:0:0:0:
294,31,207624,2,0,L|298:84,1,48.125,0|0,3:2|3:2,2:0:0:0:
231,281,207785,5,14,2:0:0:0:
231,281,208108,1,10,2:0:0:0:
510,152,208269,1,8,3:2:0:0:
212,65,208431,1,10,2:0:0:0:
403,305,208592,1,8,3:2:0:0:
383,11,208753,1,10,2:0:0:0:
151,213,208914,6,0,B|130:256|130:256|144:309,1,96.25,14|0,3:2|2:0,2:0:0:0:
384,110,209237,1,10,2:0:0:0:
58,24,209398,1,14,2:0:0:0:
259,384,210366,5,6,3:2:0:0:
457,337,213592,6,0,L|392:330,1,48.125,10|8,3:2|3:2,2:0:0:0:
270,264,213753,2,0,L|335:257,1,48.125,2|0,3:2|3:2,2:0:0:0:
443,192,213914,2,0,L|378:185,1,48.125,2|0,3:2|3:2,2:0:0:0:
307,113,214076,6,0,P|296:69|311:21,1,87.5,6|0,3:2|2:0,2:0:0:0:
179,217,214398,2,0,P|190:261|175:309,1,87.5,6|0,3:2|2:0,2:0:0:0:
13,144,214721,2,0,P|98:136|130:134,1,87.5,6|0,3:2|3:2,2:0:0:0:
317,27,215043,1,6,3:2:0:0:
317,27,215124,1,0,3:2:0:0:
317,27,215205,2,0,B|212:9|212:9|178:27|174:65,1,170.625,12|0,2:0|2:0,2:0:0:0:
228,115,215527,6,0,P|253:159|235:212,1,96.25,4|0,3:2|2:0,2:0:0:0:
34,341,215850,2,0,P|9:297|27:244,1,96.25,8|0,2:0|2:0,2:0:0:0:
266,296,216173,1,2,3:2:0:0:
69,141,216334,1,0,3:2:0:0:
176,366,216495,1,10,2:0:0:0:
350,187,216656,6,0,P|441:200|473:205,1,96.25,2|0,3:2|2:0,2:0:0:0:
255,35,216979,1,0,3:2:0:0:
210,280,217140,2,0,P|270:310|318:310,1,96.25,10|0,2:0|3:2,2:0:0:0:
369,71,217463,1,2,2:0:0:0:
134,158,217624,1,0,3:2:0:0:
364,254,217785,2,0,B|383:212|383:212|364:160,1,96.25,10|0,2:0|2:0,2:0:0:0:
140,52,218108,5,2,3:2:0:0:
385,8,218269,1,0,3:2:0:0:
211,190,218431,1,10,2:0:0:0:
452,125,218592,1,0,3:2:0:0:
227,15,218753,1,10,2:0:0:0:
337,239,218914,1,0,3:2:0:0:
99,155,219076,1,10,2:0:0:0:
312,36,219237,6,0,B|369:3|369:3|340:152,1,192.5,6|8,3:2|2:0,2:0:0:0:
228,236,219721,6,0,L|234:188,1,48.125,2|0,3:2|3:2,2:0:0:0:
453,162,219882,2,0,L|446:209,1,48.125,0|0,3:2|3:2,2:0:0:0:
319,368,220043,6,0,P|298:307|400:291,1,183.75,10|0,2:0|0:2,2:0:0:0:
396,361,220366,6,0,B|323:343|323:343|269:375|269:375|192:380|174:288,1,249.375,10|0,2:0|0:2,2:0:0:0:
211,245,220689,6,0,B|229:178|229:178|202:154|159:170,1,131.25,2|0,3:2|2:0,2:0:0:0:
160,187,221011,6,0,B|236:189|236:189|274:162|274:162|373:162,1,183.75,12|0,3:2|2:0,2:0:0:0:
335,162,221334,1,0,3:2:0:0:
118,37,221495,1,0,3:2:0:0:
222,263,221656,1,10,2:0:0:0:
365,56,221818,6,0,P|413:40|465:58,1,96.25,2|0,3:2|2:0,2:0:0:0:
345,276,222140,1,2,3:2:0:0:
206,66,222302,1,8,3:2:0:0:
433,169,222463,2,0,P|431:238|430:278,1,96.25,2|0,3:2|2:0,2:0:0:0:
193,184,222785,1,2,3:2:0:0:
367,365,222947,1,8,2:0:0:0:
303,123,223108,1,2,2:0:0:0:
147,318,223269,6,0,B|99:332|99:332|48:309,1,96.25,0|0,3:2|3:2,2:0:0:0:
212,117,223592,2,0,B|260:103|260:103|311:126,1,96.25,12|0,2:0|2:0,2:0:0:0:
370,362,223914,1,2,3:2:0:0:
158,226,224076,1,0,3:2:0:0:
395,148,224237,1,10,2:0:0:0:
262,360,224398,6,0,B|302:305|302:305|248:177,1,192.5,6|2,3:2|3:2,2:0:0:0:
488,101,224882,1,8,2:0:0:0:
253,14,225043,2,0,P|225:61|233:105,1,96.25,6|0,3:2|2:0,2:0:0:0:
458,206,225366,1,2,3:2:0:0:
458,206,225447,1,0,3:2:0:0:
458,206,225527,1,8,2:0:0:0:
215,271,225689,1,10,2:0:0:0:
370,75,225850,6,0,P|453:89|484:95,1,96.25,4|0,3:2|2:0,2:0:0:0:
235,247,226173,2,0,P|152:233|121:227,1,96.25,8|0,2:0|3:2,2:0:0:0:
10,17,226495,1,2,3:2:0:0:
233,127,226656,1,0,3:2:0:0:
26,269,226818,1,8,2:0:0:0:
178,57,226979,6,0,P|236:40|272:50,1,96.25,2|0,3:2|2:0,2:0:0:0:
246,305,227302,1,0,3:2:0:0:
246,305,227382,1,0,3:2:0:0:
246,305,227463,2,0,P|234:235|229:199,1,96.25,8|0,2:0|3:2,2:0:0:0:
415,41,227785,1,2,3:2:0:0:
184,142,227947,1,0,3:2:0:0:
426,202,228108,1,8,2:0:0:0:
202,312,228269,1,2,3:2:0:0:
444,377,228431,6,0,B|466:331|466:331|449:279,1,96.25,4|0,3:2|3:2,2:0:0:0:
236,162,228753,1,8,2:0:0:0:
341,381,228914,1,0,3:2:0:0:
383,133,229076,1,10,2:0:0:0:
190,291,229237,1,0,3:2:0:0:
196,41,229398,1,10,2:0:0:0:
331,252,229560,6,0,B|373:242|373:242|390:253|390:253|433:245,1,96.25,6|0,3:2|2:0,2:0:0:0:
194,143,229882,1,8,2:0:0:0:
194,143,229963,1,8,2:0:0:0:
194,143,230043,2,0,L|184:197,1,48.125,10|8,2:0|2:0,2:0:0:0:
263,378,230205,2,0,L|271:330,1,48.125,0|0,3:2|3:2,2:0:0:0:
86,178,230366,6,0,P|21:187|7:260,1,144.375,10|0,2:0|3:2,2:0:0:0:
76,294,230689,2,0,P|129:285|188:277,1,96.25,10|0,2:0|3:2,2:0:0:0:
240,318,230931,1,0,3:2:0:0:
240,318,231011,2,0,L|229:364,1,43.75,10|0,2:0|3:2,2:0:0:0:
168,190,231173,2,0,L|179:144,1,43.75,0|0,3:2|3:2,2:0:0:0:
299,27,231334,6,0,B|416:9|416:9|468:42|446:101,1,192.5,12|0,2:0|3:2,2:0:0:0:
249,215,231818,1,0,3:2:0:0:
483,305,231979,1,10,2:0:0:0:
347,94,232140,6,0,B|365:139|365:139|333:211,1,96.25,2|0,3:2|2:0,2:0:0:0:
156,348,232463,1,2,3:2:0:0:
392,267,232624,1,8,3:2:0:0:
175,143,232785,2,0,P|95:155|50:161,1,96.25,2|0,3:2|2:0,2:0:0:0:
247,344,233108,1,2,3:2:0:0:
247,344,233189,1,0,3:2:0:0:
247,344,233269,2,0,P|262:293|244:244,1,96.25,8|2,2:0|2:0,2:0:0:0:
137,28,233592,5,0,3:2:0:0:
36,256,233753,1,0,3:2:0:0:
234,104,233914,2,0,P|305:114|339:119,1,96.25,8|0,2:0|2:0,2:0:0:0:
126,265,234237,1,2,3:2:0:0:
45,28,234398,1,0,3:2:0:0:
241,185,234560,1,10,2:0:0:0:
66,364,234721,6,0,P|24:313|77:177,1,192.5,6|2,3:2|3:2,2:0:0:0:
274,87,235205,1,8,2:0:0:0:
186,320,235366,2,0,P|168:245|162:214,1,96.25,6|0,3:2|2:0,2:0:0:0:
383,104,235689,1,2,3:2:0:0:
143,31,235850,1,8,2:0:0:0:
306,219,236011,5,10,2:0:0:0:
306,219,236092,1,8,2:0:0:0:
306,219,236173,2,0,P|370:235|446:192,1,144.375,4|0,3:2|2:0,2:0:0:0:
472,132,236495,2,0,P|464:85|456:37,1,96.25,8|0,2:0|2:0,2:0:0:0:
238,163,236818,1,2,3:2:0:0:
445,302,236979,1,0,3:2:0:0:
340,75,237140,1,10,2:0:0:0:
215,293,237302,6,0,B|168:312|168:312|122:289,1,96.25,2|0,3:2|2:0,2:0:0:0:
9,71,237624,1,0,3:2:0:0:
231,183,237785,1,10,2:0:0:0:
11,305,237947,1,0,3:2:0:0:
259,280,238108,1,10,2:0:0:0:
40,176,238269,1,0,3:2:0:0:
264,65,238431,2,0,P|252:139|247:176,1,96.25,10|0,2:0|3:2,2:0:0:0:
429,332,238753,5,14,3:2:0:0:
390,85,238914,1,0,3:2:0:0:
237,284,239076,1,10,2:0:0:0:
474,190,239237,1,0,3:2:0:0:
240,102,239398,1,10,2:0:0:0:
331,335,239560,1,0,3:2:0:0:
97,245,239721,1,10,2:0:0:0:
335,169,239882,6,0,B|354:123|354:123|335:63,1,96.25,6|0,3:2|2:0,2:0:0:0:
91,38,240205,1,0,3:2:0:0:
91,38,240285,1,0,3:2:0:0:
91,38,240366,1,2,3:2:0:0:
246,233,240527,2,0,L|256:166,1,48.125,2|2,3:2|2:0,2:0:0:0:
105,139,240689,6,0,P|61:119|5:140,1,96.25,10|0,2:0|3:2,2:0:0:0:
8,219,240931,1,0,3:2:0:0:
8,219,241011,2,0,P|52:239|108:218,1,96.25,10|0,2:0|3:2,2:0:0:0:
179,184,241253,5,0,3:2:0:0:
179,184,241334,2,0,L|182:126,1,52.5,2|0,3:2|3:2,2:0:0:0:
237,306,241495,2,0,L|234:364,1,52.5,0|0,3:2|3:2,2:0:0:0:
355,220,241656,6,0,B|401:227|401:227|413:242|413:242|471:248,1,105,12|0,2:0|3:2,2:0:0:0:
271,44,241979,1,8,2:0:0:0:
210,306,242140,1,0,3:2:0:0:
416,131,242302,1,10,2:0:0:0:
147,113,242463,1,2,3:2:0:0:
366,268,242624,5,8,2:0:0:0:
317,3,242785,1,2,3:2:0:0:
211,280,242947,1,8,2:0:0:0:
162,9,243108,1,2,3:2:0:0:
398,137,243269,5,8,2:0:0:0:
188,308,243431,1,2,3:2:0:0:
248,45,243592,1,8,2:0:0:0:
331,300,243753,6,0,P|384:315|438:298,1,96.25,14|0,3:2|2:0,2:0:0:0:
498,46,244076,1,8,2:0:0:0:
256,163,244237,1,8,2:0:0:0:
504,267,244398,1,8,2:0:0:0:
371,31,244560,1,8,2:0:0:0:
371,31,244640,1,8,2:0:0:0:
371,31,244721,2,0,L|359:91,1,48.125,8|8,2:0|2:0,2:0:0:0:
321,267,244882,1,10,2:0:0:0:
173,71,245043,6,0,B|130:58|130:58|78:73,1,87.5,10|0,3:2|2:0,2:0:0:0:
310,284,245366,2,0,B|353:297|353:297|405:282,1,87.5,10|0,3:2|2:0,2:0:0:0:
136,193,245689,2,0,B|104:306|104:306|123:345|147:349,1,175,10|2,3:2|3:2,2:0:0:0:
326,185,246173,2,0,P|256:167|218:158,1,87.5,8|2,3:2|3:2,2:0:0:0:
25,278,246495,6,0,P|94:303|166:242,1,144.375,6|0,3:2|2:0,2:0:0:0:
163,192,246818,2,0,P|156:126|152:90,1,96.25,8|0,2:0|3:2,2:0:0:0:
323,279,247140,1,2,3:2:0:0:
74,184,247302,1,0,3:2:0:0:
304,87,247463,1,10,2:0:0:0:
154,286,247624,6,0,P|139:340|157:381,1,96.25,2|0,3:2|2:0,2:0:0:0:
375,259,247947,1,0,3:2:0:0:
180,102,248108,2,0,P|106:113|70:118,1,96.25,10|0,2:0|3:2,2:0:0:0:
269,286,248431,1,2,3:2:0:0:
352,50,248592,1,0,3:2:0:0:
500,206,248753,2,0,B|519:251|519:251|500:298,1,96.25,10|0,2:0|3:2,2:0:0:0:
289,159,249076,5,6,3:2:0:0:
506,35,249237,1,0,3:2:0:0:
395,258,249398,1,10,2:0:0:0:
385,6,249560,1,0,3:2:0:0:
206,181,249721,1,10,2:0:0:0:
206,181,249802,1,0,3:2:0:0:
206,181,249882,2,0,L|201:111,1,48.125,0|0,3:2|3:2,2:0:0:0:
373,93,250043,2,0,L|369:141,1,48.125,10|0,3:2|3:2,2:0:0:0:
217,274,250205,6,0,B|114:272|160:211|36:215,1,192.5,6|8,3:2|2:0,2:0:0:0:
286,164,250689,1,8,2:0:0:0:
145,370,250850,1,8,2:0:0:0:
41,142,251011,1,8,3:2:0:0:
41,142,251092,1,8,2:0:0:0:
41,142,251173,2,0,L|99:133,1,48.125,8|8,2:0|2:0,2:0:0:0:
205,259,251334,2,0,L|157:266,1,48.125,8|8,3:2|2:0,2:0:0:0:
244,80,251495,1,0,3:2:0:0:
327,291,251656,6,0,P|387:310|431:295,1,87.5,14|2,2:0|3:2,2:0:0:0:
279,110,251979,1,10,2:0:0:0:
194,330,252140,1,2,3:2:0:0:
387,204,252302,1,10,2:0:0:0:
155,136,252463,1,2,3:2:0:0:
370,30,252624,1,8,2:0:0:0:
257,234,252785,6,0,P|180:225|141:221,1,87.5,2|8,3:2|2:0,2:0:0:0:
11,54,253108,1,2,3:2:0:0:
72,288,253269,1,8,2:0:0:0:
204,91,253431,1,2,3:2:0:0:
204,91,253511,1,0,3:2:0:0:
204,91,253592,5,8,2:0:0:0:
0,201,253753,1,0,3:2:0:0:
203,322,253914,1,8,2:0:0:0:
75,124,254076,1,0,3:2:0:0:
287,47,254237,6,0,B|303:91|303:91|281:134,1,87.5,10|2,2:0|3:2,2:0:0:0:
74,284,254560,1,10,2:0:0:0:
342,237,254721,1,2,3:2:0:0:
342,237,254802,1,0,3:2:0:0:
342,237,254882,1,10,2:0:0:0:
123,114,255043,1,10,3:2:0:0:
237,372,255205,1,8,2:0:0:0:
369,147,255366,6,0,P|418:139|457:165,1,87.5,6|0,3:2|2:0,2:0:0:0:
229,217,255689,2,0,B|208:182|208:182|224:128,1,87.5,6|0,3:2|2:0,2:0:0:0:
349,273,256011,2,0,P|341:340|338:369,1,87.5,6|8,3:2|2:3,2:0:0:0:
338,359,256253,1,8,2:3:0:0:
338,359,256334,1,2,3:2:0:0:
244,152,256495,1,12,2:0:0:0:
173,304,256656,1,0,3:2:0:0:
173,304,256737,1,0,3:2:0:0:
173,304,256818,6,0,P|118:327|21:290,1,148.750000000001,6|0,3:2|2:0,2:0:0:0:
0,170,257302,1,2,3:2:0:0:
117,106,257463,2,0,P|124:150|114:183,1,74.3750000000003,8|0,2:0|2:0,2:0:0:0:
16,89,257785,2,0,P|9:45|19:12,1,74.3750000000003,2|0,2:0|2:0,2:0:0:0:
150,8,258108,5,2,3:2:0:0:
214,124,258269,2,0,P|281:119|307:118,1,74.3750000000003,8|0,2:0|3:2,2:0:0:0:
419,91,258592,1,2,3:2:0:0:
335,195,258753,1,10,2:0:0:0:
344,43,258914,1,0,3:2:0:0:
446,207,259076,1,2,2:0:0:0:
485,53,259237,1,2,3:2:0:0:
296,122,259398,5,4,3:2:0:0:
358,244,259560,1,0,2:0:0:0:
216,102,259721,5,8,2:0:0:0:
247,262,259882,1,0,3:2:0:0:
141,54,260043,5,8,2:0:0:0:
119,277,260205,1,0,3:2:0:0:
66,0,260366,5,10,2:0:0:0:
0,276,260527,1,10,3:2:0:0:
237,181,260689,5,10,2:0:0:0:
9,93,260850,1,8,3:2:0:0:
128,308,261011,1,10,2:0:0:0:
209,65,261173,1,10,2:0:0:0:
330,272,261334,1,8,2:0:0:0:
110,195,261495,1,8,2:0:0:0:
110,195,261576,1,8,2:0:0:0:
110,195,261656,2,0,L|167:182,1,45.9375000000001,10|8,2:0|2:0,2:0:0:0:
384,114,261818,1,10,2:0:0:0:
273,325,261979,6,0,P|250:280|260:231,1,91.8750000000002,6|0,3:2|3:2,2:0:0:0:
389,41,262302,1,8,2:0:0:0:
457,269,262463,2,0,P|389:262|353:258,1,91.8750000000002,6|0,3:2|2:0,2:0:0:0:
188,99,262785,1,10,3:2:0:0:
419,36,262947,1,8,3:2:0:0:
268,228,263108,6,0,B|231:202|231:202|183:207,1,91.8750000000002,14|0,3:2|2:0,2:0:0:0:
347,382,263431,1,0,3:2:0:0:
429,145,263592,1,8,2:0:0:0:
233,298,263753,1,0,3:2:0:0:
307,60,263914,1,8,2:0:0:0:
83,166,264076,1,2,3:2:0:0:
83,166,264156,1,0,3:2:0:0:
83,166,264237,2,0,L|97:223,1,45.9375000000001,10|0,2:0|3:2,2:0:0:0:
293,214,264398,2,0,L|279:157,1,45.9375000000001,2|0,3:2|3:2,2:0:0:0:
175,35,264560,5,6,3:2:0:0:
54,353,266979,5,0,3:2:0:0:
54,353,267060,1,0,3:2:0:0:
54,353,267140,2,0,B|95:350|95:350|106:343|106:343|146:338,1,91.8750000000002,14|0,3:2|3:2,2:0:0:0:
350,216,267463,1,8,2:0:0:0:
123,142,267624,1,0,3:2:0:0:
288,313,267785,5,8,2:0:0:0:
390,95,267947,1,0,3:2:0:0:
187,221,268108,1,10,2:0:0:0:
281,2,268269,1,0,3:2:0:0:
413,201,268431,5,10,2:0:0:0:
207,79,268592,1,0,3:2:0:0:
161,78,268673,1,0,3:2:0:0:
118,95,268753,1,10,2:0:0:0:
85,126,268834,1,8,2:0:0:0:
66,167,268914,1,10,2:0:0:0:
63,213,268995,1,8,2:0:0:0:
77,256,269076,5,8,2:0:0:0:
112,282,269156,1,8,2:0:0:0:
155,294,269237,1,8,2:0:0:0:
198,281,269318,1,8,2:0:0:0:
228,247,269398,1,10,2:0:0:0:
271,226,269479,1,8,2:0:0:0:
315,218,269560,1,10,2:0:0:0:
358,233,269640,1,8,2:0:0:0:
388,267,269721,6,0,P|336:243|354:148,1,137.8125,6|0,3:2|2:0,2:0:0:0:
397,125,270043,2,0,P|451:133|508:140,1,91.8750000000002,8|0,2:0|2:0,2:0:0:0:
321,21,270366,2,0,P|275:26|230:34,1,91.8750000000002,2|0,3:2|2:0,2:0:0:0:
104,193,270689,1,10,2:0:0:0:
293,124,270850,1,0,2:0:0:0:
126,9,271011,6,0,P|117:61|136:95,1,91.8750000000002,2|0,3:2|2:0,2:0:0:0:
284,231,271334,1,10,2:0:0:0:
83,256,271495,2,0,P|14:243|-11:237,1,91.8750000000002,2|0,2:0|3:2,2:0:0:0:
183,167,271818,1,2,2:0:0:0:
206,367,271979,1,8,2:0:0:0:
385,275,272140,1,2,3:2:0:0:
385,275,272221,1,0,3:2:0:0:
385,275,272302,6,0,B|401:230|401:230|382:187,1,91.8750000000002,4|0,3:2|2:0,2:0:0:0:
196,113,272624,2,0,B|180:158|180:158|199:201,1,91.8750000000002,8|0,2:0|2:0,2:0:0:0:
371,94,272947,1,8,3:2:0:0:
185,15,273108,1,10,3:2:0:0:
297,182,273269,1,10,2:0:0:0:
430,29,273431,6,0,P|377:8|328:19,1,91.8750000000002,6|0,3:2|2:0,2:0:0:0:
407,203,273753,2,0,P|460:224|509:213,1,91.8750000000002,2|8,3:2|2:0,2:0:0:0:
268,119,274076,2,0,B|189:132|189:132|167:156|167:156|80:178,1,183.75,6|2,3:2|3:2,2:0:0:0:
229,328,274560,2,0,P|238:261|243:228,1,91.8750000000002,8|0,2:0|2:0,2:0:0:0:
17,134,274882,5,6,3:2:0:0:
128,301,275043,1,0,3:2:0:0:
196,109,275205,1,10,2:0:0:0:
31,226,275366,1,2,3:2:0:0:
102,37,275527,1,10,2:0:0:0:
219,202,275689,1,10,2:0:0:0:
286,11,275850,1,10,2:0:0:0:
417,164,276011,6,0,P|436:111|426:71,1,91.8750000000002,6|0,3:2|2:0,2:0:0:0:
268,201,276334,1,8,2:3:0:0:
429,321,276495,2,0,P|481:311|525:306,1,91.8750000000002,2|4,2:0|2:3,2:0:0:0:
285,220,276818,2,0,P|233:210|189:205,1,91.8750000000002,2|0,2:0|3:2,2:0:0:0:
324,384,277140,1,2,3:2:0:0:
324,384,277463,6,0,B|352:264|352:264|330:296|297:309,1,183.75,6|0,3:2|3:2,2:0:0:0:
129,205,277947,1,0,3:2:0:0:
226,381,278108,1,8,2:0:0:0:
276,185,278269,1,8,2:0:0:0:
79,320,278431,1,8,2:0:0:0:
153,90,278592,1,8,2:0:0:0:
263,280,278753,5,10,2:0:0:0:
65,182,278914,1,8,2:0:0:0:
269,96,279076,1,8,2:0:0:0:
129,266,279237,1,8,2:0:0:0:
73,53,279398,1,10,2:0:0:0:
73,53,279479,1,8,2:0:0:0:
73,53,279560,2,0,L|62:117,1,45.9375000000001,8|8,2:0|2:0,2:0:0:0:
213,217,279721,2,0,L|205:171,1,45.9375000000001,8|8,2:0|2:0,2:0:0:0:
268,40,279882,6,0,B|363:96|443:43|443:43|340:23|278:145|280:268|362:307|440:279|486:249|486:230|498:158|458:119|407:158,1,721.875,6|0,3:2|2:0,2:0:0:0:
