osu file format v14

[General]
AudioFilename: audio.mp3
AudioLeadIn: 0
PreviewTime: 124156
Countdown: 0
SampleSet: Soft
StackLeniency: 0.7
Mode: 0
LetterboxInBreaks: 0
WidescreenStoryboard: 1

[Editor]
DistanceSpacing: 0.9
BeatDivisor: 4
GridSize: 4
TimelineZoom: 2.2

[Metadata]
Title:Soundscape
TitleUnicode:サウンドスケープ
Artist:TRUE
ArtistUnicode:TRUE
Creator:SkyFlame
Version:Easy
Source:響け!ユーフォニアム2
Tags:sound hibike euphonium season 2 opening full size anime -laura- akitoshi corinn kalibe kibbleru kowari meg iMage-- japanese OP ver. version female vocal pop jpop
BeatmapID:1699127
BeatmapSetID:534054

[Difficulty]
HPDrainRate:2.5
CircleSize:2.6
OverallDifficulty:2.5
ApproachRate:3.5
SliderMultiplier:0.999999999999999
SliderTickRate:1

[Events]
//Background and Video events
0,0,"background.jpg",0,0
//Break Periods
2,156373,159954
2,210366,212696
2,264760,265760
//Storyboard Layer 0 (Background)
//Storyboard Layer 1 (Fail)
//Storyboard Layer 2 (Pass)
//Storyboard Layer 3 (Foreground)
//Storyboard Layer 4 (Overlay)
//Storyboard Sound Samples

[TimingPoints]
44,322.58064516129,4,2,1,60,1,0
6495,-100,4,2,1,70,0,0
13592,-100,4,2,1,60,0,0
14237,-100,4,2,1,50,0,0
22301,-100,4,2,1,60,0,0
35527,-100,4,2,1,50,0,0
38592,-100,4,2,1,60,0,0
44237,-100,4,2,1,70,0,0
45931,-100,4,2,1,60,0,0
46011,-100,4,2,1,50,0,0
46092,-100,4,2,1,40,0,0
46173,-100,4,2,1,45,0,0
46253,-100,4,2,1,50,0,0
46333,-100,4,2,1,70,0,0
46710,-100,4,2,1,50,0,0
46925,-100,4,2,1,55,0,0
47140,-100,4,2,1,60,0,0
47355,-100,4,2,1,65,0,0
47570,-100,4,2,1,70,0,0
47785,-100,4,2,1,80,0,0
49076,-100,4,2,1,70,0,0
49398,-100,4,2,1,90,0,1
49640,-100,4,2,1,5,0,1
49721,-100,4,2,1,80,0,1
59398,-100,4,2,1,80,0,0
59721,-100,4,2,1,90,0,1
60043,-100,4,2,1,80,0,1
69640,-100,4,2,1,80,0,0
69721,-100,4,2,1,80,0,1
74882,-100,4,2,1,60,0,0
77463,-100,4,2,1,80,0,1
80043,-100,4,2,1,60,0,0
80366,-100,4,2,1,90,0,1
80527,-100,4,2,1,60,0,0
90366,-100,4,2,1,50,0,0
98430,-100,4,2,1,65,0,0
100365,-100,4,2,1,60,0,0
111656,-100,4,2,1,55,0,0
114721,-100,4,2,1,60,0,0
120366,-100,4,2,1,70,0,0
122060,-100,4,2,1,60,0,0
122140,-100,4,2,1,50,0,0
122221,-100,4,2,1,40,0,0
122302,-100,4,2,1,45,0,0
122382,-100,4,2,1,50,0,0
122462,-100,4,2,1,70,0,0
122839,-100,4,2,1,50,0,0
123054,-100,4,2,1,55,0,0
123269,-100,4,2,1,60,0,0
123484,-100,4,2,1,65,0,0
123699,-100,4,2,1,70,0,0
123914,-100,4,2,1,80,0,0
125205,-100,4,2,1,70,0,0
125527,-100,4,2,1,90,0,1
125769,-100,4,2,1,5,0,1
125850,-100,4,2,1,80,0,1
135527,-100,4,2,1,80,0,0
135850,-100,4,2,1,90,0,1
136172,-100,4,2,1,80,0,1
145769,-100,4,2,1,80,0,0
145850,-100,4,2,1,80,0,1
151011,-100,4,2,1,60,0,0
153592,-100,4,2,1,80,0,1
156173,-100,4,2,1,60,0,0
161334,-100,4,2,1,65,0,0
163914,-100,4,2,1,70,0,0
176818,-100,4,2,1,74,0,0
181979,-100,4,2,1,68,0,0
184560,-100,4,2,1,62,0,0
185689,-100,4,2,1,70,0,0
187140,-100,4,2,1,72,0,0
194882,-100,4,2,1,76,0,0
196494,-100,4,2,1,75,0,0
197463,-100,4,2,1,70,0,0
200043,-100,4,2,1,72,0,0
202624,-100,4,2,1,60,0,0
202947,-100,4,2,1,90,0,0
203269,-100,4,2,1,60,0,0
203592,-100,4,2,1,90,0,0
203914,-100,4,2,1,60,0,0
204237,-100,4,2,1,90,0,0
204559,-100,4,2,1,60,0,0
204882,-100,4,2,1,90,0,0
205205,-100,4,2,1,80,0,0
207785,-100,4,2,1,85,0,0
214076,-100,4,2,1,80,0,1
215447,-100,4,2,1,80,0,0
215527,-100,4,2,1,80,0,1
220689,-100,4,2,1,80,0,0
221011,-100,4,2,1,90,0,1
221253,-100,4,2,1,5,0,1
221334,-100,4,2,1,80,0,1
231011,-100,4,2,1,80,0,0
231334,-100,4,2,1,90,0,1
231656,-100,4,2,1,85,0,1
241334,-100,4,2,1,85,0,0
241656,-100,4,2,1,92,0,1
246495,-100,4,2,1,80,0,1
251576,-100,4,2,1,80,0,0
251656,-100,4,2,1,85,0,1
256818,-100,4,2,1,60,0,0
259398,-100,4,2,1,80,0,1
261979,-100,4,2,1,90,0,1
264560,-100,4,2,1,45,0,0
267140,-100,4,2,1,75,0,1
268431,-100,4,2,1,80,0,1
269721,-100,4,2,1,70,0,0
276011,-100,4,2,1,65,0,0
277463,-100,4,2,1,70,0,0
279882,-100,4,2,1,72,0,0
283914,-100,4,2,1,5,0,0

[Colours]
Combo1 : 138,104,155
Combo2 : 92,132,204
Combo3 : 231,200,109
Combo4 : 189,141,163

[HitObjects]
104,202,1334,6,0,L|316:178,1,200.05,14|10,2:0|2:0,2:0:0:0:
437,182,2463,2,0,P|428:231|417:288,1,100.18,10|10,2:0|2:0,2:0:0:0:
374,358,3108,2,0,L|183:335,1,150.27,10|10,2:0|2:0,2:0:0:0:
135,331,3914,6,0,P|84:245|131:133,1,200.05,10|10,2:0|2:0,2:0:0:0:
230,92,5043,2,0,P|279:101|336:111,1,100.18,10|10,2:0|2:0,2:0:0:0:
395,169,5689,2,0,B|425:209|425:209|412:317,1,150.27,10|10,2:0|2:0,2:0:0:0:
338,359,6495,6,0,L|125:330,1,200.05,6|2,3:2|3:2,2:0:0:0:
58,294,7463,1,10,2:0:0:0:
89,209,7785,2,0,L|77:38,1,150.27,2|2,3:2|2:0,2:0:0:0:
168,67,8592,1,2,2:0:0:0:
250,30,8914,6,0,L|441:-4,2,150.115,2|8|10,2:0|2:0|3:2,2:0:0:0:
199,105,10205,2,0,L|225:309,1,200.05,6|6,3:2|3:2,2:0:0:0:
298,354,11173,2,0,P|363:361|442:301,1,150.27,2|6,3:2|3:2,2:0:0:0:
475,238,11979,5,10,2:0:0:0:
419,167,12302,2,0,L|434:14,1,150.27,10|6,2:0|3:2,2:0:0:0:
308,68,13269,1,8,2:0:0:0:
225,31,13592,2,0,L|115:40,1,100.18,8|10,2:0|2:0,2:0:0:0:
58,99,14237,6,0,P|18:168|47:292,1,200.05,6|0,2:0|3:2,2:0:0:0:
97,350,15205,1,2,3:2:0:0:
172,301,15527,2,0,L|279:287,1,100.18,2|2,3:2|3:2,2:0:0:0:
351,329,16173,2,0,L|458:343,1,100.18,2|2,3:2|3:2,2:0:0:0:
509,273,16818,2,0,P|516:210|495:149,1,100.18,2|2,3:2|3:2,2:0:0:0:
455,101,17463,1,2,3:2:0:0:
368,125,17785,2,0,L|165:96,1,200.05,6|0,3:2|3:2,2:0:0:0:
80,105,18753,6,0,P|41:139|23:205,1,100.18,2|2,3:2|3:2,2:0:0:0:
78,254,19398,1,6,3:2:0:0:
248,195,20043,2,0,L|384:214,1,100.18,2|2,3:2|3:2,2:0:0:0:
416,268,20689,1,2,3:2:0:0:
487,102,21334,2,0,L|387:88,1,100.18,2|2,3:2|3:2,2:0:0:0:
303,120,21979,6,0,L|157:140,1,100.18,14|10,2:0|3:2,2:0:0:0:
116,111,22624,2,0,P|73:171|64:245,1,150.27,8|10,3:2|2:0,2:0:0:0:
109,323,23431,1,10,3:2:0:0:
236,278,23914,2,0,L|365:261,1,100.18,6|14,2:0|2:0,2:0:0:0:
423,282,24560,6,0,P|469:191|434:82,1,200.05,6|0,3:2|3:2,2:0:0:0:
368,56,25527,1,10,2:0:0:0:
296,110,25850,2,0,L|175:97,1,100.18,2|10,3:2|2:0,2:0:0:0:
117,56,26495,2,0,P|58:101|44:148,1,100.18,2|10,3:2|2:0,2:0:0:0:
20,208,27140,2,0,L|35:329,1,100.18,2|10,3:2|2:0,2:0:0:0:
104,361,27785,1,2,3:2:0:0:
175,306,28108,2,0,L|392:281,1,200.05,14|8,2:0|2:0,2:0:0:0:
455,245,29076,6,0,P|474:187|446:124,1,100.18,2|10,3:2|2:0,2:0:0:0:
421,72,29721,1,6,3:2:0:0:
333,92,30043,1,8,2:0:0:0:
252,51,30366,2,0,L|149:46,1,100.18,2|10,3:2|2:0,2:0:0:0:
80,100,31011,1,2,3:2:0:0:
118,181,31334,1,8,2:0:0:0:
77,261,31656,2,0,P|71:318|94:371,1,100.18,2|10,3:2|2:0,2:0:0:0:
175,362,32302,6,0,L|310:338,1,100.18,6|10,3:2|2:0,2:0:0:0:
355,306,32947,2,0,P|370:248|323:137,1,150.27,0|6,3:2|3:2,2:0:0:0:
267,118,33753,1,8,2:3:0:0:
193,170,34076,2,0,L|32:154,1,150.27,4|8,3:2|2:3,2:0:0:0:
0,76,34882,1,4,3:2:0:0:
169,16,35527,6,0,L|324:31,1,150.27,10|2,2:0|3:2,2:0:0:0:
412,127,36495,1,2,3:2:0:0:
383,212,36818,2,0,P|388:257|400:330,1,100.18,10|2,2:0|3:2,2:0:0:0:
322,362,37463,6,0,L|103:342,1,200.05,4|10,3:2|3:2,2:0:0:0:
25,249,38592,2,0,P|7:202|10:152,1,100.18,14|10,2:0|3:2,2:0:0:0:
63,80,39237,2,0,L|243:58,1,150.27,14|8,3:2|2:3,2:0:0:0:
288,109,40043,1,4,3:2:0:0:
371,74,40366,5,10,2:0:0:0:
441,130,40689,2,0,L|456:250,1,100.18,2|10,3:2|2:0,2:0:0:0:
410,308,41334,1,6,3:2:0:0:
321,292,41656,1,10,2:0:0:0:
240,332,41979,2,0,P|174:333|114:311,1,100.18,2|10,3:2|2:0,2:0:0:0:
72,266,42624,2,0,L|55:138,1,100.18,6|8,3:2|2:0,2:0:0:0:
76,78,43269,2,0,P|142:45|248:78,1,150.27,10|6,2:0|3:2,2:0:0:0:
319,142,44237,5,10,2:0:0:0:
264,213,44560,2,0,L|252:326,1,100.18,10|10,2:0|2:0,2:0:0:0:
176,358,45205,1,8,2:0:0:0:
100,308,45527,1,10,2:0:0:0:
18,346,45850,2,0,L|-3:153,1,150.27,6|14,2:3|2:0,2:0:0:0:
256,192,46495,12,14,47785,2:0:0:0:
434,178,49076,5,10,2:0:0:0:
377,247,49398,2,0,L|127:269,1,250.14,12|2,3:2|3:2,2:0:0:0:
68,336,50527,1,2,3:2:0:0:
0,277,50850,2,0,L|18:146,1,100.18,2|2,3:2|3:2,2:0:0:0:
48,94,51495,2,0,P|117:51|222:80,1,150.27,2|8,2:0|2:0,2:0:0:0:
262,101,52302,1,2,3:2:0:0:
188,213,52785,6,0,L|215:340,1,100.18,6|2,3:2|3:2,2:0:0:0:
286,358,53431,2,0,P|360:347|424:340,1,100.18,6|2,3:2|3:2,2:0:0:0:
468,307,54076,2,0,P|493:210|458:122,1,150.27,10|8,2:0|2:0,2:0:0:0:
439,84,54882,6,0,P|344:76|247:65,1,150.27,2|2,3:2|3:2,2:0:0:0:
164,118,55850,1,10,2:0:0:0:
199,201,56173,2,0,L|179:316,1,100.18,2|10,2:0|2:0,2:0:0:0:
112,355,56818,2,0,P|50:356|17:325,1,100.18,2|10,3:2|2:0,2:0:0:0:
1,246,57463,2,0,P|11:198|23:72,1,150.27,10|6,2:0|3:2,2:0:0:0:
144,38,58431,5,2,3:2:0:0:
214,94,58753,2,0,L|315:83,1,100.18,10|10,2:0|2:0,2:0:0:0:
395,43,59398,1,2,3:2:0:0:
470,93,59721,6,0,P|456:163|438:348,1,250.14,12|2,2:0|3:2,2:0:0:0:
353,367,60850,1,2,3:2:0:0:
279,316,61173,2,0,L|165:307,1,100.18,2|2,3:2|3:2,2:0:0:0:
89,328,61818,6,0,P|40:285|34:161,1,150.27,6|12,2:0|2:0,2:0:0:0:
52,120,62624,1,0,3:2:0:0:
167,190,63108,2,0,L|280:178,1,100.18,6|2,3:2|3:2,2:0:0:0:
340,126,63753,2,0,L|453:138,1,100.18,6|2,3:2|3:2,2:0:0:0:
495,208,64398,6,0,P|502:273|420:357,1,150.27,0|8,3:2|2:0,2:0:0:0:
370,365,65205,2,0,L|200:348,1,150.27,2|2,3:2|3:2,2:0:0:0:
103,283,66173,1,10,2:0:0:0:
161,213,66495,2,0,L|174:98,1,100.18,2|10,3:2|2:0,2:0:0:0:
234,47,67140,6,0,P|309:30|365:53,1,100.18,6|10,3:2|2:0,2:0:0:0:
410,76,67785,2,0,L|386:229,1,150.27,10|6,2:0|3:2,2:0:0:0:
330,293,68592,1,8,2:0:0:0:
254,245,68914,2,0,P|171:211|94:215,1,150.27,8|8,2:0|3:2,2:0:0:0:
40,266,69721,6,0,L|51:365,1,100.18,14|10,2:0|2:0,2:0:0:0:
133,327,70366,1,10,2:0:0:0:
216,362,70689,1,8,2:0:0:0:
298,323,71011,2,0,L|413:312,1,100.18,8|8,2:0|2:0,2:0:0:0:
476,268,71656,1,8,2:0:0:0:
423,195,71979,1,8,2:0:0:0:
476,121,72302,6,0,P|491:58|478:22,1,100.18,10|10,2:0|2:0,2:0:0:0:
391,18,72947,2,0,L|229:45,1,150.27,10|6,2:0|3:2,2:0:0:0:
156,20,73753,1,6,3:2:0:0:
80,67,74076,2,0,P|77:123|70:189,1,100.18,6|2,3:2|3:2,2:0:0:0:
124,291,74882,6,0,L|288:268,1,150.27,6|10,3:2|2:0,2:0:0:0:
401,314,75850,1,6,2:3:0:0:
478,266,76173,2,0,P|507:168|453:81,1,200.05,6|10,2:0|2:0,2:0:0:0:
372,93,77140,1,2,2:0:0:0:
291,55,77463,6,0,L|175:44,1,100.18,4|8,3:2|2:0,2:0:0:0:
118,96,78108,1,8,2:0:0:0:
38,55,78431,1,10,2:0:0:0:
3,137,78753,2,0,L|15:247,1,100.18,10|10,2:0|2:0,2:0:0:0:
29,325,79398,2,0,P|105:343|159:325,1,100.18,8|10,2:0|2:0,2:0:0:0:
201,289,80043,5,4,3:2:0:0:
278,336,80366,2,0,B|331:358|331:358|485:316,1,200.05,14|8,2:0|2:0,2:0:0:0:
506,238,81334,2,0,P|525:158|444:89,1,150.27,2|2,3:2|2:0,2:0:0:0:
409,64,82140,1,2,2:0:0:0:
331,107,82463,6,0,L|63:82,1,250.14,6|0,2:0|3:2,2:0:0:0:
7,196,83753,2,0,P|16:248|26:316,1,100.18,6|2,3:2|3:2,2:0:0:0:
90,355,84398,2,0,P|151:354|189:336,1,100.18,6|2,3:2|3:2,2:0:0:0:
226,208,85205,6,0,L|239:93,1,100.18,6|10,3:2|2:0,2:0:0:0:
300,43,85850,2,0,P|380:21|463:58,1,150.27,2|2,3:2|2:0,2:0:0:0:
506,105,86656,1,2,2:0:0:0:
465,184,86979,2,0,L|441:377,1,150.27,2|10,2:0|2:0,2:0:0:0:
361,360,87785,2,0,L|253:345,1,100.18,14|10,3:2|2:0,2:0:0:0:
183,302,88431,2,0,L|33:322,1,150.27,10|6,2:0|3:2,2:0:0:0:
45,187,89398,2,0,L|64:68,1,100.18,8|8,2:0|2:0,2:0:0:0:
137,39,90043,1,10,2:0:0:0:
206,98,90366,6,0,P|270:136|412:96,1,200.05,6|0,3:2|3:2,2:0:0:0:
461,60,91334,1,10,2:0:0:0:
499,141,91656,2,0,L|473:262,1,100.18,2|10,3:2|2:0,2:0:0:0:
433,316,92302,2,0,P|384:317|335:307,1,100.18,2|10,3:2|2:0,2:0:0:0:
252,271,92947,2,0,L|129:280,1,100.18,2|10,3:2|2:0,2:0:0:0:
75,323,93592,1,0,3:2:0:0:
13,258,93914,6,0,L|20:48,1,200.05,14|8,2:0|2:0,2:0:0:0:
101,18,94882,2,0,L|199:44,1,100.18,2|10,3:2|2:0,2:0:0:0:
288,35,95527,1,6,3:2:0:0:
362,87,95850,1,8,2:0:0:0:
446,52,96173,2,0,L|472:150,1,100.18,2|10,3:2|2:0,2:0:0:0:
434,230,96818,1,2,3:2:0:0:
474,310,97140,1,8,2:0:0:0:
406,368,97463,2,0,L|295:353,1,100.18,2|10,3:2|2:0,2:0:0:0:
238,297,98108,6,0,L|258:151,1,100.18,10|10,2:0|2:0,2:0:0:0:
229,110,98753,2,0,P|289:67|363:58,1,150.27,8|10,2:0|2:0,2:0:0:0:
441,103,99560,1,10,2:0:0:0:
396,230,100043,2,0,L|379:359,1,100.18,10|6,3:2|3:2,2:0:0:0:
298,357,100689,6,0,L|81:329,1,200.05,6|0,3:2|3:2,2:0:0:0:
32,273,101656,1,10,2:0:0:0:
63,188,101979,2,0,L|72:77,1,100.18,2|10,3:2|2:0,2:0:0:0:
124,14,102624,2,0,P|189:7|246:38,1,100.18,2|10,3:2|2:0,2:0:0:0:
290,76,103269,2,0,P|355:83|412:52,1,100.18,2|10,3:2|2:0,2:0:0:0:
470,37,103914,1,2,3:2:0:0:
510,117,104237,2,0,P|483:221|462:333,1,200.05,14|8,2:0|2:0,2:0:0:0:
389,358,105205,6,0,L|280:342,1,100.18,2|10,3:2|2:0,2:0:0:0:
210,303,105850,1,6,3:2:0:0:
140,359,106173,1,8,2:0:0:0:
60,318,106495,2,0,P|40:258|58:201,1,100.18,2|10,3:2|2:0,2:0:0:0:
99,149,107140,1,2,3:2:0:0:
71,63,107463,1,8,2:0:0:0:
147,14,107785,6,0,L|285:19,1,100.18,2|10,3:2|2:0,2:0:0:0:
325,63,108431,2,0,P|362:161|303:244,1,200.05,6|0,3:2|3:2,2:0:0:0:
210,319,109560,2,0,L|101:303,1,100.18,6|8,3:2|2:3,2:0:0:0:
45,243,110205,2,0,P|35:155|87:75,1,150.27,4|8,3:2|2:3,2:0:0:0:
124,37,111011,1,4,3:2:0:0:
245,170,111656,6,0,L|415:155,1,150.27,10|2,2:0|3:2,2:0:0:0:
475,266,112624,1,2,3:2:0:0:
406,323,112947,2,0,L|288:304,1,100.18,10|2,2:0|3:2,2:0:0:0:
227,266,113592,2,0,L|18:298,1,200.05,4|10,3:2|3:2,2:0:0:0:
34,161,114721,2,0,L|133:145,1,100.18,14|10,2:0|3:2,2:0:0:0:
205,90,115366,2,0,L|374:64,1,150.27,14|8,3:2|3:2,2:0:0:0:
436,104,116173,1,4,3:2:0:0:
407,188,116495,5,10,2:0:0:0:
448,268,116818,2,0,L|422:375,1,100.18,2|10,3:2|2:0,2:0:0:0:
339,338,117463,1,6,3:2:0:0:
256,369,117785,1,10,2:0:0:0:
183,317,118108,2,0,P|169:261|186:207,1,100.18,2|10,3:2|2:0,2:0:0:0:
237,152,118753,2,0,L|362:128,1,100.18,2|8,3:2|2:0,2:0:0:0:
353,44,119398,2,0,L|206:72,1,150.27,10|6,2:0|3:2,2:0:0:0:
101,157,120366,5,10,2:0:0:0:
147,234,120689,2,0,L|129:340,1,100.18,10|10,2:0|2:0,2:0:0:0:
219,316,121334,1,8,2:0:0:0:
300,355,121656,1,10,2:0:0:0:
389,337,121979,2,0,L|415:155,1,150.27,4|14,2:3|2:0,2:0:0:0:
256,192,122624,12,14,123914,2:0:0:0:
434,206,125205,5,10,2:0:0:0:
377,137,125527,2,0,L|127:115,1,250.14,12|2,3:2|3:2,2:0:0:0:
68,48,126656,1,2,3:2:0:0:
0,107,126979,2,0,L|18:238,1,100.18,2|2,3:2|3:2,2:0:0:0:
48,290,127624,2,0,P|117:333|222:304,1,150.27,2|8,2:0|2:0,2:0:0:0:
262,283,128431,1,2,3:2:0:0:
393,312,128914,6,0,L|378:204,1,100.18,6|2,3:2|3:2,2:0:0:0:
382,122,129560,2,0,P|322:72|289:67,1,100.18,6|2,3:2|3:2,2:0:0:0:
216,95,130205,2,0,L|23:67,1,150.27,10|8,2:0|2:0,2:0:0:0:
9,142,131011,6,0,L|38:314,1,150.27,2|2,3:2|3:2,2:0:0:0:
149,360,131979,1,10,2:0:0:0:
225,312,132302,2,0,L|334:302,1,100.18,2|10,2:0|2:0,2:0:0:0:
394,246,132947,5,2,3:2:0:0:
479,274,133269,1,10,2:0:0:0:
512,187,133592,2,0,L|494:29,1,150.27,10|6,2:0|3:2,2:0:0:0:
378,106,134560,5,2,3:2:0:0:
301,59,134882,2,0,P|250:38|201:38,1,100.18,14|10,2:0|2:0,2:0:0:0:
147,106,135527,1,2,3:2:0:0:
57,99,135850,6,0,L|101:375,1,250.14,12|2,2:0|3:2,2:0:0:0:
182,318,136979,1,2,3:2:0:0:
260,361,137302,2,0,P|329:357|379:340,1,100.18,2|2,3:2|3:2,2:0:0:0:
430,294,137947,6,0,L|447:104,1,150.27,6|8,2:0|2:0,2:0:0:0:
453,55,138753,1,8,3:2:0:0:
332,114,139237,2,0,L|234:97,1,100.18,6|2,3:2|3:2,2:0:0:0:
152,56,139882,2,0,L|54:73,1,100.18,6|2,3:2|3:2,2:0:0:0:
21,157,140527,2,0,P|44:249|58:342,1,150.27,0|8,3:2|2:0,2:0:0:0:
131,347,141334,6,0,L|303:324,1,150.27,2|2,3:2|3:2,2:0:0:0:
401,268,142302,1,10,2:0:0:0:
340,201,142624,2,0,L|326:81,1,100.18,2|10,3:2|2:0,2:0:0:0:
266,36,143269,6,0,P|217:27|152:50,1,100.18,6|10,3:2|2:0,2:0:0:0:
102,99,143914,2,0,L|132:273,1,150.27,10|6,2:0|3:2,2:0:0:0:
195,306,144721,1,8,2:0:0:0:
267,252,145043,2,0,P|347:235|421:273,1,150.27,8|8,2:0|3:2,2:0:0:0:
452,339,145850,6,0,L|463:120,1,200.05,14|10,2:0|2:0,2:0:0:0:
394,79,146818,1,10,2:0:0:0:
323,134,147140,2,0,L|214:120,1,100.18,8|8,2:0|2:0,2:0:0:0:
146,167,147785,1,8,2:0:0:0:
71,115,148108,1,8,2:0:0:0:
6,177,148431,6,0,P|-9:240|4:276,1,100.18,10|10,2:0|2:0,2:0:0:0:
73,325,149076,2,0,L|235:298,1,150.27,10|6,2:0|3:2,2:0:0:0:
283,235,149882,1,6,3:2:0:0:
359,282,150205,2,0,P|362:338|369:404,1,100.18,6|2,3:2|3:2,2:0:0:0:
496,344,151011,6,0,P|487:249|482:155,1,150.27,6|10,3:2|2:0,2:0:0:0:
389,97,151979,1,6,2:3:0:0:
341,174,152302,2,0,P|243:203|156:149,1,200.05,6|10,2:0|2:0,2:0:0:0:
84,112,153269,1,2,2:0:0:0:
46,193,153592,6,0,L|35:309,1,100.18,4|8,3:2|2:0,2:0:0:0:
101,354,154237,1,8,2:0:0:0:
185,322,154560,1,10,2:0:0:0:
270,350,154882,2,0,L|386:339,1,100.18,10|10,2:0|2:0,2:0:0:0:
441,286,155527,2,0,P|445:234|431:186,1,100.18,8|10,2:0|2:0,2:0:0:0:
390,108,156173,1,4,3:2:0:0:
384,108,161334,6,0,P|369:189|350:314,1,200.05,6|10,3:2|2:0,2:0:0:0:
225,352,162463,2,0,P|159:339|58:328,1,150.27,14|10,2:0|3:2,2:0:0:0:
16,263,163269,2,0,L|3:156,1,100.18,10|10,2:0|2:0,2:0:0:0:
69,100,163914,6,0,P|150:115|272:129,1,200.05,14|10,2:0|2:0,2:0:0:0:
399,98,165043,2,0,P|453:157|450:235,1,150.27,10|10,2:0|2:0,2:0:0:0:
402,297,165850,6,0,L|233:312,1,150.27,0|6,3:2|3:2,2:0:0:0:
123,347,166818,1,12,2:0:0:0:
51,294,167140,2,0,L|29:136,1,150.27,0|2,3:2|3:2,2:0:0:0:
142,67,168108,1,10,2:0:0:0:
217,117,168431,2,0,P|279:130|369:68,1,150.27,2|2,2:0|3:2,2:0:0:0:
450,186,169398,5,10,2:0:0:0:
401,261,169721,2,0,L|244:221,1,150.27,2|6,3:2|3:2,2:0:0:0:
171,254,170527,1,2,3:2:0:0:
97,203,170850,2,0,P|59:82|86:38,1,150.27,6|8,3:2|2:0,2:0:0:0:
150,36,171656,6,0,L|315:57,1,150.27,6|2,3:2|2:0,2:0:0:0:
381,15,172463,1,2,3:2:0:0:
447,77,172785,2,0,L|426:242,1,150.27,6|10,3:2|2:0,2:0:0:0:
373,297,173592,2,0,P|307:285|263:279,1,100.18,2|10,2:0|2:0,2:0:0:0:
198,327,174237,6,0,L|13:342,1,150.27,2|2,3:2|3:2,2:0:0:0:
8,259,175043,1,10,3:2:0:0:
70,193,175366,2,0,L|83:43,1,150.27,14|10,3:2|2:0,2:0:0:0:
167,76,176173,1,10,2:0:0:0:
256,58,176495,1,10,2:0:0:0:
328,112,176818,6,0,P|357:193|302:307,1,200.05,6|10,3:2|2:0,2:0:0:0:
238,337,177785,1,10,2:0:0:0:
157,299,178108,2,0,L|46:287,1,100.18,2|10,2:0|2:0,2:0:0:0:
15,208,178753,2,0,P|5:109|64:59,1,150.27,10|2,2:0|3:2,2:0:0:0:
160,24,179721,5,10,2:0:0:0:
222,89,180043,2,0,L|235:254,1,150.27,10|6,2:0|3:2,2:0:0:0:
302,298,180850,1,6,3:2:0:0:
381,253,181173,2,0,L|393:103,1,150.27,6|0,3:2|3:2,2:0:0:0:
319,52,181979,6,0,P|231:64|140:12,1,150.27,6|2,3:2|2:0,2:0:0:0:
53,100,182947,1,2,3:2:0:0:
120,160,183269,2,0,L|146:376,1,200.05,2|10,2:0|2:0,2:0:0:0:
230,254,184398,6,0,P|323:223|389:261,1,150.27,2|0,2:0|3:2,2:0:0:0:
432,304,185205,1,8,2:0:0:0:
500,186,185689,2,0,L|489:86,1,100.18,14|0,3:2|3:2,2:0:0:0:
407,48,186334,2,0,P|348:78|247:53,1,150.27,2|8,3:2|2:0,2:0:0:0:
186,28,187140,5,4,3:2:0:0:
123,92,187463,1,10,2:0:0:0:
36,71,187785,2,0,L|17:179,1,100.18,10|10,2:0|2:0,2:0:0:0:
72,243,188431,1,10,2:0:0:0:
160,224,188753,1,10,2:0:0:0:
229,282,189076,2,0,P|291:288|338:279,1,100.18,10|10,2:0|2:0,2:0:0:0:
401,228,189721,6,0,L|426:38,1,150.27,10|2,2:0|3:2,2:0:0:0:
346,29,190527,1,2,3:2:0:0:
279,88,190850,2,0,P|212:86|176:67,1,100.18,6|0,3:2|3:2,2:0:0:0:
117,11,191495,2,0,P|50:13|-3:94,1,150.27,6|8,3:2|2:0,2:0:0:0:
52,147,192302,5,4,3:2:0:0:
13,227,192624,1,10,2:0:0:0:
57,305,192947,2,0,L|161:291,1,100.18,10|10,2:0|2:0,2:0:0:0:
238,253,193592,5,10,2:0:0:0:
318,292,193914,1,10,2:0:0:0:
392,239,194237,2,0,L|496:225,1,100.18,10|10,2:0|2:0,2:0:0:0:
469,138,194882,6,0,L|321:158,1,150.27,6|2,3:2|3:2,2:0:0:0:
251,100,195689,1,2,3:2:0:0:
167,131,196011,2,0,P|122:182|126:300,1,150.27,6|0,3:2|3:2,2:0:0:0:
155,340,196818,1,8,2:0:0:0:
243,319,197140,1,10,2:0:0:0:
324,358,197463,6,0,L|504:341,1,150.27,6|2,3:2|2:0,2:0:0:0:
380,246,198431,1,10,2:0:0:0:
439,178,198753,2,0,P|430:129|421:71,1,100.18,2|10,3:2|2:0,2:0:0:0:
344,34,199398,2,0,P|296:43|237:52,1,100.18,0|10,3:2|2:0,2:0:0:0:
157,36,200043,6,0,P|82:77|67:171,1,150.27,2|10,3:2|2:0,2:0:0:0:
109,261,201011,1,10,2:0:0:0:
177,202,201334,2,0,P|226:211|284:220,1,99.8699999999998,2|10,3:2|2:0,2:0:0:0:
352,268,201979,2,0,P|401:258|459:250,1,100.18,0|10,3:2|2:0,2:0:0:0:
495,172,202624,6,0,P|437:59|339:69,1,200.05,10|10,2:3|2:3,2:0:0:0:
303,105,203592,1,12,2:0:0:0:
225,61,203914,2,0,L|17:37,1,200.05,10|10,2:3|3:0,2:0:0:0:
40,127,204882,1,12,2:0:0:0:
80,207,205205,6,0,L|261:226,1,150.27,14|12,3:2|2:0,2:0:0:0:
301,278,206011,1,0,3:2:0:0:
372,222,206334,2,0,P|391:137|415:57,1,150.27,4|8,3:2|2:0,2:0:0:0:
325,44,207140,1,8,2:0:0:0:
243,81,207463,1,0,3:2:0:0:
164,38,207785,6,0,L|42:27,1,100.18,14|10,2:0|2:0,2:0:0:0:
22,108,208431,2,0,P|13:173|69:267,1,150.27,10|14,2:0|3:2,2:0:0:0:
114,309,209237,1,10,2:0:0:0:
304,37,214076,6,0,L|322:149,1,100.18,6|6,3:2|3:2,2:0:0:0:
269,209,214721,2,0,L|251:321,1,100.18,6|6,3:2|3:2,2:0:0:0:
176,352,215366,2,0,P|104:324|10:322,1,150.27,2|8,2:0|2:0,2:0:0:0:
17,230,216173,6,0,L|43:44,1,150.27,2|2,3:2|3:2,2:0:0:0:
159,142,217140,1,10,2:0:0:0:
228,83,217463,2,0,P|286:58|334:59,1,100.18,2|10,2:0|2:0,2:0:0:0:
396,109,218108,2,0,L|373:221,1,100.18,2|10,3:2|2:0,2:0:0:0:
378,297,218753,2,0,P|308:314|232:266,1,150.27,10|6,2:0|3:2,2:0:0:0:
144,186,219721,5,2,3:2:0:0:
209,123,220043,2,0,L|314:106,1,100.18,10|10,2:0|2:0,2:0:0:0:
387,62,220689,1,2,3:2:0:0:
463,110,221011,6,0,L|419:386,1,250.14,12|2,3:2|3:2,2:0:0:0:
337,333,222140,1,2,3:2:0:0:
252,362,222463,2,0,P|195:355|145:331,1,100.18,2|2,3:2|3:2,2:0:0:0:
100,267,223108,6,0,L|83:91,1,150.27,2|12,2:0|2:0,2:0:0:0:
130,39,223914,2,0,P|203:13|280:24,1,150.27,2|6,3:2|3:2,2:0:0:0:
302,108,224721,1,2,3:2:0:0:
248,179,225043,2,0,L|263:291,1,100.18,6|2,3:2|3:2,2:0:0:0:
310,354,225689,2,0,P|382:366|480:332,1,150.27,10|8,2:0|2:0,2:0:0:0:
503,270,226495,6,0,L|480:100,1,150.27,2|2,3:2|3:2,2:0:0:0:
375,40,227463,1,8,2:0:0:0:
298,85,227785,2,0,L|278:233,1,150.27,2|2,3:2|3:2,2:0:0:0:
157,294,228753,1,8,2:0:0:0:
80,249,229076,2,0,L|60:100,1,150.27,10|6,2:0|3:2,2:0:0:0:
177,32,230043,5,10,2:0:0:0:
242,95,230366,2,0,L|216:209,1,100.18,10|10,2:0|2:0,2:0:0:0:
193,278,231011,1,10,2:0:0:0:
252,346,231334,6,0,P|366:369|468:279,1,250.14,12|2,2:0|3:2,2:0:0:0:
423,209,232463,1,2,3:2:0:0:
457,125,232785,2,0,L|486:9,1,100.18,2|2,3:2|3:2,2:0:0:0:
391,30,233431,6,0,L|210:36,1,150.27,2|8,2:0|2:0,2:0:0:0:
155,61,234237,2,0,L|118:229,1,150.27,2|6,3:2|3:2,2:0:0:0:
155,291,235043,1,2,3:2:0:0:
237,251,235366,2,0,P|281:232|335:228,1,100.18,6|2,3:2|3:2,2:0:0:0:
422,242,236011,6,0,L|449:55,1,150.27,10|8,2:0|2:0,2:0:0:0:
381,28,236818,2,0,L|230:42,1,150.27,2|2,3:2|3:2,2:0:0:0:
123,121,237785,1,10,2:0:0:0:
163,201,238108,2,0,L|148:311,1,100.18,10|10,2:0|2:0,2:0:0:0:
223,353,238753,5,14,3:2:0:0:
306,316,239076,1,10,2:0:0:0:
393,339,239398,2,0,P|471:320|512:242,1,150.27,10|6,2:0|3:2,2:0:0:0:
444,146,240366,5,2,3:2:0:0:
375,203,240689,2,0,L|243:185,1,100.18,10|10,2:0|2:0,2:0:0:0:
190,215,241334,1,2,3:2:0:0:
108,180,241656,1,12,2:0:0:0:
34,231,241979,2,0,L|39:356,1,100.18,8|10,2:0|2:0,2:0:0:0:
125,356,242624,5,8,2:0:0:0:
206,316,242947,1,8,2:0:0:0:
289,352,243269,2,0,L|445:334,1,150.27,8|14,2:0|3:2,2:0:0:0:
467,202,244237,1,8,2:0:0:0:
382,229,244560,6,0,L|199:193,1,150.27,8|10,2:0|3:2,2:0:0:0:
183,126,245366,1,10,3:2:0:0:
243,58,245689,2,0,L|356:47,1,100.18,10|2,3:2|3:2,2:0:0:0:
418,98,246334,6,0,P|462:162|471:237,1,150.27,2|8,3:2|2:0,2:0:0:0:
431,312,247140,2,0,L|254:335,1,150.27,2|2,3:2|3:2,2:0:0:0:
154,290,248108,1,10,2:0:0:0:
183,204,248431,2,0,L|200:70,1,100.18,2|10,3:2|2:0,2:0:0:0:
157,23,249076,6,0,P|79:-1|30:2,1,100.18,6|10,3:2|2:0,2:0:0:0:
12,76,249721,2,0,L|35:254,1,150.27,10|6,2:0|3:2,2:0:0:0:
97,286,250527,1,8,2:0:0:0:
176,241,250850,2,0,P|241:204|339:220,1,150.27,8|8,2:0|3:2,2:0:0:0:
391,256,251656,6,0,L|492:237,1,100.18,14|10,2:0|2:0,2:0:0:0:
465,150,252302,1,10,2:0:0:0:
500,67,252624,1,8,2:0:0:0:
431,10,252947,2,0,L|320:31,1,100.18,8|8,2:0|2:0,2:0:0:0:
257,76,253592,1,8,2:0:0:0:
179,32,253914,1,8,2:0:0:0:
101,77,254237,6,0,L|81:191,1,100.18,10|10,2:0|2:0,2:0:0:0:
121,257,254882,2,0,L|304:239,1,150.27,10|6,2:0|3:2,2:0:0:0:
356,272,255689,1,6,3:2:0:0:
427,216,256011,2,0,L|440:88,1,100.18,6|2,3:2|3:2,2:0:0:0:
332,31,256818,6,0,P|270:82|121:53,1,200.05,6|8,3:2|2:0,2:0:0:0:
79,30,257785,1,2,2:0:0:0:
32,106,258108,2,0,L|69:307,1,200.05,2|10,3:2|2:0,2:0:0:0:
142,355,259076,1,2,2:0:0:0:
222,313,259398,6,0,P|232:264|239:188,1,100.18,4|8,3:2|2:0,2:0:0:0:
301,149,260043,1,8,2:0:0:0:
272,64,260366,1,10,2:0:0:0:
344,9,260689,6,0,L|475:41,1,100.18,10|10,2:0|2:0,2:0:0:0:
489,109,261334,2,0,P|492:167|457:240,1,100.18,8|10,2:0|2:0,2:0:0:0:
440,287,261979,1,6,3:2:0:0:
256,192,262140,12,6,264560,3:2:0:0:
390,297,267140,6,0,L|176:309,1,200.05,14|8,3:2|2:0,2:0:0:0:
103,330,268108,1,10,2:0:0:0:
67,247,268431,2,0,L|79:137,1,99.8699999999998,10|10,2:0|2:0,2:0:0:0:
94,59,269076,2,0,P|170:41|224:59,1,99.8699999999998,8|10,2:0|2:0,2:0:0:0:
263,96,269721,6,0,L|288:326,1,200.05,6|2,3:2|3:2,2:0:0:0:
356,349,270689,1,10,2:0:0:0:
438,313,271011,2,0,L|465:133,1,150.27,2|2,3:2|2:0,2:0:0:0:
425,81,271818,1,2,2:0:0:0:
345,123,272140,6,0,L|186:132,1,150.27,2|8,2:0|2:0,2:0:0:0:
113,92,272947,1,8,3:2:0:0:
55,214,273431,2,0,P|64:260|71:328,1,100.18,6|2,3:2|3:2,2:0:0:0:
155,342,274076,2,0,P|204:347|253:357,1,100.18,6|2,3:2|3:2,2:0:0:0:
382,316,274882,6,0,P|386:257|394:193,1,100.18,6|10,3:2|2:0,2:0:0:0:
411,128,275527,1,10,2:0:0:0:
293,61,276011,2,0,L|109:79,1,150.27,6|2,3:2|2:0,2:0:0:0:
87,146,276818,2,0,P|96:179|110:268,1,100.18,2|2,2:0|3:2,2:0:0:0:
169,309,277463,6,0,L|410:282,1,200.05,6|8,3:2|2:0,2:0:0:0:
402,203,278431,1,8,2:0:0:0:
354,126,278753,2,0,L|155:148,1,200.05,10|10,2:0|2:0,2:0:0:0:
51,61,279882,1,6,3:2:0:0:
256,192,280205,12,0,283914,2:0:0:0:
