osu file format v14

[General]
AudioFilename: audio.mp3
AudioLeadIn: 0
PreviewTime:124156
Countdown: 0
SampleSet: Soft
StackLeniency: 0.7
Mode: 0
LetterboxInBreaks: 0
WidescreenStoryboard: 1

[Editor]
Bookmarks: 209398,210366,213592,279882,284076
DistanceSpacing: 0.9
BeatDivisor: 4
GridSize: 32
TimelineZoom: 2.599999

[Metadata]
Title:Soundscape
TitleUnicode:サウンドスケープ
Artist:TRUE
ArtistUnicode:TRUE
Creator:SkyFlame
Version:Akitoshi's Insane
Source:響け!ユーフォニアム2
Tags:sound hibike euphonium season 2 opening full size anime -laura- akitoshi corinn kalibe kibbleru kowari meg iMage-- japanese OP ver. version female vocal pop jpop
BeatmapID:1743124
BeatmapSetID:534054

[Difficulty]
HPDrainRate:6
CircleSize:3.8
OverallDifficulty:7.5
ApproachRate:9
SliderMultiplier:1.5
SliderTickRate:1

[Events]
//Background and Video events
0,0,"bg laura.jpg",0,0
//Break Periods
2,210366,212992
2,264760,266540
//Storyboard Layer 0 (Background)
//Storyboard Layer 1 (Fail)
//Storyboard Layer 2 (Pass)
//Storyboard Layer 3 (Foreground)
//Storyboard Layer 4 (Overlay)
//Storyboard Sound Samples

[TimingPoints]
44,322.58064516129,4,2,1,80,1,0
13592,-100,4,2,1,70,0,0
14237,-142.857142857143,4,2,1,60,0,0
21979,-111.111111111111,4,2,1,60,0,0
22302,-111.111111111111,4,2,1,65,0,0
23431,-111.111111111111,4,2,1,70,0,0
24560,-111.111111111111,4,2,1,60,0,0
32302,-111.111111111111,4,2,1,65,0,0
33431,-111.111111111111,4,2,1,70,0,0
34237,-111.111111111111,4,2,1,65,0,0
34882,-125,4,2,1,60,0,0
35204,-125,4,2,1,55,0,0
38108,-125,4,2,1,60,0,0
38592,-111.111111111111,4,2,1,70,0,0
40043,-111.111111111111,4,2,1,60,0,0
41334,-111.111111111111,4,2,1,65,0,0
42624,-111.111111111111,4,2,1,70,0,0
43753,-100,4,2,1,80,0,0
46710,-90.9090909090909,4,2,1,75,0,0
46925,-90.9090909090909,4,2,1,80,0,0
47140,-90.9090909090909,4,2,1,85,0,0
47355,-90.9090909090909,4,2,1,90,0,0
47570,-90.9090909090909,4,2,1,95,0,0
47785,-90.9090909090909,4,2,1,100,0,0
48108,-100,4,2,1,80,0,0
49398,-90.9090909090909,4,2,1,90,0,1
49720,-90.9090909090909,4,2,1,80,0,1
59398,-90.9090909090909,4,2,1,80,0,0
59721,-90.9090909090909,4,2,1,90,0,1
60043,-90.9090909090909,4,2,1,80,0,1
69398,-90.9090909090909,4,2,1,80,0,0
69721,-90.9090909090909,4,2,1,75,0,1
73431,-90.9090909090909,4,2,1,80,0,1
74882,-125,4,2,1,60,0,0
77463,-111.111111111111,4,2,1,70,0,0
78753,-100,4,2,1,80,0,0
80043,-125,4,2,1,80,0,0
80366,-76.9230769230769,4,2,1,90,0,0
80689,-100,4,2,1,80,0,0
88914,-100,4,2,1,70,0,0
90366,-111.111111111111,4,2,1,60,0,0
98431,-111.111111111111,4,2,1,65,0,0
99560,-111.111111111111,4,2,1,70,0,0
100689,-111.111111111111,4,2,1,60,0,0
104237,-111.111111111111,4,2,1,70,0,0
105205,-111.111111111111,4,2,1,60,0,0
108431,-111.111111111111,4,2,1,65,0,0
109560,-111.111111111111,4,2,1,70,0,0
110366,-111.111111111111,4,2,1,65,0,0
111011,-125,4,2,1,60,0,0
111333,-125,4,2,1,55,0,0
114237,-125,4,2,1,60,0,0
114721,-111.111111111111,4,2,1,70,0,0
116495,-111.111111111111,4,2,1,60,0,0
117463,-111.111111111111,4,2,1,65,0,0
118753,-111.111111111111,4,2,1,70,0,0
119882,-100,4,2,1,85,0,0
122785,-90.9090909090909,4,2,1,75,0,0
123053,-90.9090909090909,4,2,1,80,0,0
123269,-90.9090909090909,4,2,1,85,0,0
123484,-90.9090909090909,4,2,1,90,0,0
123699,-90.9090909090909,4,2,1,95,0,0
123914,-90.9090909090909,4,2,1,100,0,0
124237,-100,4,2,1,85,0,0
125527,-90.9090909090909,4,2,1,90,0,1
126011,-90.9090909090909,4,2,1,80,0,1
135527,-90.9090909090909,4,2,1,80,0,0
135850,-90.9090909090909,4,2,1,90,0,1
136656,-90.9090909090909,4,2,1,80,0,1
145527,-90.9090909090909,4,2,1,80,0,0
145850,-90.9090909090909,4,2,1,75,0,1
149560,-90.9090909090909,4,2,1,80,0,1
151011,-125,4,2,1,60,0,0
153592,-111.111111111111,4,2,1,70,0,0
154882,-100,4,2,1,80,0,0
156173,-100,4,2,1,60,0,0
160043,-111.111111111111,4,2,1,60,0,0
161334,-100,4,2,1,80,0,0
161817,-100,4,2,1,60,0,0
162140,-100,4,2,1,70,0,0
162463,-100,4,2,1,80,0,0
162785,-100,4,2,1,60,0,0
163269,-100,4,2,1,70,0,0
163914,-100,4,2,1,80,0,0
166334,-100,4,2,1,70,0,0
166818,-83.3333333333333,4,2,1,80,0,0
167140,-83.3333333333333,4,2,1,70,0,0
167624,-100,4,2,1,70,0,0
170205,-100,4,2,1,80,0,0
171656,-100,4,2,1,70,0,0
174237,-100,4,2,1,75,0,0
180205,-100,4,2,1,80,0,0
181173,-100,4,2,1,85,0,0
181334,-100,4,2,1,70,0,0
181979,-125,4,2,1,75,0,0
184560,-111.111111111111,4,2,1,75,0,0
184882,-111.111111111111,4,2,1,65,0,0
185205,-111.111111111111,4,2,1,70,0,0
185527,-111.111111111111,4,2,1,75,0,0
185689,-100,4,2,1,85,0,0
186011,-100,4,2,1,65,0,0
186334,-100,4,2,1,70,0,0
186656,-100,4,2,1,75,0,0
186898,-100,4,2,1,80,0,0
187140,-100,4,2,1,85,0,0
191979,-100,4,2,1,75,0,0
192140,-100,4,2,1,80,0,0
192302,-100,4,2,1,85,0,0
194237,-100,4,2,1,75,0,0
194398,-100,4,2,1,80,0,0
194560,-100,4,2,1,85,0,0
194882,-100,4,2,1,80,0,0
196818,-100,4,2,1,60,0,0
197140,-100,4,2,1,65,0,0
197463,-100,4,2,1,70,0,0
200043,-100,4,2,1,75,0,0
202947,-100,4,2,1,100,0,0
205043,-100,4,2,1,95,0,0
205205,-90.9090909090909,4,2,1,100,0,0
207140,-90.9090909090909,4,2,1,70,0,0
207463,-90.9090909090909,4,2,1,75,0,0
207785,-90.9090909090909,4,2,1,80,0,0
208108,-90.9090909090909,4,2,1,85,0,0
208431,-90.9090909090909,4,2,1,90,0,0
208753,-90.9090909090909,4,2,1,95,0,0
208914,-90.9090909090909,4,2,1,100,0,0
213592,-90.9090909090909,4,2,1,80,0,0
213753,-111.111111111111,4,2,1,80,0,0
214076,-90.9090909090909,4,2,1,85,0,0
215527,-90.9090909090909,4,2,1,85,0,1
220689,-90.9090909090909,4,2,1,85,0,0
221011,-90.9090909090909,4,2,1,90,0,1
221818,-90.9090909090909,4,2,1,85,0,1
230043,-90.9090909090909,4,2,1,92,0,1
231011,-90.9090909090909,4,2,1,85,0,0
231334,-90.9090909090909,4,2,1,100,0,1
231818,-90.9090909090909,4,2,1,85,0,1
238753,-90.9090909090909,4,2,1,90,0,1
240366,-90.9090909090909,4,2,1,85,0,1
241334,-90.9090909090909,4,2,1,85,0,0
241656,-90.9090909090909,4,2,1,85,0,1
242624,-90.9090909090909,4,2,1,90,0,1
243269,-90.9090909090909,4,2,1,95,0,1
243753,-90.9090909090909,4,2,1,100,0,1
245043,-90.9090909090909,4,2,1,90,0,1
246495,-90.9090909090909,4,2,1,82,0,1
250205,-90.9090909090909,4,2,1,85,0,1
251334,-90.9090909090909,4,2,1,85,0,0
251656,-90.9090909090909,4,2,1,80,0,1
256818,-125,4,2,1,70,0,0
259398,-111.111111111111,4,2,1,70,0,0
259721,-111.111111111111,4,2,1,75,0,0
260366,-111.111111111111,4,2,1,80,0,0
260689,-100,4,2,1,80,0,0
260850,-100,4,2,1,85,0,0
261334,-100,4,2,1,90,0,0
261979,-100,4,2,1,85,0,0
263914,-100,4,2,1,80,0,0
264076,-100,4,2,1,75,0,0
264237,-100,4,2,1,70,0,0
264398,-100,4,2,1,65,0,0
264560,-100,4,2,1,50,0,0
267140,-111.111111111111,4,2,1,80,0,0
268431,-100,4,2,1,80,0,0
269721,-76.9230769230769,4,2,1,85,0,0
270043,-100,4,2,1,85,0,0
274398,-100,4,2,1,80,0,0
276011,-125,4,2,1,80,0,0
277463,-100,4,2,1,80,0,0
279882,-100,4,2,1,90,0,0
283914,-100,4,2,1,5,0,0

[Colours]
Combo1 : 138,104,155
Combo2 : 92,132,204
Combo3 : 231,200,109
Combo4 : 189,141,163

[HitObjects]
166,166,1011,6,0,L|303:158,1,112.935,12|0,2:0|2:0,2:0:0:0:
278,159,1334,5,14,2:0:0:0:
359,82,1495,1,10,2:0:0:0:
448,149,1656,2,0,P|456:183|445:239,1,75.1349999999999,10|0,2:0|2:0,2:0:0:0:
350,312,1979,2,0,P|342:278|353:222,1,75.1349999999999,10|0,2:0|2:0,2:0:0:0:
456,329,2302,1,10,2:0:0:0:
282,375,2463,6,0,L|192:370,1,75.1349999999999,10|0,2:0|2:0,2:0:0:0:
148,274,2785,2,0,L|238:269,1,75.1349999999999,10|0,2:0|2:0,2:0:0:0:
303,190,3108,1,10,2:0:0:0:
194,160,3269,1,10,2:0:0:0:
275,82,3431,1,10,2:0:0:0:
194,160,3592,2,0,L|74:166,1,112.935,10|0,2:0|2:0,2:0:0:0:
81,166,3914,5,10,2:0:0:0:
4,83,4076,1,10,2:0:0:0:
98,21,4237,2,0,P|132:23|177:27,1,75.1349999999999,10|0,2:0|2:0,2:0:0:0:
263,127,4560,2,0,P|229:129|184:133,1,75.1349999999999,10|0,2:0|2:0,2:0:0:0:
274,236,4882,1,10,2:0:0:0:
359,163,5043,6,0,P|367:126|356:80,1,75.1349999999999,10|0,2:0|2:0,2:0:0:0:
249,241,5366,2,0,P|242:277|249:314,1,75.1349999999999,10|0,2:0|2:0,2:0:0:0:
348,370,5689,1,10,2:0:0:0:
452,328,5850,5,10,2:0:0:0:
453,317,5931,1,8,2:0:0:0:
454,306,6011,1,8,2:0:0:0:
455,294,6092,1,8,2:0:0:0:
455,283,6173,1,10,2:0:0:0:
456,272,6253,1,8,2:0:0:0:
457,261,6334,1,8,2:0:0:0:
457,250,6414,1,8,2:0:0:0:
458,238,6495,6,0,P|421:197|310:194,1,150.27,6|8,3:2|2:0,2:0:0:0:
226,228,6979,1,0,2:0:0:0:
226,228,7140,2,0,P|222:191|216:142,1,75.1349999999999,2|0,3:2|2:0,2:0:0:0:
110,115,7463,2,0,P|105:152|101:189,1,75.1349999999999,10|0,2:0|2:0,2:0:0:0:
41,44,7785,6,0,P|101:15|187:54,1,150.27,2|10,3:2|2:0,2:0:0:0:
243,132,8269,2,0,P|277:128|322:124,1,75.1349999999999,2|0,2:0|3:2,2:0:0:0:
350,232,8592,2,0,P|312:228|275:224,1,75.1349999999999,2|8,2:0|2:0,2:0:0:0:
414,150,8914,1,2,2:0:0:0:
492,231,9076,6,0,B|501:269|501:269|496:304,1,75.1349999999999,4|0,3:2|2:0,2:0:0:0:
354,305,9398,2,0,B|345:267|345:267|350:226,1,75.1349999999999,8|0,2:0|2:0,2:0:0:0:
412,119,9721,1,8,3:2:0:0:
492,231,9882,1,10,3:2:0:0:
412,119,10043,1,10,2:0:0:0:
327,214,10205,6,0,P|285:210|222:206,1,75.1349999999999,6|0,3:2|2:0,2:0:0:0:
125,313,10527,2,0,P|148:278|184:226,1,75.1349999999999,2|8,3:2|2:0,2:0:0:0:
139,87,10850,2,0,P|156:124|184:181,1,75.1349999999999,6|0,3:2|2:0,2:0:0:0:
219,5,11173,1,2,3:2:0:0:
41,34,11334,2,0,P|35:91|29:162,1,112.935,8|0,2:0|2:0,2:0:0:0:
9,172,11656,6,0,P|13:216|17:253,1,75.1349999999999,6|0,3:2|3:2,2:0:0:0:
142,296,11979,2,0,P|145:258|149:221,1,75.1349999999999,10|2,2:0|3:2,2:0:0:0:
235,117,12302,1,10,2:0:0:0:
277,244,12463,1,10,3:2:0:0:
153,190,12624,1,10,3:2:0:0:
273,279,12785,6,0,B|323:272|323:272|362:291|362:291|436:280,1,150.27,6|8,3:2|2:0,2:0:0:0:
491,168,13269,2,0,P|496:115|485:84,1,75.1349999999999,8|8,2:0|2:0,2:0:0:0:
363,45,13592,1,8,2:0:0:0:
363,45,13673,1,0,3:2:0:0:
363,45,13753,2,0,L|357:110,1,37.8,0|0,3:2|3:2,2:0:0:0:
264,128,13914,2,0,L|253:12,1,112.935,10|0,2:0|2:0,2:0:0:0:
253,16,14237,6,0,B|131:8|180:84|52:72,1,210.052493591309,6|0,2:0|3:2,2:0:0:0:
4,221,15205,1,2,3:2:0:0:
119,327,15527,2,0,L|246:317,1,105.188996795654,2|2,3:2|3:2,2:0:0:0:
293,176,16173,2,0,L|166:166,1,105.188996795654,2|2,3:2|3:2,2:0:0:0:
223,318,16818,5,2,3:2:0:0:
375,357,17140,1,2,3:2:0:0:
483,242,17463,1,2,3:2:0:0:
419,98,17785,2,0,B|301:87|336:169|207:153,1,210.052493591309,6|0,3:2|3:2,2:0:0:0:
223,154,18592,1,8,2:0:0:0:
153,117,18753,2,0,L|162:0,1,105.188996795654,2|2,3:2|3:2,2:0:0:0:
326,142,19398,6,0,B|347:177|347:177|334:264,1,105.188996795654,6|0,3:2|3:2,2:0:0:0:
257,376,20043,1,2,3:2:0:0:
99,376,20366,1,2,3:2:0:0:
12,242,20689,2,0,P|3:191|16:141,1,105.188996795654,2|0,3:2|3:2,2:0:0:0:
137,39,21334,1,2,3:2:0:0:
128,194,21656,1,2,3:2:0:0:
270,91,21979,6,0,P|302:94|348:98,1,67.6214979400634,14|0,2:0|2:0,2:0:0:0:
440,162,22302,1,10,3:2:0:0:
336,224,22463,1,10,2:0:0:0:
336,224,22543,1,8,2:0:0:0:
336,224,22624,2,0,L|297:228,3,33.8804989700318,8|8|8|8,3:2|2:0|2:0|2:0,2:0:0:0:
231,269,22947,2,0,L|192:265,3,33.8804989700318,10|8|10|8,2:0|2:0|2:0|2:0,2:0:0:0:
116,256,23269,5,0,3:2:0:0:
147,138,23431,2,0,P|203:102|281:117,1,135.242995880127,10|10,3:2|3:2,2:0:0:0:
396,196,23914,1,6,2:0:0:0:
281,212,24076,1,2,3:2:0:0:
379,92,24237,2,0,L|476:97,1,67.6214979400634,14|0,2:0|2:0,2:0:0:0:
294,234,24560,6,0,B|200:246|200:246|143:222,2,135.033745880127,6|8|0,3:2|2:0|3:2,2:0:0:0:
401,221,25366,1,0,3:2:0:0:
356,122,25527,2,0,P|319:109|271:112,1,67.6214979400634,10|0,2:0|2:0,2:0:0:0:
157,129,25850,6,0,L|164:241,1,101.641496910095,2|0,3:2|2:0,2:0:0:0:
182,258,26173,2,0,P|178:291|175:325,1,67.6214979400634,10|0,2:0|2:0,2:0:0:0:
273,378,26495,1,2,3:2:0:0:
273,378,26656,1,0,3:2:0:0:
364,325,26818,2,0,P|361:291|357:257,1,67.6214979400634,10|0,2:0|2:0,2:0:0:0:
337,138,27140,6,0,P|377:129|413:134,1,67.6214979400634,2|0,3:2|2:0,2:0:0:0:
266,55,27463,2,0,P|232:56|199:48,1,67.6214979400634,10|0,2:0|2:0,2:0:0:0:
104,10,27785,1,2,3:2:0:0:
104,10,27947,1,0,3:2:0:0:
31,90,28108,6,0,P|37:161|44:236,1,135.242995880127,14|0,2:0|3:2,2:0:0:0:
111,308,28592,1,0,3:2:0:0:
214,276,28753,2,0,P|230:241|232:194,1,67.6214979400634,8|2,2:0|2:0,2:0:0:0:
216,105,29076,1,2,3:2:0:0:
132,173,29237,1,0,3:2:0:0:
241,86,29398,2,0,L|322:91,1,67.6214979400634,10|0,2:0|2:0,2:0:0:0:
365,212,29721,6,0,B|275:227|275:227|218:207,1,135.242995880127,6|8,3:2|2:0,2:0:0:0:
132,173,30205,1,2,2:0:0:0:
43,235,30366,1,2,3:2:0:0:
43,235,30527,1,0,2:0:0:0:
99,327,30689,2,0,P|144:335|175:328,1,67.6214979400634,10|0,2:0|2:0,2:0:0:0:
264,289,31011,6,0,P|268:209|273:138,1,135.242995880127,2|8,3:2|2:0,2:0:0:0:
358,88,31495,1,2,2:0:0:0:
457,141,31656,1,2,3:2:0:0:
457,141,31818,1,0,3:2:0:0:
431,245,31979,2,0,P|383:250|348:242,1,67.6214979400634,10|0,2:0|2:0,2:0:0:0:
272,154,32302,5,6,3:2:0:0:
358,88,32463,1,0,3:2:0:0:
333,234,32624,1,10,2:0:0:0:
240,145,32785,2,0,P|182:123|94:157,1,135.242995880127,2|0,2:0|3:2,2:0:0:0:
176,229,33269,1,10,2:0:0:0:
272,154,33431,6,0,B|266:101|266:101|281:73|281:73|277:3,1,135.242995880127,6|8,3:2|2:3,2:0:0:0:
171,41,33914,1,8,2:3:0:0:
277,181,34076,2,0,P|352:188|372:190,1,67.6214979400634,4|8,3:2|2:0,2:0:0:0:
293,284,34398,1,0,3:2:0:0:
293,284,34560,2,0,P|242:286|191:289,1,101.641496910095,8|0,2:3|2:0,2:0:0:0:
191,289,34882,6,0,P|165:274|77:291,1,120.216,4|2,3:2|3:2,2:0:0:0:
3,125,35527,2,0,P|29:140|117:123,1,120.216,10|2,2:0|3:2,2:0:0:0:
184,69,36011,2,0,P|239:71|318:76,1,120.216,2|8,3:2|2:0,2:0:0:0:
385,115,36495,2,0,P|392:148|386:184,1,60.1079999999999,2|0,3:2|3:2,2:0:0:0:
354,257,36818,2,0,P|412:270|452:337,1,120.216,10|2,2:0|3:2,2:0:0:0:
363,348,37302,1,2,2:0:0:0:
279,314,37463,6,0,P|238:357|160:358,1,120.216,4|2,3:2|3:2,2:0:0:0:
44,248,38108,2,0,L|37:178,2,60.1079999999999,10|8|10,3:2|2:0|2:0,2:0:0:0:
155,276,38592,6,0,L|162:138,1,135.242995880127,14|10,2:0|3:2,2:0:0:0:
238,55,39076,1,10,3:2:0:0:
323,131,39237,2,0,B|376:126|376:126|410:135|410:135|469:128,1,135.242995880127,14|0,3:2|3:2,2:0:0:0:
510,215,39721,1,8,2:3:0:0:
446,293,39882,1,0,3:2:0:0:
446,293,39963,1,0,3:2:0:0:
446,293,40043,6,0,P|406:290|357:286,1,67.6214979400634,4|0,3:2|2:0,2:0:0:0:
292,383,40366,2,0,P|325:380|359:377,1,67.6214979400634,10|0,2:0|3:2,2:0:0:0:
282,282,40689,1,2,3:2:0:0:
282,282,40850,1,0,3:2:0:0:
172,316,41011,2,0,P|167:352|175:388,1,67.6214979400634,10|0,2:0|2:0,2:0:0:0:
294,258,41334,6,0,L|288:174,1,67.6214979400634,6|0,3:2|2:0,2:0:0:0:
190,109,41656,2,0,L|185:176,1,67.6214979400634,10|2,2:0|2:0,2:0:0:0:
100,53,41979,1,2,3:2:0:0:
100,53,42140,1,0,3:2:0:0:
209,18,42302,2,0,P|245:12|296:22,1,67.6214979400634,10|0,2:0|2:0,2:0:0:0:
376,104,42624,6,0,L|381:185,1,67.6214979400634,6|0,3:2|2:0,2:0:0:0:
258,231,42947,2,0,L|263:150,1,67.6214979400634,8|0,2:0|2:0,2:0:0:0:
193,47,43269,1,10,2:0:0:0:
163,33,43350,1,8,2:0:0:0:
129,32,43431,1,8,2:0:0:0:
97,41,43511,1,8,2:0:0:0:
70,61,43592,1,8,2:0:0:0:
114,186,43753,6,0,P|188:174|262:163,1,150.27,6|2,3:2|3:2,2:0:0:0:
410,136,44237,2,0,L|416:50,1,75.1349999999999,10|2,2:0|3:2,2:0:0:0:
267,238,44560,2,0,L|261:152,1,75.1349999999999,10|2,2:0|3:2,2:0:0:0:
396,342,44882,2,0,L|402:256,1,75.1349999999999,10|2,2:0|3:2,2:0:0:0:
196,363,45205,6,0,L|190:277,1,75.1349999999999,8|2,2:0|3:2,2:0:0:0:
143,162,45527,1,10,2:0:0:0:
25,230,45689,1,10,2:0:0:0:
25,230,45769,1,8,2:0:0:0:
25,230,45850,2,0,L|27:267,3,37.645,6|4|6|4,2:3|2:3|2:3|2:3,2:0:0:0:
107,302,46173,2,0,L|109:264,1,37.8,6|4,2:3|2:3,2:0:0:0:
116,181,46334,1,14,2:0:0:0:
320,126,46710,6,0,P|377:115|426:138,1,110.027503356934,10|10,2:0|2:0,2:0:0:0:
422,248,47140,2,0,P|372:269|320:258,2,110.027503356934,10|10|10,2:0|2:0|2:0,2:0:0:0:
501,339,47785,1,14,2:0:0:0:
340,377,48108,6,0,L|219:366,1,112.935,2|0,2:0|2:0,2:0:0:0:
194,360,48431,1,2,2:0:0:0:
105,290,48592,1,0,3:2:0:0:
105,290,48673,1,0,3:2:0:0:
105,290,48753,2,0,B|95:256|95:256|107:210,1,75.1349999999999,10|0,2:0|2:0,2:0:0:0:
226,142,49076,1,10,2:0:0:0:
226,142,49156,1,8,2:0:0:0:
226,142,49237,1,8,2:0:0:0:
226,142,49318,1,8,2:0:0:0:
226,142,49398,6,0,B|316:129|296:188|387:171,1,165.297005035401,12|0,3:2|3:2,2:0:0:0:
498,124,49882,1,0,3:2:0:0:
361,66,50043,1,10,2:0:0:0:
406,190,50205,6,0,L|401:289,1,82.6485025177002,2|0,3:2|2:0,2:0:0:0:
291,345,50527,1,2,3:2:0:0:
237,223,50689,1,8,3:2:0:0:
127,296,50850,2,0,P|118:330|124:385,1,82.6485025177002,2|0,3:2|2:0,2:0:0:0:
218,208,51173,1,2,3:2:0:0:
96,156,51334,2,0,P|54:160|4:166,1,82.6485025177002,8|2,2:0|2:0,2:0:0:0:
180,58,51656,6,0,P|239:41|308:64,1,124.22850377655,0|0,3:2|2:0,2:0:0:0:
326,81,51979,2,0,P|322:128|318:177,1,82.6485025177002,8|0,2:0|2:0,2:0:0:0:
306,295,52302,1,2,3:2:0:0:
306,295,52463,1,0,3:2:0:0:
406,210,52624,1,10,2:0:0:0:
233,219,52785,6,0,P|188:229|133:224,1,82.6485025177002,6|0,3:2|2:0,2:0:0:0:
24,192,53108,1,2,3:2:0:0:
113,95,53269,1,8,2:0:0:0:
121,227,53431,2,0,P|125:271|128:316,1,82.6485025177002,6|0,3:2|2:0,2:0:0:0:
244,370,53753,1,2,3:2:0:0:
353,296,53914,1,8,2:0:0:0:
280,199,54076,1,10,2:0:0:0:
280,199,54156,1,8,2:0:0:0:
280,199,54237,6,0,B|187:187|217:237|121:227,1,165.297005035401,4|8,3:2|2:0,2:0:0:0:
15,147,54721,1,0,2:0:0:0:
148,123,54882,1,2,3:2:0:0:
148,123,55043,1,0,3:2:0:0:
29,239,55205,1,10,2:0:0:0:
63,61,55366,6,0,P|111:24|217:44,1,165.297005035401,2|0,3:2|3:2,2:0:0:0:
313,119,55850,2,0,P|345:87|359:48,1,82.6485025177002,10|0,2:0|3:2,2:0:0:0:
266,210,56173,2,0,P|309:221|350:214,1,82.6485025177002,2|0,2:0|3:2,2:0:0:0:
164,216,56495,2,0,P|175:259|202:291,1,82.6485025177002,10|0,2:0|2:0,2:0:0:0:
325,327,56818,5,2,3:2:0:0:
266,210,56979,1,0,3:2:0:0:
230,379,57140,2,0,P|187:375|146:371,1,82.6485025177002,10|0,2:0|3:2,2:0:0:0:
50,281,57463,1,10,2:0:0:0:
164,216,57624,1,0,3:2:0:0:
50,281,57785,1,10,2:0:0:0:
91,129,57947,6,0,P|152:102|254:148,1,165.297005035401,6|8,3:2|2:0,2:0:0:0:
353,243,58431,1,2,3:2:0:0:
353,243,58511,1,0,3:2:0:0:
353,243,58592,1,0,3:2:0:0:
353,243,58673,1,0,3:2:0:0:
353,243,58753,2,0,P|393:239|443:235,1,82.6485025177002,10|0,2:0|3:2,2:0:0:0:
334,377,59076,2,0,P|292:373|251:369,1,82.6485025177002,10|0,2:0|3:2,2:0:0:0:
194,247,59398,1,2,3:2:0:0:
194,247,59479,1,0,3:2:0:0:
194,247,59560,1,0,3:2:0:0:
194,247,59640,1,0,3:2:0:0:
194,247,59721,6,0,B|248:235|248:235|297:254|297:254|359:241,1,165.297005035401,12|0,2:0|3:2,2:0:0:0:
483,217,60205,1,0,3:2:0:0:
403,322,60366,1,10,2:0:0:0:
398,157,60527,6,0,P|357:151|316:148,1,82.6485025177002,2|0,3:2|2:0,2:0:0:0:
200,137,60850,1,2,3:2:0:0:
255,238,61011,1,8,2:0:0:0:
179,119,61173,2,0,P|169:79|184:25,1,82.6485025177002,2|0,3:2|2:0,2:0:0:0:
306,125,61495,1,2,3:2:0:0:
168,215,61656,2,0,P|114:209|72:205,1,82.6485025177002,8|6,2:0|2:0,2:0:0:0:
210,336,61979,5,0,3:2:0:0:
279,223,62140,1,0,3:2:0:0:
391,293,62302,2,0,P|402:333|394:381,1,82.6485025177002,12|0,2:0|2:0,2:0:0:0:
293,201,62624,1,0,3:2:0:0:
423,186,62785,1,0,3:2:0:0:
297,306,62947,1,10,2:0:0:0:
209,156,63108,6,0,L|213:62,1,82.6485025177002,6|0,3:2|2:0,2:0:0:0:
108,213,63431,2,0,L|34:251,1,82.6485025177002,2|8,3:2|2:0,2:0:0:0:
206,272,63753,2,0,L|285:322,1,82.6485025177002,6|0,3:2|2:0,2:0:0:0:
391,380,64076,1,2,3:2:0:0:
478,281,64237,2,0,P|488:235|473:184,1,82.6485025177002,8|0,2:0|3:2,2:0:0:0:
332,217,64560,6,0,P|386:236|452:217,1,124.22850377655,6|0,3:2|2:0,2:0:0:0:
481,200,64882,2,0,P|477:161|473:115,1,82.6485025177002,8|0,2:0|3:2,2:0:0:0:
363,42,65205,2,0,P|359:83|355:124,1,82.6485025177002,2|0,3:2|3:2,2:0:0:0:
325,252,65527,1,10,2:0:0:0:
214,178,65689,6,0,P|154:165|51:240,1,165.297005035401,2|0,3:2|3:2,2:0:0:0:
34,340,66173,2,0,P|75:336|116:333,1,82.6485025177002,10|0,2:0|3:2,2:0:0:0:
250,323,66495,1,2,3:2:0:0:
250,323,66656,1,0,3:2:0:0:
332,217,66818,2,0,P|339:168|327:125,1,82.6485025177002,10|0,2:0|3:2,2:0:0:0:
149,168,67140,6,0,P|191:171|232:175,1,82.6485025177002,6|0,3:2|3:2,2:0:0:0:
85,282,67463,2,0,P|43:285|2:288,1,82.6485025177002,10|0,2:0|3:2,2:0:0:0:
169,378,67785,1,10,2:0:0:0:
275,299,67947,1,0,3:2:0:0:
275,299,68027,1,0,3:2:0:0:
275,299,68108,1,10,3:2:0:0:
197,192,68269,6,0,P|203:110|210:26,1,165.297005035401,6|8,3:2|2:0,2:0:0:0:
326,119,68753,1,8,2:0:0:0:
215,217,68914,1,8,2:0:0:0:
100,121,69076,1,8,3:2:0:0:
7,236,69237,1,8,2:0:0:0:
7,236,69318,1,8,2:0:0:0:
7,236,69398,2,0,L|13:293,3,41.4095012588501,8|0|0|0,3:2|3:2|3:2|3:2,2:0:0:0:
69,342,69721,6,0,P|110:353|181:329,1,82.6485025177002,14|2,2:0|3:2,2:0:0:0:
271,237,70043,2,0,P|230:231|190:242,1,82.6485025177002,10|2,2:0|3:2,2:0:0:0:
318,348,70366,1,10,2:0:0:0:
395,252,70527,1,2,3:2:0:0:
441,367,70689,1,8,2:0:0:0:
376,224,70850,6,0,L|383:134,1,82.6485025177002,2|8,3:2|2:0,2:0:0:0:
253,51,71173,1,2,3:2:0:0:
253,51,71253,1,0,3:2:0:0:
253,51,71334,2,0,L|259:133,1,82.6485025177002,8|2,2:0|3:2,2:0:0:0:
172,273,71656,1,8,2:0:0:0:
148,150,71818,1,0,3:2:0:0:
293,229,71979,2,0,P|334:226|376:224,1,82.6485025177002,8|0,2:0|3:2,2:0:0:0:
147,293,72302,6,0,P|107:302|67:297,1,82.6485025177002,10|2,2:0|3:2,2:0:0:0:
67,145,72624,2,0,P|107:140|147:149,1,82.6485025177002,10|2,2:0|3:2,2:0:0:0:
293,229,72947,1,10,2:0:0:0:
304,64,73108,1,10,3:2:0:0:
174,165,73269,1,8,2:0:0:0:
331,218,73431,6,0,L|428:225,1,82.6485025177002,6|0,3:2|2:0,2:0:0:0:
241,281,73753,2,0,L|186:361,1,82.6485025177002,6|0,3:2|2:0,2:0:0:0:
232,170,74076,2,0,L|189:82,1,82.6485025177002,6|0,3:2|2:0,2:0:0:0:
56,82,74398,1,2,3:2:0:0:
56,82,74479,1,0,3:2:0:0:
56,82,74560,1,12,2:0:0:0:
119,215,74721,1,8,3:2:0:0:
179,67,74882,6,0,P|259:31|340:64,2,180.138,6|10|6,3:2|2:0|2:3,2:0:0:0:
299,247,76173,2,0,B|336:250|358:263|358:263|390:260|431:240,1,120.216,6|0,2:0|2:0,2:0:0:0:
502,186,76656,2,0,L|508:149,2,30.054,2|0|10,3:2|3:2|2:0,2:0:0:0:
502,186,77463,6,0,P|465:199|415:195,1,67.6214979400634,4|0,3:2|2:0,2:0:0:0:
340,171,77785,1,8,2:0:0:0:
365,269,77947,1,0,3:2:0:0:
267,242,78108,1,8,2:0:0:0:
291,339,78269,1,0,3:2:0:0:
193,311,78431,1,10,2:0:0:0:
173,211,78592,1,2,3:2:0:0:
267,242,78753,6,0,L|335:234,3,37.645,10|8|8|8,2:0|2:0|3:2|2:0,2:0:0:0:
373,189,79076,2,0,L|441:197,3,37.645,10|8|10|8,2:0|2:0|2:0|2:0,2:0:0:0:
492,198,79398,5,8,2:0:0:0:
499,180,79479,1,8,2:0:0:0:
503,162,79560,1,8,2:0:0:0:
504,143,79640,1,8,2:0:0:0:
502,125,79721,1,10,2:0:0:0:
498,106,79802,1,8,2:0:0:0:
490,89,79882,1,10,2:0:0:0:
480,73,79963,1,8,2:0:0:0:
468,59,80043,6,0,P|425:77|369:70,1,90.3479999999999,4|0,3:2|2:0,2:0:0:0:
357,71,80366,2,0,B|337:119|337:119|351:172,1,97.6754955368043,14|0,2:0|2:0,2:0:0:0:
383,270,80689,2,0,L|460:261,1,75.1349999999999,0|0,3:2|3:2,2:0:0:0:
346,371,81011,1,8,2:0:0:0:
249,312,81173,1,2,2:0:0:0:
249,312,81253,1,2,2:0:0:0:
249,312,81334,6,0,B|157:301|193:355|78:339,1,150.27,2|10,3:2|2:0,2:0:0:0:
56,239,81818,2,0,P|90:235|135:231,1,75.1349999999999,2|0,2:0|3:2,2:0:0:0:
176,128,82140,2,0,P|138:124|101:120,1,75.1349999999999,2|8,2:0|2:0,2:0:0:0:
250,42,82463,1,6,2:0:0:0:
328,123,82624,6,0,B|337:161|337:161|332:196,1,75.1349999999999,0|0,3:2|2:0,2:0:0:0:
237,281,82947,2,0,B|228:243|228:243|233:202,1,75.1349999999999,8|0,2:0|2:0,2:0:0:0:
345,317,83269,1,0,3:2:0:0:
187,364,83431,1,10,2:0:0:0:
345,317,83592,1,10,2:0:0:0:
237,181,83753,6,0,P|227:143|245:76,1,75.1349999999999,6|0,3:2|2:0,2:0:0:0:
390,172,84076,2,0,P|362:199|295:217,1,75.1349999999999,2|8,3:2|2:0,2:0:0:0:
308,43,84398,2,0,P|345:53|394:102,1,75.1349999999999,6|0,3:2|2:0,2:0:0:0:
237,181,84721,1,2,3:2:0:0:
163,59,84882,2,0,P|106:63|51:69,1,112.935,10|0,2:0|2:0,2:0:0:0:
17,73,85205,6,0,P|8:113|18:155,1,75.1349999999999,6|0,3:2|2:0,2:0:0:0:
120,240,85527,2,0,P|125:203|117:167,1,75.1349999999999,10|2,2:0|2:0,2:0:0:0:
14,267,85850,1,2,3:2:0:0:
94,344,86011,2,0,L|193:333,1,75.1349999999999,2|8,2:0|2:0,2:0:0:0:
261,247,86334,6,0,L|248:164,1,75.1349999999999,2|0,2:0|3:2,2:0:0:0:
367,276,86656,2,0,L|354:359,1,75.1349999999999,2|8,2:0|2:0,2:0:0:0:
482,285,86979,1,2,2:0:0:0:
427,188,87140,1,8,2:0:0:0:
323,175,87302,1,10,2:0:0:0:
323,175,87382,1,8,2:0:0:0:
323,175,87463,2,0,P|282:168|241:175,1,75.1349999999999,10|2,2:0|3:2,2:0:0:0:
136,258,87785,6,0,L|147:363,1,75.1349999999999,14|0,3:2|3:2,2:0:0:0:
17,225,88108,2,0,L|28:120,1,75.1349999999999,10|0,2:0|3:2,2:0:0:0:
144,46,88431,1,10,2:0:0:0:
134,157,88592,1,0,3:2:0:0:
36,53,88753,1,10,2:0:0:0:
154,178,88914,6,0,L|240:171,1,75.1349999999999,6|0,3:2|2:0,2:0:0:0:
347,91,89237,2,0,P|284:63|228:72,1,112.935,8|8,2:0|2:0,2:0:0:0:
242,66,89560,1,8,2:0:0:0:
345,195,89721,1,8,2:0:0:0:
460,126,89882,1,8,2:0:0:0:
460,126,89963,1,8,2:0:0:0:
460,126,90043,1,10,2:0:0:0:
424,256,90205,1,8,2:0:0:0:
316,176,90366,6,0,P|245:201|165:164,2,135.033745880127,6|8|0,3:2|2:0|3:2,2:0:0:0:
369,82,91173,1,0,3:2:0:0:
281,18,91334,2,0,L|194:25,1,67.6214979400634,10|0,2:0|2:0,2:0:0:0:
92,38,91656,6,0,P|79:95|99:150,1,101.641496910095,2|0,3:2|2:0,2:0:0:0:
104,162,91979,2,0,P|100:195|97:229,1,67.6214979400634,10|0,2:0|2:0,2:0:0:0:
177,307,92302,1,2,3:2:0:0:
177,307,92463,1,0,3:2:0:0:
251,229,92624,2,0,P|248:195|244:161,1,67.6214979400634,10|0,2:0|2:0,2:0:0:0:
359,107,92947,6,0,P|368:147|363:183,1,67.6214979400634,2|0,3:2|2:0,2:0:0:0:
458,229,93269,2,0,P|457:195|465:162,1,67.6214979400634,10|0,2:0|2:0,2:0:0:0:
510,65,93592,1,0,3:2:0:0:
510,65,93753,1,0,3:2:0:0:
392,36,93914,6,0,B|348:63|348:63|246:49,1,135.242995880127,14|0,2:0|3:2,2:0:0:0:
158,31,94398,1,0,3:2:0:0:
99,121,94560,2,0,P|134:137|181:139,1,67.6214979400634,8|0,2:0|2:0,2:0:0:0:
215,235,94882,2,0,P|181:239|151:254,1,67.6214979400634,2|0,3:2|3:2,2:0:0:0:
48,332,95205,1,10,2:0:0:0:
53,224,95366,1,0,2:0:0:0:
151,343,95527,6,0,B|298:332,1,135.242995880127,6|8,3:2|2:0,2:0:0:0:
393,321,96011,1,2,2:0:0:0:
456,233,96173,1,2,3:2:0:0:
456,233,96334,1,0,2:0:0:0:
378,157,96495,2,0,P|344:153|311:161,1,67.6214979400634,10|0,2:0|2:0,2:0:0:0:
199,235,96818,6,0,B|225:195|225:195|208:84,1,135.242995880127,2|8,3:2|2:0,2:0:0:0:
275,20,97302,1,0,2:0:0:0:
382,58,97463,1,2,3:2:0:0:
382,58,97624,1,0,3:2:0:0:
398,164,97785,2,0,P|350:169|315:161,1,67.6214979400634,10|0,2:0|2:0,2:0:0:0:
212,109,98108,5,10,2:0:0:0:
212,216,98269,1,0,3:2:0:0:
118,162,98431,2,0,L|40:168,1,67.6214979400634,10|2,2:0|3:2,2:0:0:0:
2,285,98753,1,8,2:0:0:0:
27,307,98834,1,8,2:0:0:0:
58,320,98914,1,8,2:0:0:0:
91,322,98995,1,8,2:0:0:0:
124,313,99076,2,0,L|126:264,3,33.8804989700318,10|8|10|8,2:0|2:0|2:0|2:0,2:0:0:0:
186,225,99398,1,0,3:2:0:0:
268,314,99560,6,0,P|302:321|357:309,1,67.6214979400634,10|0,2:0|3:2,2:0:0:0:
447,274,99882,1,8,2:0:0:0:
344,209,100043,1,10,3:2:0:0:
447,274,100205,1,10,2:0:0:0:
506,168,100366,2,0,L|497:87,1,67.6214979400634,6|0,3:2|2:0,2:0:0:0:
386,24,100689,6,0,P|325:23|257:76,2,135.033745880127,6|8|0,3:2|2:0|3:2,2:0:0:0:
351,126,101495,1,0,3:2:0:0:
248,159,101656,2,0,L|166:149,1,67.6214979400634,10|0,2:0|2:0,2:0:0:0:
238,258,101979,6,0,L|380:244,2,135.033745880127,2|10|2,3:2|2:0|3:2,2:0:0:0:
131,273,102785,1,0,3:2:0:0:
41,211,102947,2,0,P|33:178|39:145,1,67.6214979400634,10|0,2:0|2:0,2:0:0:0:
69,41,103269,6,0,L|1:35,1,67.6214979400634,2|0,3:2|2:0,2:0:0:0:
134,116,103592,2,0,L|201:110,1,67.6214979400634,10|0,2:0|2:0,2:0:0:0:
312,98,103914,1,2,3:2:0:0:
312,98,104076,1,0,3:2:0:0:
394,167,104237,6,0,B|413:207|413:207|395:309,1,135.242995880127,14|0,2:0|3:2,2:0:0:0:
302,348,104721,1,0,3:2:0:0:
242,258,104882,2,0,P|291:239|320:241,1,67.6214979400634,8|2,2:0|2:0,2:0:0:0:
197,351,105205,1,2,3:2:0:0:
197,351,105366,1,0,3:2:0:0:
105,294,105527,2,0,P|86:245|88:216,1,67.6214979400634,10|0,2:0|2:0,2:0:0:0:
114,112,105850,6,0,B|199:98|169:150|266:129,1,135.242995880127,6|8,3:2|2:0,2:0:0:0:
349,108,106334,1,2,2:0:0:0:
441,175,106495,1,2,3:2:0:0:
441,175,106656,1,0,2:0:0:0:
385,268,106818,2,0,P|387:301|391:335,1,67.6214979400634,10|0,2:0|2:0,2:0:0:0:
266,203,107140,6,0,P|274:135|279:68,2,135.033745880127,2|8|2,3:2|2:0|3:2,2:0:0:0:
180,270,107947,1,0,3:2:0:0:
97,200,108108,2,0,P|57:198|18:209,1,67.6214979400634,10|0,2:0|2:0,2:0:0:0:
194,298,108431,6,0,P|229:295|273:293,1,67.6214979400634,6|0,3:2|3:2,2:0:0:0:
368,287,108753,1,10,2:0:0:0:
441,208,108914,2,0,P|463:149|420:66,1,135.242995880127,2|0,2:0|3:2,2:0:0:0:
343,33,109398,1,10,2:0:0:0:
242,122,109560,6,0,B|279:153|279:153|366:145,1,135.242995880127,6|8,3:2|2:3,2:0:0:0:
310,52,110043,1,8,2:3:0:0:
174,47,110205,2,0,P|143:104|143:131,1,67.6214979400634,4|8,3:2|2:0,2:0:0:0:
172,216,110527,1,0,3:2:0:0:
172,216,110689,2,0,L|55:226,1,101.641496910095,8|0,2:3|2:0,2:0:0:0:
71,224,111011,6,0,P|48:278|65:334,1,120.216,4|2,3:2|3:2,2:0:0:0:
240,377,111656,2,0,P|263:322|246:266,1,120.216,10|2,2:0|3:2,2:0:0:0:
235,176,112140,2,0,P|292:170|366:161,1,120.216,2|8,3:2|2:0,2:0:0:0:
439,133,112624,2,0,P|441:103|434:74,1,60.1079999999999,2|0,3:2|3:2,2:0:0:0:
364,16,112947,2,0,P|306:29|266:96,1,120.216,10|2,2:0|3:2,2:0:0:0:
232,157,113431,1,2,2:0:0:0:
162,99,113592,6,0,P|121:142|43:143,1,120.216,4|2,3:2|3:2,2:0:0:0:
5,320,114237,2,0,L|-2:390,2,60.1079999999999,10|8|10,3:2|2:0|2:0,2:0:0:0:
91,245,114721,6,0,B|176:237|176:237|205:246|221:276,1,135.242995880127,14|10,2:0|3:2,2:0:0:0:
265,354,115205,1,10,3:2:0:0:
351,302,115366,2,0,B|346:260|346:260|361:218|361:218|352:151,1,135.242995880127,14|0,3:2|3:2,2:0:0:0:
335,70,115850,1,8,3:2:0:0:
258,136,116011,1,0,3:2:0:0:
258,136,116092,1,0,3:2:0:0:
258,136,116173,6,0,P|218:133|169:129,1,67.6214979400634,4|0,3:2|2:0,2:0:0:0:
122,232,116495,2,0,P|155:229|189:226,1,67.6214979400634,10|0,2:0|3:2,2:0:0:0:
91,131,116818,1,2,3:2:0:0:
91,131,116979,1,0,3:2:0:0:
9,202,117140,2,0,P|4:238|12:274,1,67.6214979400634,10|0,2:0|2:0,2:0:0:0:
107,335,117463,6,0,L|191:329,1,67.6214979400634,6|0,3:2|2:0,2:0:0:0:
256,231,117785,2,0,L|189:226,1,67.6214979400634,10|0,2:0|3:2,2:0:0:0:
309,127,118108,1,2,3:2:0:0:
309,127,118269,1,0,3:2:0:0:
375,229,118431,2,0,P|382:265|370:312,1,67.6214979400634,10|0,2:0|2:0,2:0:0:0:
281,132,118753,6,0,L|286:51,1,67.6214979400634,2|0,3:2|2:0,2:0:0:0:
151,156,119076,2,0,L|155:223,1,67.6214979400634,8|0,2:0|2:0,2:0:0:0:
232,342,119398,1,10,2:0:0:0:
262,356,119479,1,8,2:0:0:0:
296,357,119560,1,8,2:0:0:0:
328,348,119640,1,8,2:0:0:0:
355,328,119721,1,8,2:0:0:0:
230,242,119882,6,0,P|150:247|75:254,1,150.27,6|2,3:2|3:2,2:0:0:0:
202,93,120366,2,0,L|116:87,1,75.1349999999999,10|0,2:0|3:2,2:0:0:0:
304,236,120689,2,0,L|218:242,1,75.1349999999999,10|0,2:0|3:2,2:0:0:0:
408,107,121011,2,0,L|322:101,1,75.1349999999999,10|2,2:0|3:2,2:0:0:0:
512,219,121334,6,0,L|426:225,1,75.1349999999999,8|2,2:0|3:2,2:0:0:0:
304,236,121656,1,10,2:0:0:0:
207,141,121818,1,8,2:0:0:0:
207,141,121898,1,8,2:0:0:0:
207,141,121979,2,0,L|209:104,3,37.645,4|4|6|4,2:3|2:3|2:3|2:3,2:0:0:0:
121,130,122302,2,0,L|123:168,1,37.8,6|4,2:3|2:3,2:0:0:0:
126,254,122463,1,14,2:0:0:0:
209,103,122785,6,0,P|281:89|343:118,1,137.918004196167,10|10,2:0|2:0,2:0:0:0:
311,225,123269,2,0,P|261:246|209:235,2,110.027503356934,10|10|10,2:0|2:0|2:0,2:0:0:0:
402,163,123914,1,14,2:0:0:0:
209,103,124237,6,0,L|90:111,1,112.935,2|0,3:2|3:2,2:0:0:0:
9,117,124560,2,0,P|4:146|6:168,3,37.645,2|0|0|0,3:2|3:2|3:2|3:2,2:0:0:0:
69,210,124882,2,0,P|74:239|72:261,3,37.645,10|0|0|0,2:0|3:2|3:0|3:2,2:0:0:0:
43,337,125205,1,10,2:0:0:0:
43,337,125285,1,8,2:0:0:0:
43,337,125366,1,8,2:0:0:0:
43,337,125447,1,8,2:0:0:0:
43,337,125527,6,0,B|135:312|117:377|219:340,1,165.297005035401,12|0,3:2|3:2,2:0:0:0:
314,273,126011,1,0,3:2:0:0:
166,254,126173,1,10,2:0:0:0:
276,180,126334,6,0,P|321:173|368:188,1,82.6485025177002,2|0,3:2|2:0,2:0:0:0:
460,263,126656,1,2,3:2:0:0:
437,132,126818,1,8,3:2:0:0:
348,280,126979,2,0,P|351:319|354:369,1,82.6485025177002,2|0,3:2|2:0,2:0:0:0:
457,233,127302,1,2,3:2:0:0:
317,173,127463,2,0,P|277:162|223:168,1,82.6485025177002,8|2,2:0|2:0,2:0:0:0:
91,195,127785,6,0,P|85:125|79:54,1,124.22850377655,0|0,3:2|2:0,2:0:0:0:
79,33,128108,2,0,P|119:22|174:29,1,82.6485025177002,8|0,2:0|2:0,2:0:0:0:
286,78,128431,1,2,3:2:0:0:
286,78,128592,1,0,3:2:0:0:
199,177,128753,1,10,2:0:0:0:
307,52,128914,6,0,P|349:42|407:55,1,82.6485025177002,6|0,3:2|2:0,2:0:0:0:
497,120,129237,1,2,3:2:0:0:
355,167,129398,1,8,2:0:0:0:
429,276,129560,2,0,P|473:272|518:269,1,82.6485025177002,6|0,3:2|2:0,2:0:0:0:
326,177,129882,1,2,3:2:0:0:
357,338,130043,1,8,2:0:0:0:
216,250,130205,1,10,2:0:0:0:
216,250,130285,1,8,2:0:0:0:
216,250,130366,6,0,B|123:238|153:288|57:278,1,165.297005035401,4|8,3:2|2:0,2:0:0:0:
4,156,130850,1,0,2:0:0:0:
135,167,131011,1,2,3:2:0:0:
135,167,131173,1,0,3:2:0:0:
24,267,131334,1,10,2:0:0:0:
75,84,131495,6,0,P|158:78|246:73,1,165.297005035401,2|0,3:2|3:2,2:0:0:0:
326,184,131979,2,0,P|284:181|243:178,1,82.6485025177002,10|0,2:0|3:2,2:0:0:0:
281,305,132302,2,0,P|246:282|212:259,1,82.6485025177002,2|0,2:0|3:2,2:0:0:0:
173,377,132624,2,0,P|154:340|136:303,1,82.6485025177002,10|0,2:0|3:2,2:0:0:0:
64,173,132947,5,2,3:2:0:0:
15,286,133108,1,0,3:2:0:0:
82,144,133269,2,0,P|125:140|166:136,1,82.6485025177002,10|0,2:0|3:2,2:0:0:0:
328,118,133592,1,10,2:0:0:0:
224,35,133753,1,0,3:2:0:0:
259,204,133914,1,10,2:0:0:0:
322,24,134076,6,0,B|417:6|417:6|454:17|481:49,1,165.297005035401,6|8,3:2|2:0,2:0:0:0:
512,204,134560,1,2,3:2:0:0:
512,204,134640,1,0,3:2:0:0:
512,204,134721,1,0,3:2:0:0:
512,204,134802,1,0,3:2:0:0:
512,204,134882,2,0,P|508:244|504:294,1,82.6485025177002,14|0,2:0|3:2,2:0:0:0:
373,337,135205,2,0,P|368:295|365:254,1,82.6485025177002,10|0,2:0|3:2,2:0:0:0:
265,175,135527,1,2,3:2:0:0:
265,175,135608,1,0,3:0:0:0:
265,175,135689,1,0,3:2:0:0:
265,175,135769,1,0,3:2:0:0:
265,175,135850,6,0,B|225:185|194:178|194:178|179:164|179:164|141:184|88:166,1,165.297005035401,12|0,2:0|3:2,2:0:0:0:
29,63,136334,1,0,3:2:0:0:
177,64,136495,1,10,2:0:0:0:
79,164,136656,6,0,P|74:206|70:248,1,82.6485025177002,2|0,3:2|2:0,2:0:0:0:
143,356,136979,1,2,3:2:0:0:
204,239,137140,1,8,2:0:0:0:
266,355,137302,2,0,L|351:347,1,82.6485025177002,2|0,3:2|2:0,2:0:0:0:
440,253,137624,1,2,3:2:0:0:
325,188,137785,2,0,P|308:233|315:287,1,82.6485025177002,8|6,2:0|2:0,2:0:0:0:
446,134,138108,5,0,3:2:0:0:
333,65,138269,1,0,3:2:0:0:
212,120,138431,2,0,L|111:114,1,82.6485025177002,8|0,2:0|2:0,2:0:0:0:
228,262,138753,1,8,3:2:0:0:
247,267,138834,1,8,3:2:0:0:
268,270,138914,1,8,3:2:0:0:
288,270,138995,1,8,3:2:0:0:
309,267,139076,1,10,2:0:0:0:
402,173,139237,6,0,P|440:165|490:173,1,82.6485025177002,6|0,3:2|2:0,2:0:0:0:
329,256,139560,1,2,3:2:0:0:
343,83,139721,1,8,2:0:0:0:
209,192,139882,2,0,L|103:183,1,82.6485025177002,6|0,3:2|2:0,2:0:0:0:
309,267,140205,1,2,3:2:0:0:
342,105,140366,2,0,P|302:102|243:98,1,82.6485025177002,8|0,2:0|3:2,2:0:0:0:
55,66,140689,6,0,P|29:120|42:184,1,124.22850377655,6|0,3:2|2:0,2:0:0:0:
53,215,141011,2,0,P|49:254|45:300,1,82.6485025177002,8|0,2:0|3:2,2:0:0:0:
177,207,141334,2,0,P|173:166|169:125,1,82.6485025177002,2|0,3:2|3:2,2:0:0:0:
239,13,141656,1,10,2:0:0:0:
342,95,141818,6,0,B|450:110|450:110|477:102|506:59,1,165.297005035401,2|0,3:2|3:2,2:0:0:0:
368,207,142302,2,0,P|409:203|450:200,1,82.6485025177002,10|0,2:0|3:2,2:0:0:0:
319,300,142624,2,0,P|360:304|401:307,1,82.6485025177002,2|0,3:2|3:2,2:0:0:0:
221,340,142947,2,0,P|214:291|226:248,1,82.6485025177002,10|0,2:0|3:2,2:0:0:0:
293,129,143269,6,0,P|290:87|286:46,1,82.6485025177002,6|0,3:2|3:2,2:0:0:0:
144,1,143592,2,0,P|141:43|138:84,1,82.6485025177002,10|0,2:0|3:2,2:0:0:0:
125,231,143914,1,10,2:0:0:0:
45,135,144076,1,0,3:2:0:0:
45,135,144156,1,0,3:2:0:0:
45,135,144237,1,10,3:2:0:0:
198,164,144398,6,0,B|248:182|248:182|365:165,1,165.297005035401,6|8,3:2|2:0,2:0:0:0:
271,44,144882,1,8,2:0:0:0:
170,153,145043,1,8,2:0:0:0:
111,15,145205,1,8,3:2:0:0:
10,124,145366,1,8,2:0:0:0:
10,124,145447,1,8,2:0:0:0:
10,124,145527,2,0,L|16:181,3,41.4095012588501,8|8|0|0,3:2|2:3|3:2|3:2,2:0:0:0:
64,232,145850,6,0,P|61:275|57:324,1,82.6485025177002,14|0,2:0|3:2,2:0:0:0:
200,201,146173,2,0,P|196:159|193:118,1,82.6485025177002,8|2,2:0|3:2,2:0:0:0:
329,211,146495,1,10,2:0:0:0:
209,299,146656,1,2,3:2:0:0:
287,134,146818,1,10,2:0:0:0:
387,289,146979,1,2,3:2:0:0:
387,289,147060,1,0,3:2:0:0:
387,289,147140,6,0,L|475:282,1,82.6485025177002,8|2,2:0|3:2,2:0:0:0:
282,372,147463,1,8,2:0:0:0:
181,263,147624,1,2,3:2:0:0:
181,263,147705,1,0,3:2:0:0:
181,263,147785,2,0,P|172:221|185:176,1,82.6485025177002,8|0,2:0|3:2,2:0:0:0:
286,77,148108,1,8,2:0:0:0:
273,224,148269,1,0,3:2:0:0:
181,85,148431,6,0,P|138:88|97:92,1,82.6485025177002,10|2,2:0|3:2,2:0:0:0:
278,192,148753,2,0,P|319:195|360:198,1,82.6485025177002,10|2,2:0|3:2,2:0:0:0:
501,111,149076,1,10,2:0:0:0:
336,104,149237,1,10,3:2:0:0:
462,209,149398,1,8,2:0:0:0:
332,81,149560,6,0,P|291:64|228:70,1,82.6485025177002,6|0,3:2|2:0,2:0:0:0:
200,219,149882,2,0,P|235:191|261:134,1,82.6485025177002,6|0,3:2|2:0,2:0:0:0:
146,34,150205,2,0,P|151:78|188:129,1,82.6485025177002,6|0,3:2|2:0,2:0:0:0:
330,226,150527,1,2,3:2:0:0:
330,226,150608,1,0,3:2:0:0:
330,226,150689,2,0,L|433:220,1,82.6485025177002,12|8,2:0|2:0,2:0:0:0:
241,316,151011,6,0,P|161:280|80:312,2,180.138,6|10|6,3:2|2:0|2:3,2:0:0:0:
452,364,152302,2,0,L|458:228,1,120.216,6|0,2:0|2:0,2:0:0:0:
498,144,152785,2,0,L|493:98,2,30.054,2|0|10,3:2|3:2|2:0,2:0:0:0:
498,144,153592,6,0,L|408:137,1,67.6214979400634,4|0,3:2|2:0,2:0:0:0:
330,129,153914,1,8,2:0:0:0:
355,227,154076,1,0,3:2:0:0:
257,200,154237,1,8,2:0:0:0:
281,297,154398,1,0,3:2:0:0:
183,269,154560,1,10,2:0:0:0:
163,169,154721,1,2,3:2:0:0:
257,200,154882,6,0,L|346:195,1,75.1349999999999,10|0,2:0|3:2,2:0:0:0:
425,132,155205,2,0,P|429:104|427:90,3,37.645,10|8|10|8,2:0|2:0|2:0|2:0,2:0:0:0:
367,38,155527,5,8,2:0:0:0:
352,49,155608,1,8,2:0:0:0:
336,59,155689,1,8,2:0:0:0:
319,66,155769,1,8,2:0:0:0:
300,70,155850,1,10,2:0:0:0:
281,70,155931,1,8,2:0:0:0:
263,68,156011,1,10,2:0:0:0:
245,63,156092,1,8,2:0:0:0:
228,55,156173,5,4,3:2:0:0:
256,192,156253,12,6,158753,3:2:0:0:
246,180,160043,6,0,P|208:173|168:180,1,67.6214979400634,6|0,3:2|3:2,2:0:0:0:
250,292,160366,1,8,2:0:0:0:
352,205,160527,2,0,L|358:129,1,67.6214979400634,6|0,3:2|2:0,2:0:0:0:
233,45,160850,2,0,P|243:143|248:202,1,135.242995880127,6|0,3:2|3:2,2:0:0:0:
329,30,161334,6,0,P|279:28|243:42,1,75.1349999999999,6|0,3:2|3:2,2:0:0:0:
147,109,161656,2,0,P|183:118|220:114,1,75.1349999999999,10|2,2:0|3:2,2:0:0:0:
108,13,161979,1,10,2:0:0:0:
53,111,162140,1,2,3:2:0:0:
0,10,162302,1,10,3:2:0:0:
71,141,162463,6,0,L|63:303,1,150.27,14|0,2:0|3:2,2:0:0:0:
232,253,162947,2,0,P|192:246|158:252,1,75.1349999999999,10|0,3:2|3:2,2:0:0:0:
290,337,163269,2,0,P|326:342|363:335,1,75.1349999999999,10|0,2:0|3:2,2:0:0:0:
462,254,163592,1,10,2:0:0:0:
456,381,163753,1,0,3:2:0:0:
362,236,163914,6,0,P|364:199|366:152,1,75.1349999999999,14|8,2:0|2:0,2:0:0:0:
408,90,164156,1,8,2:0:0:0:
408,90,164237,2,0,L|401:36,3,37.645,10|8|8|8,2:0|2:0|2:0|2:0,2:0:0:0:
325,21,164560,5,10,2:0:0:0:
303,34,164640,1,8,2:0:0:0:
278,42,164721,1,8,2:0:0:0:
251,43,164802,1,8,2:0:0:0:
226,37,164882,2,0,L|222:91,1,37.8,10|8,2:0|2:0,2:0:0:0:
164,132,165043,6,0,L|175:229,1,75.1349999999999,10|0,2:0|2:0,2:0:0:0:
194,370,165366,1,10,2:0:0:0:
71,260,165527,1,10,2:0:0:0:
71,260,166334,6,0,B|120:254|120:254|169:277|169:277|243:264,1,150.27,6|0,3:2|3:2,2:0:0:0:
180,100,166818,2,0,B|160:143|160:143|182:189,1,90.161997253418,12|0,2:0|2:0,2:0:0:0:
304,116,167140,1,0,3:2:0:0:
199,74,167302,1,2,3:2:0:0:
288,6,167463,1,10,2:0:0:0:
311,146,167624,6,0,P|384:140|470:134,1,150.27,2|2,3:2|3:2,2:0:0:0:
329,248,168108,2,0,P|284:243|248:239,1,75.1349999999999,10|2,2:0|3:2,2:0:0:0:
142,223,168431,1,2,2:0:0:0:
201,318,168592,1,2,3:2:0:0:
204,153,168753,1,10,2:0:0:0:
54,221,168914,6,0,B|32:182|32:182|45:73,1,150.27,2|2,3:2|2:0,2:0:0:0:
204,121,169398,2,0,P|166:127|128:122,1,75.1349999999999,10|2,2:0|2:0,2:0:0:0:
271,36,169721,1,2,3:2:0:0:
321,160,169882,1,2,3:2:0:0:
381,39,170043,1,8,2:0:0:0:
309,188,170205,6,0,L|317:278,1,75.1349999999999,6|0,3:2|2:0,2:0:0:0:
382,379,170527,1,2,3:2:0:0:
419,248,170689,1,8,2:0:0:0:
269,347,170850,2,0,B|230:356|207:340|207:340|186:353|186:353|154:333|113:336,1,150.27,6|0,3:2|3:2,2:0:0:0:
28,223,171334,2,0,P|80:218|119:214,1,75.1349999999999,8|2,2:0|3:2,2:0:0:0:
140,216,171576,1,2,3:2:0:0:
140,216,171656,6,0,B|170:139|111:154|136:68,1,150.27,6|8,3:2|2:0,2:0:0:0:
277,53,172140,2,0,P|256:83|224:103,1,75.1349999999999,2|0,2:0|3:2,2:0:0:0:
308,189,172463,2,0,P|271:196|235:187,1,75.1349999999999,2|8,3:2|2:0,2:0:0:0:
381,129,172785,6,0,P|398:161|399:210,1,75.1349999999999,6|0,3:2|2:0,2:0:0:0:
331,288,173108,1,2,3:2:0:0:
425,348,173269,2,0,L|501:342,1,75.1349999999999,10|0,2:0|3:2,2:0:0:0:
331,288,173592,2,0,L|256:282,1,75.1349999999999,2|0,2:0|3:2,2:0:0:0:
103,348,173914,2,0,L|179:342,1,75.1349999999999,10|0,2:0|3:2,2:0:0:0:
122,202,174237,6,0,P|71:195|32:208,1,75.1349999999999,2|0,3:2|3:2,2:0:0:0:
181,322,174560,1,8,2:0:0:0:
260,195,174721,2,0,P|254:117|248:40,1,150.27,2|10,3:2|3:2,2:0:0:0:
356,150,175205,1,10,2:0:0:0:
260,283,175366,6,0,B|215:300|215:300|92:277,1,150.27,14|10,3:2|2:0,2:0:0:0:
260,195,175850,1,10,2:0:0:0:
329,344,176011,1,10,2:0:0:0:
378,185,176173,2,0,P|415:188|461:191,1,75.1349999999999,10|0,2:0|2:0,2:0:0:0:
360,37,176495,2,0,P|303:40|247:45,1,112.935,10|0,2:0|2:0,2:0:0:0:
217,48,176818,6,0,B|207:100|207:100|225:139|225:139|215:209,1,150.27,6|8,3:2|2:0,2:0:0:0:
199,333,177302,1,0,3:2:0:0:
199,333,177382,1,0,3:2:0:0:
199,333,177463,2,0,L|148:328,3,37.645,10|2|2|2,2:0|2:0|3:2|2:0,2:0:0:0:
122,256,177785,2,0,P|127:231|141:206,1,37.8,10|2,2:0|2:0,2:0:0:0:
217,192,177947,5,2,3:2:0:0:
217,192,178027,1,2,2:0:0:0:
217,192,178108,2,0,L|268:197,3,37.645,2|2|2|2,2:0|2:0|3:2|2:0,2:0:0:0:
291,270,178431,2,0,L|342:265,3,37.645,10|2|2|2,2:0|2:0|3:2|2:0,2:0:0:0:
403,231,178753,2,0,B|413:195|413:195|404:148,1,75.1349999999999,10|2,2:0|3:2,2:0:0:0:
294,56,179076,2,0,B|284:92|284:92|293:139,1,75.1349999999999,10|2,2:0|3:2,2:0:0:0:
298,162,179318,1,0,3:2:0:0:
298,162,179398,6,0,P|258:159|208:156,1,75.1349999999999,6|0,3:2|3:2,2:0:0:0:
112,279,179721,2,0,P|149:276|186:273,1,75.1349999999999,10|2,2:0|3:2,2:0:0:0:
25,240,180043,1,10,2:0:0:0:
130,367,180205,1,10,2:0:0:0:
135,176,180366,1,10,2:0:0:0:
279,312,180527,6,0,B|291:347|291:347|282:384,1,75.1349999999999,6|0,3:2|2:0,2:0:0:0:
404,271,180850,2,0,B|392:236|392:236|400:198,1,75.1349999999999,6|2,3:2|2:0,2:0:0:0:
461,61,181173,1,6,3:2:0:0:
323,119,181334,1,8,2:0:0:0:
323,119,181414,1,8,2:0:0:0:
323,119,181495,2,0,B|241:105|259:157|167:142,1,150.27,0|0,3:2|3:2,2:0:0:0:
58,135,181979,6,0,P|66:227|74:331,1,180.324,6|2,3:2|2:0,2:0:0:0:
181,367,182624,2,0,P|191:330|191:304,1,60.1079999999999,8|0,2:0|2:0,2:0:0:0:
175,193,182947,1,2,3:2:0:0:
175,193,183108,1,0,3:2:0:0:
284,241,183269,6,0,L|360:236,2,60.1079999999999,2|8|0,2:0|2:0|3:2,2:0:0:0:
366,329,183753,1,2,3:2:0:0:
447,240,183914,1,10,2:0:0:0:
447,240,184076,2,0,P|456:202|447:169,1,60.1079999999999,2|0,3:2|3:2,2:0:0:0:
406,84,184398,1,2,2:0:0:0:
307,155,184560,6,0,L|221:148,1,67.6214979400634,4|0,3:2|2:0,2:0:0:0:
118,140,184882,1,0,3:2:0:0:
118,140,185043,1,8,3:2:0:0:
184,242,185205,1,8,2:0:0:0:
184,242,185366,1,8,2:0:0:0:
239,119,185527,1,8,2:0:0:0:
84,226,185689,6,0,P|91:310|96:375,1,150.27,14|0,3:2|3:2,2:0:0:0:
256,330,186173,2,0,P|212:330|167:350,1,75.1349999999999,8|2,2:0|3:2,2:0:0:0:
350,379,186495,1,8,2:0:0:0:
367,354,186576,1,8,2:0:0:0:
378,326,186656,1,8,2:0:0:0:
382,297,186737,1,8,2:0:0:0:
380,267,186818,2,0,L|517:257,1,112.935,8|8,2:0|2:0,2:0:0:0:
509,173,187140,6,0,P|459:168|423:164,1,75.1349999999999,4|0,3:2|3:2,2:0:0:0:
348,14,187463,2,0,P|368:59|383:92,1,75.1349999999999,10|0,2:0|3:2,2:0:0:0:
292,231,187785,2,0,P|321:190|342:161,1,75.1349999999999,10|0,2:0|3:2,2:0:0:0:
378,326,188108,1,10,2:0:0:0:
231,296,188269,1,0,3:2:0:0:
231,296,188350,1,0,3:2:0:0:
231,296,188431,6,0,P|183:293|154:301,1,75.1349999999999,10|0,2:0|3:2,2:0:0:0:
24,367,188753,2,0,P|50:326|58:297,1,75.1349999999999,10|0,2:0|3:2,2:0:0:0:
67,150,189076,2,0,P|88:193|109:214,1,75.1349999999999,10|0,2:0|3:2,2:0:0:0:
231,296,189398,1,10,2:0:0:0:
299,161,189560,1,0,3:2:0:0:
299,161,189640,1,0,3:2:0:0:
299,161,189721,6,0,L|205:151,1,75.1349999999999,10|0,2:0|3:2,2:0:0:0:
382,238,190043,2,0,L|288:248,1,75.1349999999999,8|2,2:0|3:2,2:0:0:0:
465,158,190366,2,0,L|371:148,1,75.1349999999999,8|2,2:0|3:2,2:0:0:0:
495,257,190689,1,8,2:0:0:0:
508,70,190850,6,0,P|481:45|359:46,1,150.27,6|0,3:2|3:2,2:0:0:0:
256,106,191334,1,8,2:0:0:0:
383,184,191495,2,0,L|378:289,1,75.1349999999999,6|0,3:2|2:0,2:0:0:0:
246,330,191818,1,0,3:2:0:0:
246,330,191898,1,0,3:2:0:0:
246,330,191979,2,0,L|242:255,1,75.1349999999999,8|0,2:0|3:2,2:0:0:0:
77,270,192302,6,0,P|107:280|157:276,1,75.1349999999999,4|0,3:2|3:2,2:0:0:0:
192,142,192624,2,0,P|154:138|117:135,1,75.1349999999999,10|0,2:0|3:2,2:0:0:0:
267,65,192947,2,0,P|289:34|310:3,1,75.1349999999999,10|0,2:0|3:2,2:0:0:0:
297,167,193269,2,0,P|312:201|328:235,1,75.1349999999999,10|0,2:0|3:2,2:0:0:0:
463,138,193592,6,0,P|425:133|387:140,1,75.1349999999999,10|0,2:0|3:2,2:0:0:0:
310,3,193914,2,0,P|348:8|386:1,1,75.1349999999999,10|0,2:0|3:2,2:0:0:0:
246,94,194237,1,10,2:0:0:0:
216,91,194318,1,8,2:0:0:0:
186,89,194398,1,8,2:0:0:0:
156,87,194479,1,8,2:0:0:0:
126,85,194560,2,0,P|115:137|121:166,1,75.1349999999999,10|0,2:0|3:2,2:0:0:0:
157,302,194882,6,0,B|103:295|103:295|68:311|68:311|1:299,1,150.27,6|8,3:2|2:0,2:0:0:0:
132,187,195366,2,0,P|184:177|232:169,1,75.1349999999999,2|0,3:2|2:0,2:0:0:0:
322,267,195689,2,0,P|285:260|248:253,1,75.1349999999999,2|8,3:2|2:0,2:0:0:0:
340,108,196011,6,0,P|353:156|347:188,1,75.1349999999999,6|0,3:2|2:0,2:0:0:0:
263,21,196334,1,8,2:0:0:0:
263,21,196414,1,8,2:0:0:0:
263,21,196495,1,0,3:2:0:0:
408,54,196656,1,0,3:2:0:0:
254,103,196818,1,8,2:0:0:0:
224,108,196898,1,8,2:0:0:0:
194,113,196979,1,0,3:2:0:0:
164,118,197060,1,0,3:2:0:0:
135,122,197140,2,0,P|125:84|133:42,1,75.1349999999999,10|2,2:0|3:2,2:0:0:0:
190,209,197463,6,0,P|76:207|50:181,1,150.27,6|10,3:2|2:0,2:0:0:0:
217,202,197947,2,0,L|224:282,2,75.1349999999999,2|0|0,2:0|3:2|3:2,2:0:0:0:
283,110,198431,1,10,2:0:0:0:
283,110,198592,1,10,2:0:0:0:
368,182,198753,6,0,P|436:210|517:161,1,150.27,2|10,3:2|2:0,2:0:0:0:
382,89,199237,1,10,2:0:0:0:
382,89,199398,2,0,P|335:93|290:99,1,75.1349999999999,0|0,3:2|3:2,2:0:0:0:
200,179,199721,2,0,P|237:183|274:186,1,75.1349999999999,10|2,2:0|2:0,2:0:0:0:
128,274,200043,6,0,B|105:166|105:166|124:130,1,150.27,2|10,3:2|2:0,2:0:0:0:
190,12,200527,2,0,P|152:8|115:6,2,75.1349999999999,10|0|0,2:0|3:2|3:2,2:0:0:0:
301,89,201011,2,0,P|263:91|226:94,1,75.1349999999999,10|2,2:0|2:0,2:0:0:0:
124,185,201334,6,0,P|167:205|274:198,1,150.27,2|10,3:2|2:0,2:0:0:0:
400,174,201818,2,0,P|395:208|389:265,1,75.1349999999999,10|0,2:0|3:2,2:0:0:0:
285,326,202140,1,8,2:0:0:0:
285,326,202221,1,8,2:0:0:0:
285,326,202302,2,0,L|279:280,3,37.645,10|8|10|0,2:0|2:0|2:0|2:0,2:0:0:0:
267,200,202624,5,10,2:3:0:0:
180,293,202785,1,8,2:3:0:0:
289,179,202947,2,0,B|295:140|295:140|280:96,1,75.1349999999999,12|2,2:0|2:0,2:0:0:0:
115,218,203269,5,10,2:3:0:0:
202,311,203431,1,8,2:3:0:0:
93,197,203592,2,0,B|87:158|87:158|102:114,1,75.1349999999999,12|0,2:0|2:0,2:0:0:0:
267,200,203914,5,10,2:3:0:0:
115,218,204076,1,8,2:3:0:0:
289,179,204237,2,0,L|389:192,1,75.1349999999999,12|0,2:0|2:0,2:0:0:0:
194,250,204560,5,10,3:0:0:0:
212,98,204721,1,8,3:0:0:0:
173,272,204882,1,12,2:0:0:0:
98,124,205043,1,0,3:2:0:0:
289,179,205205,6,0,B|339:172|339:172|390:192|390:192|449:184,1,165.297005035401,14|0,3:2|3:2,2:0:0:0:
375,299,205689,2,0,L|291:291,1,82.6485025177002,12|0,2:0|3:2,2:0:0:0:
467,383,206011,1,0,3:2:0:0:
467,383,206173,1,8,2:0:0:0:
476,185,206334,6,0,B|369:161|369:161|341:162|315:175,1,165.297005035401,4|0,3:2|3:2,2:0:0:0:
312,340,206818,2,0,P|328:307|331:255,1,82.6485025177002,8|0,2:0|3:2,2:0:0:0:
218,120,207140,5,8,2:0:0:0:
183,123,207248,1,8,2:0:0:0:
147,127,207355,1,0,3:2:0:0:
113,129,207463,2,0,P|101:90|115:36,1,82.6485025177002,0|0,3:2|3:2,2:0:0:0:
220,260,207785,6,0,L|215:352,1,82.6485025177002,14|0,2:0|3:2,2:0:0:0:
146,127,208108,1,10,2:0:0:0:
310,180,208269,1,8,3:2:0:0:
126,229,208431,1,10,2:0:0:0:
310,180,208592,1,8,3:2:0:0:
215,342,208753,1,10,2:0:0:0:
234,128,208914,6,0,L|246:35,1,82.6485025177002,14|0,3:2|2:0,2:0:0:0:
417,174,209237,1,10,2:0:0:0:
220,260,209398,1,14,2:0:0:0:
213,144,213592,5,10,3:2:0:0:
213,144,213673,1,8,3:2:0:0:
213,144,213753,2,0,L|221:198,3,33.8804989700318,2|0|2|0,3:2|3:2|3:2|3:2,2:0:0:0:
286,244,214076,6,0,P|275:300|270:337,1,82.6485025177002,6|0,3:2|2:0,2:0:0:0:
405,191,214398,2,0,P|416:247|421:284,1,82.6485025177002,6|0,3:2|2:0,2:0:0:0:
308,117,214721,1,6,3:2:0:0:
415,40,214882,1,0,3:2:0:0:
415,40,214963,1,0,3:2:0:0:
415,40,215043,1,6,3:2:0:0:
415,40,215124,1,0,3:2:0:0:
415,40,215205,2,0,B|455:31|455:31|506:46,1,82.6485025177002,12|2,2:0|2:0,2:0:0:0:
291,144,215527,6,0,P|195:132|132:126,1,124.22850377655,4|0,3:2|2:0,2:0:0:0:
135,121,215850,2,0,P|116:158|125:222,1,82.6485025177002,8|0,2:0|2:0,2:0:0:0:
145,318,216173,1,2,3:2:0:0:
226,227,216334,1,0,3:2:0:0:
53,275,216495,1,10,2:0:0:0:
226,227,216656,6,0,B|321:212|300:270|387:258,1,165.297005035401,2|0,3:2|3:2,2:0:0:0:
399,93,217140,2,0,P|374:126|364:166,1,82.6485025177002,10|0,2:0|3:2,2:0:0:0:
252,43,217463,2,0,P|257:83|278:118,1,82.6485025177002,2|0,2:0|3:2,2:0:0:0:
113,108,217785,2,0,P|145:132|185:143,1,82.6485025177002,10|0,2:0|2:0,2:0:0:0:
79,5,218108,5,2,3:2:0:0:
21,132,218269,1,0,3:2:0:0:
169,37,218431,2,0,L|255:43,1,82.6485025177002,10|0,2:0|3:2,2:0:0:0:
393,140,218753,1,10,2:0:0:0:
261,129,218914,1,0,3:2:0:0:
406,49,219076,1,10,2:0:0:0:
321,209,219237,6,0,P|326:249|331:290,1,82.6485025177002,6|0,3:2|2:0,2:0:0:0:
423,153,219560,1,8,2:0:0:0:
262,114,219721,1,2,3:2:0:0:
262,114,219802,1,0,3:2:0:0:
262,114,219882,1,0,3:2:0:0:
262,114,219963,1,0,3:2:0:0:
262,114,220043,6,0,P|212:113|182:127,1,82.6485025177002,10|0,2:0|3:2,2:0:0:0:
111,167,220285,1,0,3:2:0:0:
111,167,220366,2,0,P|66:164|23:160,1,82.6485025177002,10|0,2:0|3:2,2:0:0:0:
182,223,220689,1,2,3:2:0:0:
103,77,220850,1,0,3:2:0:0:
14,253,221011,6,0,B|32:373|32:373|74:321,1,165.297005035401,12|0,3:2|3:2,2:0:0:0:
156,237,221495,1,0,3:2:0:0:
182,374,221656,1,10,2:0:0:0:
289,282,221818,6,0,P|296:234|292:193,1,82.6485025177002,2|0,3:2|2:0,2:0:0:0:
240,70,222140,1,2,3:2:0:0:
182,223,222302,1,8,3:2:0:0:
240,70,222463,2,0,L|340:77,1,82.6485025177002,2|0,3:2|2:0,2:0:0:0:
208,210,222785,1,2,3:2:0:0:
114,104,222947,2,0,P|108:55|120:18,1,82.6485025177002,8|2,2:0|2:0,2:0:0:0:
240,70,223269,5,0,3:2:0:0:
240,70,223431,1,0,3:2:0:0:
116,135,223592,2,0,L|19:130,1,82.6485025177002,12|0,2:0|2:0,2:0:0:0:
194,219,223914,1,2,3:2:0:0:
260,94,224076,1,0,3:2:0:0:
333,213,224237,1,10,2:0:0:0:
160,226,224398,6,0,P|151:266|168:325,1,82.6485025177002,6|0,3:2|2:0,2:0:0:0:
116,135,224721,2,0,P|85:107|26:92,1,82.6485025177002,2|8,3:2|2:0,2:0:0:0:
216,141,225043,2,0,P|255:128|297:84,1,82.6485025177002,6|0,3:2|2:0,2:0:0:0:
383,0,225366,1,2,3:2:0:0:
466,112,225527,2,0,P|463:154|461:200,1,82.6485025177002,8|10,2:0|2:0,2:0:0:0:
319,279,225850,6,0,P|274:254|178:264,1,124.22850377655,4|0,3:2|2:0,2:0:0:0:
170,272,226173,2,0,L|179:357,1,82.6485025177002,8|0,2:0|3:2,2:0:0:0:
211,159,226495,1,2,3:2:0:0:
70,226,226656,1,0,3:2:0:0:
235,149,226818,1,8,2:0:0:0:
145,20,226979,6,0,P|65:44|37:138,1,165.297005035401,2|0,3:2|3:2,2:0:0:0:
235,149,227463,2,0,P|231:102|226:49,1,82.6485025177002,8|0,2:0|3:2,2:0:0:0:
177,223,227785,1,2,3:2:0:0:
326,150,227947,1,0,3:2:0:0:
137,132,228108,2,0,P|92:135|39:139,1,82.6485025177002,8|2,2:0|3:2,2:0:0:0:
194,254,228431,5,4,3:2:0:0:
343,181,228592,1,0,3:2:0:0:
283,351,228753,1,8,2:0:0:0:
177,223,228914,1,0,3:2:0:0:
350,278,229076,2,0,P|393:274|457:268,1,82.6485025177002,10|0,2:0|3:2,2:0:0:0:
286,378,229398,1,10,2:0:0:0:
255,180,229560,6,0,P|260:140|267:92,1,82.6485025177002,6|0,3:2|2:0,2:0:0:0:
410,18,229882,1,8,2:0:0:0:
410,18,229963,1,8,2:0:0:0:
410,18,230043,2,0,L|419:68,3,41.4095012588501,10|8|0|0,2:0|2:0|3:2|2:0,2:0:0:0:
476,117,230366,6,0,P|470:157|464:198,1,82.6485025177002,10|0,2:0|3:2,2:0:0:0:
412,262,230608,5,0,3:2:0:0:
412,262,230689,2,0,P|417:302|423:343,1,82.6485025177002,10|0,2:0|3:2,2:0:0:0:
297,204,231011,5,10,2:0:0:0:
280,198,231092,5,0,3:2:0:0:
280,179,231173,5,0,3:2:0:0:
297,173,231253,5,0,3:2:0:0:
309,188,231334,6,0,B|255:181|255:181|203:197|203:197|131:186,1,165.297005035401,12|0,2:0|3:2,2:0:0:0:
212,110,231818,1,0,3:2:0:0:
261,266,231979,1,10,2:0:0:0:
410,197,232140,6,0,P|415:151|404:107,1,82.6485025177002,2|0,3:2|2:0,2:0:0:0:
349,271,232463,1,2,3:2:0:0:
504,217,232624,1,8,3:2:0:0:
396,91,232785,2,0,P|356:93|300:98,1,82.6485025177002,2|0,3:2|2:0,2:0:0:0:
205,172,233108,1,2,3:2:0:0:
91,105,233269,2,0,P|79:63|102:-2,1,82.6485025177002,8|2,2:0|2:0,2:0:0:0:
199,145,233592,5,0,3:2:0:0:
59,196,233753,1,0,3:2:0:0:
206,269,233914,2,0,P|245:264|310:258,1,82.6485025177002,8|0,2:0|2:0,2:0:0:0:
129,349,234237,1,2,3:2:0:0:
88,206,234398,1,0,3:2:0:0:
159,358,234560,1,10,2:0:0:0:
299,243,234721,6,0,P|307:190|301:157,1,82.6485025177002,6|0,3:2|2:0,2:0:0:0:
149,101,235043,2,0,P|190:134|222:145,1,82.6485025177002,2|8,3:2|2:0,2:0:0:0:
348,42,235366,2,0,P|298:61|272:83,1,82.6485025177002,6|0,3:2|2:0,2:0:0:0:
207,230,235689,1,2,3:2:0:0:
131,83,235850,1,8,2:0:0:0:
19,203,236011,1,10,2:0:0:0:
19,203,236092,1,8,2:0:0:0:
19,203,236173,6,0,P|24:269|29:329,1,124.22850377655,4|0,3:2|2:0,2:0:0:0:
33,359,236495,2,0,P|74:367|128:357,1,82.6485025177002,8|0,2:0|2:0,2:0:0:0:
238,315,236818,1,2,3:2:0:0:
120,254,236979,1,0,3:2:0:0:
266,328,237140,1,10,2:0:0:0:
327,174,237302,6,0,B|220:156|220:156|185:160|154:183,1,165.297005035401,2|0,3:2|3:2,2:0:0:0:
346,275,237785,2,0,P|404:261|440:257,1,82.6485025177002,10|0,2:0|3:2,2:0:0:0:
238,315,238108,2,0,P|288:346|317:368,1,82.6485025177002,10|0,2:0|3:2,2:0:0:0:
131,265,238431,2,0,P|145:323|149:359,1,82.6485025177002,10|0,2:0|3:2,2:0:0:0:
46,175,238753,5,14,3:2:0:0:
200,196,238914,1,0,3:2:0:0:
84,66,239076,2,0,B|41:59|41:59|-15:75,1,82.6485025177002,10|0,2:0|3:2,2:0:0:0:
172,187,239398,1,10,2:0:0:0:
202,41,239560,1,0,3:2:0:0:
308,144,239721,1,10,2:0:0:0:
146,178,239882,6,0,L|157:297,1,82.6485025177002,6|0,3:2|2:0,2:0:0:0:
271,351,240205,1,0,3:2:0:0:
271,351,240285,1,0,3:2:0:0:
271,351,240366,2,0,L|277:289,3,41.4095012588501,2|2|2|2,3:2|2:0|3:2|2:0,2:0:0:0:
294,228,240689,2,0,P|343:230|387:215,1,82.6485025177002,10|0,2:0|3:2,2:0:0:0:
469,85,241011,2,0,P|429:75|388:77,1,82.6485025177002,10|0,2:0|3:2,2:0:0:0:
243,121,241334,1,2,3:2:0:0:
243,121,241414,1,0,3:2:0:0:
243,121,241495,1,0,3:2:0:0:
243,121,241576,1,0,3:2:0:0:
243,121,241656,6,0,L|232:11,1,82.6485025177002,12|0,2:0|3:2,2:0:0:0:
72,167,241979,2,0,L|83:57,1,82.6485025177002,8|0,2:0|3:2,2:0:0:0:
251,203,242302,2,0,L|240:93,1,82.6485025177002,10|2,2:0|3:2,2:0:0:0:
210,324,242624,6,0,P|269:332|299:325,1,82.6485025177002,8|2,2:0|3:2,2:0:0:0:
380,150,242947,2,0,P|343:197|334:226,1,82.6485025177002,8|2,2:0|3:2,2:0:0:0:
447,382,243269,2,0,P|424:326|403:304,1,82.6485025177002,8|2,2:0|3:2,2:0:0:0:
229,225,243592,1,8,2:0:0:0:
406,138,243753,6,0,B|529:122|529:122|472:158,1,165.297005035401,14|8,3:2|2:0,2:0:0:0:
336,218,244237,1,8,2:0:0:0:
382,51,244398,1,8,2:0:0:0:
225,126,244560,1,8,2:0:0:0:
194,137,244640,1,8,2:0:0:0:
161,140,244721,1,8,2:0:0:0:
128,134,244802,1,8,2:0:0:0:
98,121,244882,1,10,2:0:0:0:
254,110,245043,6,0,P|250:151|247:192,1,82.6485025177002,10|0,3:2|2:0,2:0:0:0:
115,304,245366,2,0,P|152:286|189:268,1,82.6485025177002,10|0,3:2|2:0,2:0:0:0:
353,326,245689,2,0,P|318:302|284:279,1,82.6485025177002,10|0,3:2|2:0,2:0:0:0:
373,161,246011,1,2,3:2:0:0:
489,254,246173,2,0,B|500:293|500:293|489:338,1,82.6485025177002,8|2,3:2|3:2,2:0:0:0:
348,183,246495,6,0,P|341:121|335:59,1,124.22850377655,6|0,3:2|2:0,2:0:0:0:
332,22,246818,2,0,P|289:15|243:29,1,82.6485025177002,8|0,2:0|3:2,2:0:0:0:
123,80,247140,1,2,3:2:0:0:
245,149,247302,1,0,3:2:0:0:
155,1,247463,1,10,2:0:0:0:
67,150,247624,6,0,P|74:217|84:326,1,165.297005035401,2|0,3:2|3:2,2:0:0:0:
248,260,248108,2,0,P|199:240|145:245,1,82.6485025177002,10|0,2:0|3:2,2:0:0:0:
335,185,248431,2,0,P|376:152|399:103,1,82.6485025177002,2|0,3:2|3:2,2:0:0:0:
358,297,248753,2,0,P|365:349|396:393,1,82.6485025177002,10|0,2:0|3:2,2:0:0:0:
486,238,249076,5,6,3:2:0:0:
366,270,249237,1,0,3:2:0:0:
392,128,249398,2,0,P|387:86|382:38,1,82.6485025177002,10|0,2:0|3:2,2:0:0:0:
239,6,249721,1,10,2:0:0:0:
215,28,249802,1,0,3:2:0:0:
198,56,249882,1,0,3:2:0:0:
190,88,249963,1,0,3:2:0:0:
190,121,250043,1,10,3:2:0:0:
225,249,250205,6,0,P|152:244|45:237,1,165.297005035401,6|8,3:2|2:0,2:0:0:0:
191,122,250689,1,8,2:0:0:0:
246,277,250850,1,8,2:0:0:0:
359,158,251011,1,8,3:2:0:0:
389,144,251092,1,8,2:0:0:0:
421,141,251173,1,8,2:0:0:0:
454,147,251253,1,8,2:0:0:0:
483,162,251334,1,8,3:2:0:0:
420,249,251495,1,0,3:2:0:0:
275,154,251656,6,0,L|263:52,1,82.6485025177002,14|2,2:0|3:2,2:0:0:0:
112,7,251979,2,0,L|100:109,1,82.6485025177002,10|2,2:0|3:2,2:0:0:0:
73,252,252302,1,10,2:0:0:0:
2,150,252463,1,2,3:2:0:0:
163,183,252624,1,8,2:0:0:0:
51,280,252785,6,0,L|62:376,1,82.6485025177002,2|8,3:2|2:0,2:0:0:0:
222,322,253108,1,2,3:2:0:0:
73,252,253269,1,8,2:0:0:0:
193,171,253431,1,2,3:2:0:0:
193,171,253511,1,0,3:2:0:0:
193,171,253592,2,0,P|240:160|283:166,1,82.6485025177002,8|0,2:0|3:2,2:0:0:0:
426,224,253914,1,8,2:0:0:0:
289,257,254076,1,0,3:2:0:0:
375,116,254237,6,0,P|371:73|366:24,1,82.6485025177002,10|2,2:0|3:2,2:0:0:0:
200,88,254560,2,0,P|195:129|192:170,1,82.6485025177002,10|2,2:0|3:2,2:0:0:0:
167,333,254882,1,10,2:0:0:0:
287,220,255043,1,10,3:2:0:0:
123,243,255205,1,8,2:0:0:0:
287,319,255366,6,0,P|327:323|368:328,1,82.6485025177002,6|0,3:2|2:0,2:0:0:0:
508,211,255689,2,0,P|467:215|426:220,1,82.6485025177002,6|0,3:2|2:0,2:0:0:0:
262,236,256011,1,6,3:2:0:0:
365,106,256173,1,8,2:3:0:0:
365,106,256253,1,8,2:3:0:0:
365,106,256334,2,0,P|372:60|277:44,1,165.297005035401,2|0,3:2|3:2,2:0:0:0:
180,113,256818,6,0,P|47:99|0:94,1,180.324,6|2,3:2|3:2,2:0:0:0:
70,227,257463,2,0,P|126:245|206:224,1,120.216,8|2,2:0|2:0,2:0:0:0:
378,92,258108,5,2,3:2:0:0:
378,92,258269,2,0,L|370:23,2,60.1079999999999,8|0|2,2:0|3:2|3:2,2:0:0:0:
449,157,258753,2,0,P|456:204|449:228,1,60.1079999999999,10|0,2:0|3:2,2:0:0:0:
393,291,259076,1,2,2:0:0:0:
393,291,259237,1,2,3:2:0:0:
345,194,259398,6,0,L|255:187,1,67.6214979400634,4|0,3:2|2:0,2:0:0:0:
177,179,259721,1,8,2:0:0:0:
202,277,259882,1,0,3:2:0:0:
104,250,260043,1,8,2:0:0:0:
128,347,260205,1,0,3:2:0:0:
30,319,260366,1,10,2:0:0:0:
11,219,260527,1,10,3:2:0:0:
104,250,260689,6,0,L|193:245,1,75.1349999999999,10|8,2:0|3:2,2:0:0:0:
317,189,261011,1,10,2:0:0:0:
170,155,261173,1,10,2:0:0:0:
278,278,261334,1,8,2:0:0:0:
304,298,261414,1,8,2:0:0:0:
336,309,261495,1,8,2:0:0:0:
369,309,261576,1,8,2:0:0:0:
401,299,261656,2,0,B|410:259|410:259|401:217,1,75.1349999999999,10|10,2:0|2:0,2:0:0:0:
345,70,261979,6,0,P|409:61|496:52,1,150.27,6|8,3:2|2:0,2:0:0:0:
391,201,262463,2,0,P|337:207|301:197,1,75.1349999999999,6|0,3:2|2:0,2:0:0:0:
184,134,262785,1,10,3:2:0:0:
224,255,262947,1,8,3:2:0:0:
261,79,263108,6,0,P|214:42|112:72,1,150.27,14|0,3:2|3:2,2:0:0:0:
27,185,263592,1,8,2:0:0:0:
184,134,263753,1,0,3:2:0:0:
30,75,263914,1,8,2:0:0:0:
126,209,264076,5,2,3:2:0:0:
139,235,264156,1,0,3:2:0:0:
146,264,264237,1,10,2:0:0:0:
145,294,264318,1,0,3:2:0:0:
136,323,264398,1,2,3:2:0:0:
120,348,264479,1,0,3:2:0:0:
98,369,264560,1,6,3:2:0:0:
98,369,267140,6,0,L|188:362,1,67.6214979400634,14|0,3:2|3:2,2:0:0:0:
265,354,267463,1,8,2:0:0:0:
240,256,267624,1,0,3:2:0:0:
338,283,267785,1,8,2:0:0:0:
314,186,267947,1,0,3:2:0:0:
412,214,268108,1,10,2:0:0:0:
432,314,268269,1,0,3:2:0:0:
338,283,268431,6,0,L|249:278,1,75.1349999999999,10|0,2:0|3:2,2:0:0:0:
144,255,268753,2,0,P|116:251|102:253,3,37.645,10|8|10|8,2:0|2:0|2:0|2:0,2:0:0:0:
25,268,269076,5,8,2:0:0:0:
18,251,269156,1,8,2:0:0:0:
13,233,269237,1,8,2:0:0:0:
11,215,269318,1,8,2:0:0:0:
12,195,269398,1,10,2:0:0:0:
17,177,269479,1,8,2:0:0:0:
23,160,269560,1,10,2:0:0:0:
33,144,269640,1,8,2:0:0:0:
45,130,269721,6,0,B|75:122|97:121|97:121|133:141|133:141|159:131|210:127,1,146.815493305207,6|0,3:2|2:0,2:0:0:0:
217,125,270043,2,0,L|224:44,1,75.1349999999999,8|0,2:0|2:0,2:0:0:0:
371,23,270366,2,0,P|389:58|389:113,1,75.1349999999999,2|0,3:2|2:0,2:0:0:0:
292,205,270689,2,0,P|296:167|313:134,1,75.1349999999999,10|0,2:0|2:0,2:0:0:0:
352,309,271011,6,0,P|241:297|195:292,1,150.27,2|10,3:2|2:0,2:0:0:0:
117,187,271495,2,0,P|149:173|203:175,1,75.1349999999999,2|0,2:0|3:2,2:0:0:0:
84,280,271818,2,0,P|46:279|12:264,1,75.1349999999999,2|8,2:0|2:0,2:0:0:0:
2,152,272140,1,2,2:0:0:0:
107,113,272302,6,0,L|119:201,1,75.1349999999999,4|0,3:2|2:0,2:0:0:0:
237,86,272624,2,0,L|249:-2,1,75.1349999999999,8|0,2:0|2:0,2:0:0:0:
356,125,272947,1,8,3:2:0:0:
216,197,273108,1,10,3:2:0:0:
352,275,273269,1,10,2:0:0:0:
189,214,273431,6,0,P|150:202|83:199,1,75.1349999999999,6|0,3:2|2:0,2:0:0:0:
292,174,273753,2,0,P|320:148|343:118,1,75.1349999999999,2|8,3:2|2:0,2:0:0:0:
274,284,274076,2,0,P|282:320|296:355,1,75.1349999999999,6|0,3:2|2:0,2:0:0:0:
368,241,274398,1,2,3:2:0:0:
189,214,274560,2,0,P|126:220|58:230,1,112.935,8|0,2:0|2:0,2:0:0:0:
47,231,274882,6,0,P|32:188|35:145,1,75.1349999999999,6|0,3:2|3:2,2:0:0:0:
199,137,275205,2,0,P|212:171|213:209,1,75.1349999999999,10|2,2:0|3:2,2:0:0:0:
150,353,275527,1,10,2:0:0:0:
47,231,275689,1,10,2:0:0:0:
223,294,275850,1,10,2:0:0:0:
116,140,276011,6,0,L|123:67,1,60.1079999999999,6|0,3:2|2:0,2:0:0:0:
201,26,276334,2,0,P|264:18|325:51,2,120.03,8|4|0,2:3|2:3|3:2,2:0:0:0:
121,80,277140,2,0,L|46:75,1,60.1079999999999,2|0,3:2|2:0,2:0:0:0:
180,168,277463,6,0,L|255:163,1,75.1349999999999,6|0,3:2|2:0,2:0:0:0:
368,220,277785,1,0,3:2:0:0:
368,220,277947,1,0,3:2:0:0:
263,292,278108,1,8,2:0:0:0:
263,292,278269,1,8,2:0:0:0:
258,167,278431,1,8,2:0:0:0:
258,167,278592,1,8,2:0:0:0:
150,234,278753,5,10,2:0:0:0:
145,106,278914,1,8,2:0:0:0:
258,167,279076,1,8,2:0:0:0:
263,292,279237,1,8,2:0:0:0:
368,220,279398,5,10,2:0:0:0:
403,201,279479,1,8,2:0:0:0:
442,212,279560,1,8,2:0:0:0:
463,246,279640,1,8,2:0:0:0:
454,286,279721,1,8,2:0:0:0:
420,308,279802,1,8,2:0:0:0:
381,301,279882,1,6,3:2:0:0:
256,192,279963,12,0,283914,2:0:0:0:
