osu file format v14

[General]
AudioFilename: audio.mp3
AudioLeadIn: 0
PreviewTime: 47716
Countdown: 1
SampleSet: Soft
StackLeniency: 0.7
Mode: 0
LetterboxInBreaks: 0
WidescreenStoryboard: 0

[Editor]
DistanceSpacing: 0.8
BeatDivisor: 4
GridSize: 16
TimelineZoom: 2.1

[Metadata]
Title:Soundscape
TitleUnicode:サウンドスケープ
Artist:TRUE
ArtistUnicode:TRUE
Creator:Liena
Version:a
Source:響け!ユーフォニアム2
Tags:hibike! euphonium 2 sound
BeatmapID:1257289
BeatmapSetID:594421

[Difficulty]
HPDrainRate:7
CircleSize:4
OverallDifficulty:7.5
ApproachRate:9.1
SliderMultiplier:1.72
SliderTickRate:1

[Events]
//Background and Video events
0,0,"784800.png",0,0
//Break Periods
//Storyboard Layer 0 (Background)
//Storyboard Layer 1 (Fail)
//Storyboard Layer 2 (Pass)
//Storyboard Layer 3 (Foreground)
//Storyboard Sound Samples

[TimingPoints]
942,322.58064516129,4,2,1,80,1,0
4974,-90.9090909090909,4,2,1,80,0,0
5458,-100,4,2,1,80,0,0
13845,-125,4,2,1,60,0,0
21587,-100,4,2,1,60,0,0
22554,-100,4,2,1,60,0,0
24167,-100,4,2,1,70,0,0
34480,-125,4,2,1,70,0,0
39651,-100,4,2,1,70,0,0
49006,-100,4,2,1,70,0,1
74490,-133.333333333333,4,2,1,60,0,0
77071,-100,4,2,1,70,0,0
87232,-80,4,2,1,70,0,0

[HitObjects]
296,348,458,6,0,L|276:309,2,43,0|0|8,0:0|0:0|0:0,0:0:0:0:
296,348,942,5,8,0:0:0:0:
348,200,1103,1,8,0:0:0:0:
408,296,1264,2,0,B|360:323|360:323|244:300,1,172,8|8,0:0|0:0,0:0:0:0:
245,300,1910,1,8,0:0:0:0:
348,200,2071,6,0,P|404:176|504:252,1,172,8|8,0:0|0:0,0:0:0:0:
160,280,2716,1,8,0:0:0:0:
28,220,2877,1,8,0:0:0:0:
152,184,3039,1,8,0:0:0:0:
88,344,3200,1,8,0:0:0:0:
352,132,3522,5,8,0:0:0:0:
392,260,3684,1,8,0:0:0:0:
276,236,3845,2,8,P|265:182|236:52,1,172
239,67,4490,1,8,0:0:0:0:
212,308,4651,1,8,0:0:0:0:
212,308,4974,6,0,P|200:190|204:125,1,172,12|0,0:0|0:0,0:0:0:0:
305,81,5458,1,8,0:0:0:0:
333,50,5539,1,8,0:0:0:0:
373,36,5619,1,8,0:0:0:0:
413,47,5700,1,8,0:0:0:0:
443,77,5781,2,8,L|437:127,3,43
398,192,6103,6,0,P|326:186|185:173,1,172,4|8,0:0|0:0,0:0:0:0:
132,240,6587,1,2,0:0:0:0:
151,56,6748,2,0,P|142:101|136:158,1,86,2|0,0:0|0:0,0:0:0:0:
53,331,7071,2,0,P|48:300|36:235,1,86,8|0,0:0|0:0,0:0:0:0:
218,312,7393,6,2,P|259:307|402:299,1,172,2|8,0:0|0:0,0:0:0:0:
470,173,7877,2,0,P|429:174|378:181,1,86,2|2,0:0|0:0,0:0:0:0:
236,131,8200,1,0,0:0:0:0:
384,179,8361,1,8,0:0:0:0:
322,42,8522,1,0,0:0:0:0:
148,196,8684,6,0,P|201:161|302:200,1,172,6|8,0:0|0:0,0:0:0:0:
385,320,9168,2,0,P|336:324|281:331,1,86,0|2,0:0|0:0,0:0:0:0:
165,356,9490,1,8,0:0:0:0:
223,237,9651,1,8,0:0:0:0:
385,320,9813,6,0,P|389:258|394:121,1,172,4|8,0:0|0:0,0:0:0:0:
268,48,10297,1,8,0:0:0:0:
223,237,10458,1,4,0:0:0:0:
223,237,10781,1,0,0:0:0:0:
393,148,10942,2,0,L|257:171,1,129,10|0,0:0|0:0,0:0:0:0:
223,237,11264,6,0,L|218:352,1,86,4|0,0:0|0:0,0:0:0:0:
96,120,11587,2,0,L|107:225,1,86,8|0,0:0|0:0,0:0:0:0:
219,322,11910,1,8,3:0:0:0:
343,212,12071,1,8,0:0:0:0:
223,237,12232,1,8,0:0:0:0:
400,305,12393,6,0,P|444:251|425:155,1,172,6|0,0:0|0:0,0:0:0:0:
283,66,12877,2,0,P|275:110|271:154,1,86,8|0,0:0|0:0,0:0:0:0:
223,237,13200,2,2,P|201:233|169:224,4,43
410,300,13845,6,0,P|414:247|415:157,2,137.6,2|2|2,0:0|0:0|0:0,0:0:0:0:
319,220,14651,1,0,0:0:0:0:
252,304,14813,2,0,P|219:297|168:288,1,68.8,2|0,0:0|0:0,0:0:0:0:
98,203,15135,6,0,P|163:191|254:179,1,137.6,2|2,0:0|0:0,0:0:0:0:
344,112,15619,1,0,0:0:0:0:
236,32,15781,2,0,L|216:124,1,68.8,2|0,0:0|0:0,0:0:0:0:
344,112,16103,2,0,L|356:188,1,68.8,2|0,0:0|0:0,0:0:0:0:
264,264,16426,6,0,P|194:253|116:244,1,137.6,2|2,0:0|0:0,0:0:0:0:
116,256,17071,2,0,P|108:288|97:350,1,68.8,2|0,0:0|0:0,0:0:0:0:
204,172,17393,6,0,P|196:124|184:36,2,137.6,4|2|2,0:0|0:0|0:0,0:0:0:0:
320,164,18200,1,8,0:0:0:0:
280,272,18361,2,0,P|240:276|208:284,1,68.8,2|0,0:0|0:0,0:0:0:0:
116,284,18684,2,0,P|92:256|64:208,1,68.8,2|0,0:0|0:0,0:0:0:0:
40,120,19006,6,0,P|92:120|148:56,1,137.6,2|2,0:0|0:0,0:0:0:0:
336,56,19651,2,0,P|304:48|252:40,1,68.8,2|0,0:0|0:0,0:0:0:0:
352,184,19974,2,0,P|386:174|436:160,1,68.8,2|0,0:0|0:0,0:0:0:0:
248,136,20297,5,6,0:0:0:0:
248,136,20619,2,0,B|228:176|228:204,1,68.8,2|0,0:0|0:0,0:0:0:0:
320,289,20942,2,0,P|325:255|329:214,1,68.8,2|0,0:0|0:0,0:0:0:0:
218,367,21264,2,0,P|211:333|204:275,1,68.8,2|0,0:0|0:0,0:0:0:0:
63,136,21587,6,0,L|49:251,1,86,4|0,0:0|0:0,0:0:0:0:
163,303,21909,2,8,L|231:297,3,43
235,279,22232,2,8,L|305:289,3,43
308,300,22554,1,8,0:0:0:0:
341,306,22635,1,8,0:0:0:0:
375,300,22716,1,8,0:0:0:0:
404,282,22796,1,8,0:0:0:0:
417,250,22877,5,2,0:0:0:0:
365,87,23038,1,8,0:0:0:0:
365,87,23361,5,8,0:0:0:0:
417,250,23522,1,8,0:0:0:0:
463,147,23684,1,8,0:0:0:0:
268,71,23845,2,0,P|263:113|255:170,1,86,8|0,0:0|0:0,0:0:0:0:
148,249,24168,6,0,P|118:205|10:223,1,172,4|8,0:0|0:0,0:0:0:0:
80,320,24651,1,2,0:0:0:0:
232,301,24813,2,0,P|233:264|237:206,1,86,2|0,0:0|0:0,0:0:0:0:
335,116,25135,2,0,P|339:154|345:211,1,86,8|0,0:0|0:0,0:0:0:0:
268,339,25458,6,0,P|235:334|171:326,1,86,2|0,0:0|0:0,0:0:0:0:
47,216,25781,2,0,P|80:209|158:204,1,86,8|0,0:0|0:0,0:0:0:0:
255,137,26103,1,2,0:0:0:0:
143,63,26264,1,2,0:0:0:0:
131,203,26426,2,0,P|133:238|139:298,1,86,8|0,0:0|0:0,0:0:0:0:
312,238,26748,6,0,P|280:232|191:227,1,86,2|0,0:0|0:0,0:0:0:0:
394,356,27071,2,0,P|426:355|498:345,1,86,8|0,0:0|0:0,0:0:0:0:
258,262,27393,2,0,P|255:295|251:367,1,86,2|0,0:0|0:0,0:0:0:0:
427,161,27716,6,0,P|395:157|229:148,1,172,12|2,0:0|0:0,0:0:0:0:
190,73,28200,1,2,0:0:0:0:
226,226,28361,2,0,P|269:230|312:238,1,86,8|0,0:0|0:0,0:0:0:0:
436,96,28684,2,0,P|439:137|444:201,1,86,2|0,0:0|0:0,0:0:0:0:
344,320,29006,2,0,P|317:321|224:333,1,86,8|0,0:0|0:0,0:0:0:0:
78,338,29329,6,0,P|79:297|86:135,1,172,2|8,0:0|0:0,0:0:0:0:
220,82,29813,1,2,0:0:0:0:
324,185,29974,1,2,0:0:0:0:
344,51,30135,1,0,0:0:0:0:
226,180,30297,2,0,P|230:210|237:282,1,86,8|0,0:0|0:0,0:0:0:0:
331,369,30619,6,0,P|271:346|137:354,1,172,2|8,0:0|0:0,0:0:0:0:
119,256,31103,1,2,0:0:0:0:
226,180,31264,2,0,P|257:177|328:172,1,86,2|0,0:0|0:0,0:0:0:0:
115,59,31587,2,0,P|115:100|119:155,1,86,8|0,0:0|0:0,0:0:0:0:
213,265,31910,6,0,P|219:231|228:150,1,86,6|0,0:0|0:0,0:0:0:0:
394,76,32232,2,0,P|396:110|399:173,1,86,8|0,0:0|0:0,0:0:0:0:
374,319,32555,1,2,0:0:0:0:
263,188,32716,1,8,0:3:0:0:
251,370,32877,1,8,0:3:0:0:
415,237,33039,6,0,P|427:181|351:97,1,172,4|0,0:0|0:0,0:0:0:0:
260,62,33522,1,8,0:0:0:0:
177,182,33684,2,0,P|224:185|275:189,1,86,2|0,0:0|0:0,0:0:0:0:
165,85,34006,1,2,0:0:0:0:
94,279,34168,2,0,P|137:274|188:271,1,86,2|0,0:0|0:0,0:0:0:0:
37,84,34490,5,6,0:0:0:0:
37,84,34813,2,0,P|95:64|167:86,2,137.6,2|8|2,0:0|0:0|0:0,0:0:0:0:
51,184,35619,1,0,0:0:0:0:
151,229,35781,6,0,L|170:142,1,68.8
48,283,36103,2,0,L|66:355,1,68.8,2|0,0:0|0:0,0:0:0:0:
222,331,36426,2,0,P|232:257|243:182,1,137.6,8|0,0:0|0:0,0:0:0:0:
160,100,36910,1,2,0:0:0:0:
276,20,37071,6,0,L|264:100,1,68.8,4|0,0:0|0:0,0:0:0:0:
192,204,37393,2,0,P|155:198|100:192,1,68.8,2|0,0:0|0:0,0:0:0:0:
276,118,37716,1,8,0:0:0:0:
264,288,37877,1,2,0:0:0:0:
404,188,38039,1,8,0:0:0:0:
344,328,38200,6,0,P|292:316|176:304,1,137.6,4|0,0:0|0:0,0:0:0:0:
208,305,38684,1,2,0:0:0:0:
410,118,38845,2,0,P|416:190|425:262,1,137.6,4|2,0:0|0:0,0:0:0:0:
419,360,39329,1,8,0:0:0:0:
196,148,39651,6,0,P|182:190|167:250,1,86,6|0,0:0|0:0,0:0:0:0:
284,348,39974,2,0,P|280:304|272:248,1,86,8|0,0:0|0:0,0:0:0:0:
108,328,40297,2,0,P|152:320|212:312,1,86,2|0,0:0|0:0,0:0:0:0:
280,180,40619,1,8,0:0:0:0:
204,296,40781,1,0,0:0:0:0:
400,348,40942,6,0,P|392:308|380:248,1,86,2|0,0:0|0:0,0:0:0:0:
256,144,41264,2,0,P|296:132|356:124,1,86,8|0,0:0|0:0,0:0:0:0:
496,196,41587,2,2,P|454:192|388:180,1,86
428,16,41910,2,0,P|423:57|416:120,1,86,8|0,0:0|0:0,0:0:0:0:
228,232,42232,6,0,P|218:152|208:36,1,172,4|8,0:0|0:0,0:0:0:0:
209,61,42716,1,2,0:0:0:0:
108,176,42877,2,8,L|48:168,4,43
312,256,43361,6,0,L|140:262,1,172,4|0,0:0|0:0,0:0:0:0:
240,80,43845,2,0,L|252:176,1,86,8|0,0:0|0:0,0:0:0:0:
396,256,44168,2,0,L|376:360,1,86,10|0,0:0|0:0,0:0:0:0:
140,261,44490,2,0,L|248:245,1,86,8|0,0:0|0:0,0:0:0:0:
468,164,44813,6,0,L|364:152,1,86,10|0,0:0|0:0,0:0:0:0:
192,120,45135,1,8,0:0:0:0:
328,40,45297,1,2,0:0:0:0:
328,40,45377,1,2,0:0:0:0:
328,40,45458,2,0,L|332:96,1,43
296,252,45619,2,0,L|284:184,1,43,2|0,0:0|0:0,0:0:0:0:
216,84,45781,1,2,0:0:0:0:
80,260,45942,1,4,0:0:0:0:
80,260,46318,6,0,L|160:360,1,114.666666666667,8|8,0:0|0:0,0:0:0:0:
324,168,46748,2,0,L|264:296,1,114.666666666667,8|8,0:0|0:0,0:0:0:0:
160,48,47178,2,0,L|180:188,1,114.666666666667,8|8,0:0|0:0,0:0:0:0:
176,161,47716,6,0,L|311:91,1,129,2|0,0:0|0:0,0:0:0:0:
324,107,48039,2,0,L|346:238,1,129,6|0,0:0|0:0,0:0:0:0:
312,244,48361,2,0,L|172:213,1,129,10|0,0:0|0:0,0:0:0:0:
196,352,48684,5,8,0:0:0:0:
196,352,48764,1,8,0:0:0:0:
196,352,48845,1,8,0:0:0:0:
196,352,48926,1,8,0:0:0:0:
196,352,49006,2,0,P|112:364|60:288,1,172,12|2,0:0|0:0,0:0:0:0:
144,160,49490,1,2,0:0:0:0:
220,264,49651,1,8,0:0:0:0:
316,136,49813,6,0,P|372:132|504:124,1,172,4|0,0:0|0:0,0:0:0:0:
336,244,50297,1,8,0:0:0:0:
220,120,50458,2,0,P|221:83|222:13,1,86,0|2,0:0|0:0,0:0:0:0:
56,104,50781,2,0,L|76:196,1,86,0|8,0:0|0:0,0:0:0:0:
136,304,51103,1,0,0:0:0:0:
232,204,51264,6,0,P|261:201|336:198,1,86,2|2,0:0|0:0,0:0:0:0:
432,340,51587,2,0,P|395:336|320:332,1,86,8|0,0:0|0:0,0:0:0:0:
168,300,51910,1,2,0:0:0:0:
317,198,52071,1,0,0:0:0:0:
263,362,52232,1,8,0:0:0:0:
136,182,52393,6,0,P|184:176|308:166,1,172,4|2,0:0|0:0,0:0:0:0:
420,247,52877,1,8,0:0:0:0:
263,362,53039,2,0,L|251:266,1,86,4|0,0:0|0:0,0:0:0:0:
356,69,53361,2,0,L|348:157,1,86,2|8,0:0|0:0,0:0:0:0:
165,305,53684,5,8,0:0:0:0:
165,305,53764,1,8,0:0:0:0:
165,305,53845,2,0,P|129:281|1:245,1,172,8|8,0:0|0:0,0:0:0:0:
16,120,54329,1,0,0:0:0:0:
148,176,54490,2,0,P|194:169|252:164,1,86,2|0,0:0|0:0,0:0:0:0:
364,145,54813,1,8,0:0:0:0:
276,328,54974,6,0,P|220:320|100:308,1,172,4|0,0:0|0:0,0:0:0:0:
148,176,55458,2,0,P|194:169|252:164,1,86,8|0,0:0|0:0,0:0:0:0:
401,219,55781,1,2,0:0:0:0:
340,81,55942,1,0,0:0:0:0:
279,242,56103,2,0,L|291:328,1,86,8|0,0:0|0:0,0:0:0:0:
401,219,56426,5,10,0:0:0:0:
235,166,56587,1,0,0:0:0:0:
192,359,56748,1,8,0:0:0:0:
97,191,56910,1,0,0:0:0:0:
76,342,57071,2,0,P|112:337|177:331,1,86,10|0,0:0|0:0,0:0:0:0:
279,242,57393,1,8,0:0:0:0:
97,191,57555,6,0,P|100:158|106:7,1,172,4|0,0:0|0:0,0:0:0:0:
217,24,58039,1,10,0:0:0:0:
289,124,58200,1,2,0:0:0:0:
289,124,58281,1,2,0:0:0:0:
289,124,58361,2,0,L|409:112,1,86,2|0,0:0|0:0,0:0:0:0:
453,338,58684,2,0,L|345:330,1,86,4|0,0:0|0:0,0:0:0:0:
168,280,59006,5,8,0:0:0:0:
168,280,59087,1,8,0:0:0:0:
168,280,59168,1,8,0:0:0:0:
168,280,59248,1,8,0:0:0:0:
168,280,59329,2,0,P|196:232|304:240,1,172,12|2,0:0|0:0,0:0:0:0:
456,300,59813,1,2,0:0:0:0:
384,200,59974,1,8,0:0:0:0:
340,368,60135,6,0,P|275:365|152:364,1,172,4|0,0:0|0:0,0:0:0:0:
136,184,60619,1,8,0:0:0:0:
36,284,60781,2,0,L|140:280,1,86,0|2,0:0|0:0,0:0:0:0:
224,92,61103,2,0,L|100:88,1,86,0|8,0:0|0:0,0:0:0:0:
32,180,61426,1,0,0:0:0:0:
216,260,61587,6,0,P|244:216|260:180,1,86,2|2,0:0|0:0,0:0:0:0:
108,48,61910,2,0,L|128:160,1,86,8|0,0:0|0:0,0:0:0:0:
216,260,62232,1,2,0:0:0:0:
328,128,62393,1,8,0:0:0:0:
404,308,62555,1,8,0:0:0:0:
257,185,62716,6,0,P|189:174|65:169,1,172,4|0,0:0|0:0,0:0:0:0:
108,268,63200,1,8,0:0:0:0:
200,120,63361,2,0,L|204:32,1,86,4|2,0:0|0:0,0:0:0:0:
336,200,63684,2,0,L|316:320,1,86,0|8,0:0|0:0,0:0:0:0:
200,120,64006,1,2,0:0:0:0:
304,76,64168,6,0,L|400:72,1,86,2|0,0:0|0:0,0:0:0:0:
460,264,64490,2,0,P|394:260|260:252,1,172,8|2,0:0|0:0,0:0:0:0:
104,184,64974,1,2,0:0:0:0:
160,318,65135,1,8,0:0:0:0:
239,182,65297,6,0,P|241:94|247:-2,1,172,4|0,0:0|0:0,0:0:0:0:
350,79,65781,2,0,P|363:118|372:168,1,86,8|0,0:0|0:0,0:0:0:0:
214,246,66107,2,0,P|243:218|288:208,1,86,2|0,0:0|0:0,0:0:0:0:
476,267,66426,2,0,P|434:266|392:252,1,86,8|0,0:0|0:0,0:0:0:0:
245,85,66748,6,0,B|284:98|284:98|432:72,1,172,12|8,0:0|0:0,0:0:0:0:
472,160,67232,1,2,0:0:0:0:
282,205,67393,1,8,0:0:0:0:
249,211,67474,1,0,0:0:0:0:
217,200,67554,1,0,0:0:0:0:
194,176,67635,1,0,0:0:0:0:
187,143,67716,1,8,0:0:0:0:
382,159,67877,6,0,P|374:203|360:340,1,165,6|0,0:0|0:0,0:0:0:0:
160,256,68361,1,8,0:0:0:0:
308,112,68522,1,2,0:0:0:0:
272,308,68684,1,8,0:0:0:0:
191,166,68845,2,0,L|147:163,5,43
356,224,69329,6,0,P|352:272|348:344,1,86,6|0,0:0|0:0,0:0:0:0:
196,348,69651,2,0,P|188:304|188:232,1,86,8|0,0:0|0:0,0:0:0:0:
172,80,69974,2,0,P|219:91|276:104,1,86,8|0,0:0|0:0,0:0:0:0:
440,210,70297,2,0,P|398:217|340:226,1,86,8|0,0:0|0:0,0:0:0:0:
192,172,70619,5,8,0:0:0:0:
352,52,70781,1,0,0:0:0:0:
352,52,70861,1,0,0:0:0:0:
352,52,70942,2,0,L|346:165,1,82.5,8|0,0:0|0:0,0:0:0:0:
292,296,71264,2,0,P|251:287|176:280,1,86,8|0,0:0|0:0,0:0:0:0:
36,212,71587,2,0,P|81:202|136:192,1,86,8|0,0:0|0:0,0:0:0:0:
280,104,71910,5,8,0:0:0:0:
207,281,72071,1,0,0:0:0:0:
176,84,72232,1,8,0:0:0:0:
332,244,72393,1,0,0:0:0:0:
368,64,72555,1,8,0:0:0:0:
256,184,72716,1,8,0:0:0:0:
444,216,72877,1,8,0:0:0:0:
245,148,73039,6,0,P|237:192|233:248,1,86,4|0,0:0|0:0,0:0:0:0:
386,310,73361,2,0,P|360:274|330:242,1,86,4|0,0:0|0:0,0:0:0:0:
178,334,73684,2,0,P|224:328|294:318,1,86,4|0,0:0|0:0,0:0:0:0:
386,310,74006,2,8,P|414:303|450:290,2,43
233,233,74329,1,0,0:0:0:0:
320,120,74490,6,0,P|384:136|460:104,1,129.00000492096,4|0,3:2|0:0,0:0:0:0:
504,260,74974,2,0,P|440:244|364:276,1,129.00000492096,8|8,0:0|3:0,0:0:0:0:
312,352,75458,2,0,P|270:357|232:344,1,64.5000024604798,8|0,3:0|0:0,0:0:0:0:
104,288,75781,5,4,0:0:0:0:
104,288,76264,1,2,0:0:0:0:
104,288,76345,1,2,0:0:0:0:
104,288,76426,2,0,L|96:196,1,64.5000024604798,2|0,0:0|0:0,0:0:0:0:
220,168,76748,2,0,L|216:256,1,64.5000024604798
124,88,77071,6,0,P|172:48|292:72,1,172,4|8,0:0|0:0,0:0:0:0:
384,176,77555,1,8,0:0:0:0:
216,136,77716,1,8,0:0:0:0:
360,76,77877,1,8,0:0:0:0:
285,301,78039,1,8,0:0:0:0:
148,184,78200,1,8,0:0:0:0:
84,284,78361,6,8,P|59:275|24:248,3,43
32,240,78684,2,8,P|24:196|24:160,3,43
72,112,79006,6,8,L|136:96,1,43
176,208,79168,2,8,L|96:204,1,43
200,76,79329,2,8,L|248:72,1,43
308,168,79490,2,8,P|282:164|244:164,1,43
408,80,79651,6,0,P|436:164|396:256,1,172,2|12,0:0|0:0,0:0:0:0:
288,256,80135,1,0,0:0:0:0:
380,348,80297,2,0,P|420:344|472:344,1,86,2|2,0:0|0:0,0:0:0:0:
412,240,80619,1,8,0:0:0:0:
288,256,80781,1,0,0:0:0:0:
288,256,80861,1,0,0:0:0:0:
288,256,80942,6,0,P|286:192|280:72,1,172,2|8,0:0|0:0,0:0:0:0:
180,176,81426,2,0,P|136:165|76:152,1,86,0|2,0:0|0:0,0:0:0:0:
204,48,81748,2,0,P|246:43|324:48,1,86,0|8,0:0|0:0,0:0:0:0:
456,164,82071,6,0,P|372:200|292:184,1,172,4|0,0:0|0:0,0:0:0:0:
144,168,82555,2,0,P|151:211|156:256,1,86,8|0,0:0|0:0,0:0:0:0:
192,376,82877,1,2,0:0:0:0:
60,312,83039,1,8,0:0:0:0:
236,256,83200,1,8,0:0:0:0:
36,156,83361,6,0,B|84:168|84:168|204:140,1,172,4|8,0:0|0:0,0:0:0:0:
280,64,83845,1,8,0:0:0:0:
344,244,84006,1,8,0:0:0:0:
344,244,84329,1,0,0:0:0:0:
406,49,84490,2,0,L|400:208,1,129,8|0,0:0|0:0,0:0:0:0:
344,244,84813,6,0,L|228:227,1,86,2|0,0:0|0:0,0:0:0:0:
86,171,85135,2,0,P|123:141|163:121,1,86,8|0,0:0|0:0,0:0:0:0:
329,152,85458,1,2,0:0:0:0:
213,44,85619,1,0,0:0:0:0:
166,214,85780,1,8,0:0:0:0:
344,244,85941,6,0,P|388:218|401:97,1,172,4|0,0:0|0:0,0:0:0:0:
213,44,86425,1,8,0:0:0:0:
329,152,86587,1,8,0:0:0:0:
133,132,86748,1,8,0:0:0:0:
96,155,86829,1,8,0:0:0:0:
78,193,86909,1,8,0:0:0:0:
82,235,86990,1,8,0:0:0:0:
104,271,87071,1,8,0:0:0:0:
281,257,87232,5,12,0:0:0:0:
