osu file format v14

[General]
AudioFilename: audio.mp3
AudioLeadIn: 0
PreviewTime: 50651
Countdown: 0
SampleSet: Soft
StackLeniency: 0.7
Mode: 2
LetterboxInBreaks: 0
WidescreenStoryboard: 1

[Editor]
DistanceSpacing: 1.2
BeatDivisor: 4
GridSize: 32
TimelineZoom: 1

[Metadata]
Title:Sincerely (TV Size)
TitleUnicode:Sincerely (TV Size)
Artist:TRUE
ArtistUnicode:TRUE
Creator:Nelly
Version:Spec's Cup
Source:ヴァイオレット・エヴァーガーデン
Tags:violet evergarden opening anime japanese pop jpop j-pop karasawa miho 唐沢美帆 kyoto animation 京都アニメーション kyoani 京アニ 堀江晶太 kemu Evan Call Lonely Queen's Liberation Party ascendance ajamez jemzuu -luminate chickenbible secre spectator xetopia imai lisa
BeatmapID:2619443
BeatmapSetID:1258768

[Difficulty]
HPDrainRate:3
CircleSize:2
OverallDifficulty:5.5
ApproachRate:5.5
SliderMultiplier:2.69999990463257
SliderTickRate:2

[Events]
//Background and Video events
0,0,"bg.jpg",0,0
Video,-68,"opening.avi"
//Break Periods
//Storyboard Layer 0 (Background)
//Storyboard Layer 1 (Fail)
//Storyboard Layer 2 (Pass)
//Storyboard Layer 3 (Foreground)
//Storyboard Layer 4 (Overlay)
//Storyboard Sound Samples

[TimingPoints]
804,833.333333333333,4,2,1,40,1,0
804,-100,4,2,1,40,0,0
13512,-100,4,2,1,60,0,0
14137,-100,4,2,1,50,0,0
16220,-100,4,2,1,50,0,0
17470,-100,4,2,1,50,0,0
20803,-100,4,2,1,55,0,0
21637,-100,4,2,1,60,0,0
22470,-100,4,2,1,65,0,0
22887,-100,4,2,1,75,0,0
23095,-100,4,2,2,75,0,0
23303,779.220779220779,4,2,1,75,1,0
23692,-100,4,2,2,60,0,0
24137,833.333333333333,4,2,1,40,1,0
24137,-100,4,2,1,70,0,0
33303,-100,4,2,1,70,0,0
33928,-100,4,2,1,70,0,0
40387,-100,4,2,1,70,0,0
40803,-100,4,2,1,70,0,0
43303,-100,4,2,1,60,0,0
43720,-100,4,2,1,50,0,0
44137,-100,4,2,1,40,0,0
46637,-100,4,2,2,70,0,0
47470,-100,4,2,1,80,0,0
48095,-100,4,2,1,80,0,0
48720,-100,4,2,1,80,0,0
49970,779.220779220779,4,2,1,80,1,0
49970,-100,4,2,1,80,0,0
50800,833.333333333333,4,2,1,90,1,1
50800,-100,4,2,1,90,0,1
63716,-100,4,2,1,90,0,0
64133,-100,4,2,1,90,0,1
77466,-100,4,2,1,40,0,0
82522,857.142857142857,4,2,1,30,1,0
83834,1000,4,2,1,25,1,0
84801,1090.90909090909,4,2,1,20,1,0
85346,1363.63636363636,4,2,1,15,1,0
88527,-55.5555555555556,4,2,1,5,0,0

[Colours]
Combo1 : 255,128,128
Combo2 : 125,190,255
Combo3 : 255,249,128
Combo4 : 149,149,255
Combo5 : 192,192,192

[HitObjects]
129,238,804,6,0,P|74:209|132:112,1,202.499992847443,0|2,0:0|0:0,0:0:0:0:
383,238,2470,2,0,P|438:209|380:112,1,202.499992847443,0|2,0:0|0:0,0:0:0:0:
107,164,4137,6,0,P|120:98|255:47,1,202.499992847443,0|2,0:0|0:0,0:0:0:0:
469,163,5803,2,0,P|456:97|321:46,1,202.499992847443,0|2,0:0|0:0,0:0:0:0:
94,91,7470,6,0,L|94:351,1,202.499992847443,0|2,0:0|0:0,0:0:0:0:
418,91,9137,2,0,L|418:351,1,202.499992847443,0|2,0:0|0:0,0:0:0:0:
94,91,10803,6,0,L|281:188,2,202.499992847443,0|2|0,0:0|0:0|0:0,0:0:0:0:
219,147,12470,1,0,0:0:0:0:
344,134,12887,1,0,0:0:0:0:
195,129,13304,1,0,0:0:0:0:
194,90,13512,1,2,0:0:0:0:
402,168,14137,6,0,P|479:185|389:288,1,269.999990463257,2|8,0:0|0:0,0:0:0:0:
220,300,15387,1,2,0:0:0:0:
220,300,15803,1,0,0:0:0:0:
403,302,16220,1,2,0:0:0:0:
255,302,16637,1,8,0:0:0:0:
24,114,17470,6,0,L|322:113,1,269.999990463257,2|8,0:0|0:0,0:0:0:0:
145,111,18720,1,2,0:0:0:0:
145,259,19137,1,0,0:0:0:0:
293,259,19553,1,2,0:0:0:0:
478,259,19970,1,10,0:0:0:0:
330,259,20387,1,2,0:0:0:0:
144,257,20803,6,0,P|154:171|328:90,1,269.999990463257,2|2,0:0|0:0,0:0:0:0:
449,86,22053,1,2,0:0:0:0:
300,82,22470,2,0,L|135:84,1,134.999995231628,2|2,0:0|0:0,0:0:0:0:
31,149,23303,1,8,0:0:0:0:
162,218,23692,1,4,3:0:0:0:
337,220,24137,6,0,P|406:178|306:45,1,269.999990463257,6|8,0:0|0:0,0:0:0:0:
185,38,25387,1,2,0:0:0:0:
333,39,25803,2,0,L|332:199,1,134.999995231628,0|2,0:0|0:0,0:0:0:0:
184,195,26637,2,0,L|349:198,1,134.999995231628,8|2,0:0|0:0,0:0:0:0:
143,193,27470,6,0,P|169:101|342:39,1,269.999990463257,2|8,0:0|0:0,0:0:0:0:
315,182,28720,1,0,0:0:0:0:
166,181,29137,1,2,0:0:0:0:
166,329,29553,1,2,0:0:0:0:
314,329,29970,1,8,0:0:0:0:
166,329,30387,1,2,0:0:0:0:
341,334,30803,6,0,P|425:319|505:148,1,269.999990463257,2|8,0:0|0:0,0:0:0:0:
359,171,32053,1,0,0:0:0:0:
210,174,32470,1,2,0:0:0:0:
195,26,32887,1,2,0:0:0:0:
343,32,33303,2,0,P|382:96|328:138,1,134.999995231628,8|0,0:0|0:0,0:0:0:0:
200,134,34137,6,0,P|335:174|364:321,1,269.999990463257,2|8,0:0|0:0,0:0:0:0:
223,289,35387,1,0,0:0:0:0:
227,140,35803,1,8,0:0:0:0:
375,137,36220,1,2,0:0:0:0:
227,140,36637,2,0,L|61:135,1,134.999995231628,10|2,0:0|0:0,0:0:0:0:
267,131,37470,6,0,P|338:176|246:311,1,269.999990463257,2|8,0:0|0:0,0:0:0:0:
118,315,38720,1,2,0:0:0:0:
120,166,39137,1,2,0:0:0:0:
268,166,39553,1,2,0:0:0:0:
416,163,39970,1,8,0:0:0:0:
417,14,40387,1,0,0:0:0:0:
228,17,40803,6,0,P|342:51|376:185,1,269.999990463257,2|8,0:0|0:0,0:0:0:0:
166,25,42053,1,2,0:0:0:0:
163,214,42470,1,0,0:0:0:0:
311,211,42887,1,0,0:0:0:0:
163,214,43303,1,8,0:0:0:0:
295,211,43720,1,2,0:0:0:0:
101,203,44137,5,2,0:0:0:0:
53,204,45803,1,2,0:0:0:0:
357,149,46637,2,0,P|380:222|337:300,1,134.999995231628,2|2,0:0|3:2,0:0:0:0:
214,329,47470,6,0,L|49:301,1,134.999995231628,10|2,0:0|0:0,0:0:0:0:
157,274,48095,1,10,0:0:0:0:
320,237,48512,2,0,P|317:163|187:111,1,202.499992847443,2|10,0:0|0:0,0:0:0:0:
187,203,49553,1,8,0:0:0:0:
340,203,49970,1,10,0:0:0:0:
487,200,50359,1,2,0:0:0:0:
289,104,50800,6,0,P|266:185|297:231,1,134.999995231628,6|2,0:0|0:0,0:0:0:0:
474,226,51633,1,10,0:0:0:0:
284,228,52050,2,0,P|189:180|308:130,1,269.999990463257,6|2,0:0|0:0,0:0:0:0:
432,102,53300,2,0,L|431:249,1,134.999995231628,8|0,0:0|0:0,0:0:0:0:
248,225,54133,5,6,0:0:0:0:
133,235,54550,1,2,0:0:0:0:
132,160,54758,1,2,0:0:0:0:
280,158,55175,1,2,0:0:0:0:
354,155,55383,2,0,P|428:184|327:297,1,269.999990463257,6|0,0:0|0:0,0:0:0:0:
203,311,56633,2,0,L|364:310,1,134.999995231628,10|0,0:0|0:0,0:0:0:0:
148,314,57466,6,0,L|150:166,1,134.999995231628,6|2,0:0|0:0,0:0:0:0:
326,186,58300,1,10,0:0:0:0:
128,183,58716,2,0,P|151:97|316:30,1,269.999990463257,6|2,0:0|0:0,0:0:0:0:
151,30,59966,2,0,L|152:190,1,134.999995231628,8|0,0:0|0:0,0:0:0:0:
328,157,60800,6,0,L|483:177,1,134.999995231628,6|2,0:0|0:0,0:0:0:0:
400,317,61425,2,0,L|195:289,1,202.499992847443,2|2,0:0|0:0,0:0:0:0:
363,288,62466,1,2,1:2:0:0:
351,139,62883,1,0,0:0:0:0:
259,21,63300,1,10,0:0:0:0:
111,12,63716,1,8,3:0:0:0:
300,14,64133,6,0,L|299:177,1,134.999995231628,6|2,0:0|0:0,0:0:0:0:
110,150,64966,1,10,0:0:0:0:
299,153,65383,2,0,P|371:177|453:345,1,269.999990463257,6|2,0:0|0:0,0:0:0:0:
318,326,66633,1,8,0:0:0:0:
169,319,67050,1,0,0:0:0:0:
349,319,67466,6,0,P|423:278|318:155,1,269.999990463257,6|8,0:0|0:0,0:0:0:0:
450,102,68716,1,2,0:0:0:0:
289,137,69133,1,0,1:2:0:0:
281,285,69550,1,0,0:0:0:0:
134,306,69966,1,10,0:0:0:0:
126,159,70383,1,0,0:0:0:0:
320,157,70799,6,0,P|422:147|470:-5,1,269.999990463257,6|8,0:0|0:0,0:0:0:0:
279,5,72049,1,2,0:0:0:0:
427,5,72466,1,0,0:0:0:0:
283,45,72882,2,0,L|281:188,1,134.999995231628,2|8,0:0|0:0,0:0:0:0:
429,174,73716,1,0,0:0:0:0:
239,175,74132,6,0,P|146:196|76:360,1,269.999990463257,6|8,0:0|0:0,0:0:0:0:
262,346,75382,1,2,0:0:0:0:
113,339,75799,1,0,1:2:0:0:
126,191,76216,1,0,0:0:0:0:
236,91,76632,1,10,0:0:0:0:
395,79,77049,1,10,3:2:0:0:
246,77,77466,5,0,0:0:0:0:
464,182,79133,1,2,0:0:0:0:
257,192,79966,1,2,0:0:0:0:
48,182,80799,1,2,0:0:0:0:
256,192,82522,12,0,88527,0:0:0:0:
