osu file format v14

[General]
AudioFilename: audio.mp3
AudioLeadIn: 0
PreviewTime: 50651
Countdown: 0
SampleSet: Soft
StackLeniency: 0.7
Mode: 2
LetterboxInBreaks: 0
WidescreenStoryboard: 1

[Editor]
DistanceSpacing: 1.2
BeatDivisor: 4
GridSize: 32
TimelineZoom: 1

[Metadata]
Title:Sincerely (TV Size)
TitleUnicode:Sincerely (TV Size)
Artist:TRUE
ArtistUnicode:TRUE
Creator:Nelly
Version:Secre's Platter
Source:ヴァイオレット・エヴァーガーデン
Tags:violet evergarden opening anime japanese pop jpop j-pop karasawa miho 唐沢美帆 kyoto animation 京都アニメーション kyoani 京アニ 堀江晶太 kemu Evan Call Lonely Queen's Liberation Party ascendance ajamez jemzuu -luminate chickenbible secre spectator xetopia imai lisa
BeatmapID:2616791
BeatmapSetID:1258768

[Difficulty]
HPDrainRate:5
CircleSize:3.3
OverallDifficulty:7.5
ApproachRate:7.5
SliderMultiplier:3.29999990463257
SliderTickRate:2

[Events]
//Background and Video events
0,0,"bg.jpg",0,0
Video,-68,"opening.avi"
//Break Periods
//Storyboard Layer 0 (Background)
//Storyboard Layer 1 (Fail)
//Storyboard Layer 2 (Pass)
//Storyboard Layer 3 (Foreground)
//Storyboard Layer 4 (Overlay)
//Storyboard Sound Samples

[TimingPoints]
804,833.333333333333,4,2,1,40,1,0
804,-100,4,2,1,40,0,0
13512,-100,4,2,1,60,0,0
14137,-100,4,2,1,50,0,0
16220,-100,4,2,1,50,0,0
17470,-100,4,2,1,50,0,0
20803,-100,4,2,1,55,0,0
21637,-100,4,2,1,60,0,0
22470,-100,4,2,1,65,0,0
22887,-100,4,2,1,75,0,0
23095,-100,4,2,2,75,0,0
23303,779.220779220779,4,2,1,75,1,0
23692,-100,4,2,2,60,0,0
24137,833.333333333333,4,2,1,40,1,0
24137,-100,4,2,1,70,0,0
33303,-100,4,2,1,70,0,0
33928,-100,4,2,1,70,0,0
40387,-100,4,2,1,70,0,0
40803,-100,4,2,1,70,0,0
43303,-100,4,2,1,60,0,0
43720,-100,4,2,1,50,0,0
44137,-100,4,2,1,40,0,0
46637,-100,4,2,2,70,0,0
47470,-100,4,2,1,80,0,0
48095,-100,4,2,1,80,0,0
48720,-100,4,2,1,80,0,0
49970,779.220779220779,4,2,1,80,1,0
49970,-100,4,2,1,80,0,0
50800,833.333333333333,4,2,1,90,1,1
50800,-100,4,2,1,90,0,1
63716,-100,4,2,1,90,0,0
64133,-100,4,2,1,90,0,1
77466,-100,4,2,1,40,0,0
82522,857.142857142857,4,2,1,30,1,0
83834,1000,4,2,1,25,1,0
84801,1090.90909090909,4,2,1,20,1,0
85346,1363.63636363636,4,2,1,15,1,0
88527,-55.5555555555556,4,2,1,5,0,0

[Colours]
Combo1 : 255,128,128
Combo2 : 125,190,255
Combo3 : 255,249,128
Combo4 : 149,149,255
Combo5 : 192,192,192

[HitObjects]
270,197,804,5,0,0:0:0:0:
352,197,1012,1,0,0:0:0:0:
352,197,1220,1,0,0:0:0:0:
270,197,1428,1,2,0:0:0:0:
226,129,2470,5,0,0:0:0:0:
145,129,2678,1,0,0:0:0:0:
145,129,2887,1,0,0:0:0:0:
226,129,3095,1,2,0:0:0:0:
229,153,4137,2,0,P|181:73|250:52,1,164.999995231629,0|0,0:0|0:0,0:0:0:0:
306,151,4762,1,2,0:0:0:0:
296,105,5803,5,0,0:0:0:0:
296,105,6012,1,0,0:0:0:0:
210,108,6220,1,0,0:0:0:0:
297,165,6428,1,2,0:0:0:0:
339,102,7470,5,0,0:0:0:0:
260,100,7678,1,0,0:0:0:0:
181,99,7887,1,0,0:0:0:0:
260,100,8095,1,2,0:0:0:0:
344,105,8303,2,0,L|353:277,1,164.999995231629,0|0,0:0|0:0,0:0:0:0:
190,206,9137,5,0,0:0:0:0:
267,186,9345,1,0,0:0:0:0:
267,186,9553,1,0,0:0:0:0:
190,206,9762,1,2,0:0:0:0:
224,138,10595,1,0,0:0:0:0:
147,128,10803,5,0,0:0:0:0:
71,78,11012,1,0,0:0:0:0:
136,45,11220,1,0,0:0:0:0:
226,46,11428,2,0,L|404:44,1,164.999995231629,2|0,0:0|0:0,0:0:0:0:
308,126,12053,1,0,0:0:0:0:
145,176,12470,5,0,0:0:0:0:
145,176,12678,1,0,0:0:0:0:
318,134,12887,1,0,0:0:0:0:
318,134,13095,1,0,0:0:0:0:
235,119,13303,1,0,0:0:0:0:
66,155,13512,2,0,P|85:251|165:242,1,164.999995231629,2|0,0:0|0:0,0:0:0:0:
423,144,14137,6,0,L|428:267,1,82.4999976158143,2|0,0:0|0:0,0:0:0:0:
338,234,14553,2,0,L|241:239,1,82.4999976158143,2|2,0:0|0:0,0:0:0:0:
426,161,14970,2,0,P|475:96|391:93,1,164.999995231629,8|2,0:0|0:0,0:0:0:0:
340,80,15595,1,2,0:0:0:0:
122,202,15803,6,0,P|77:138|143:85,1,164.999995231629,0|2,0:0|0:0,0:0:0:0:
216,76,16428,1,2,0:0:0:0:
381,81,16637,2,0,L|385:232,1,82.4999976158143,8|0,0:0|0:0,0:0:0:0:
198,160,17053,2,0,L|191:62,1,82.4999976158143,0|2,0:0|0:0,0:0:0:0:
473,170,17470,6,0,L|236:176,1,164.999995231629,2|2,0:0|0:0,0:0:0:0:
409,126,18095,2,0,P|418:213|321:238,1,164.999995231629,2|0,0:0|0:0,0:0:0:0:
252,196,18720,2,0,L|245:104,1,82.4999976158143,2|2,0:0|0:0,0:0:0:0:
358,100,19137,5,0,0:0:0:0:
12,188,19553,2,0,L|207:196,2,164.999995231629,2|10|2,0:0|0:0|0:0,0:0:0:0:
492,192,20803,5,2,0:0:0:0:
336,164,21220,2,0,L|427:164,1,82.4999976158143,0|0,0:0|0:0,0:0:0:0:
141,146,21637,1,2,0:0:0:0:
279,138,22053,2,0,L|179:140,1,82.4999976158143,2|2,0:0|0:0,0:0:0:0:
472,108,22470,5,2,0:0:0:0:
477,188,22678,1,0,0:0:0:0:
394,243,22886,1,2,0:0:0:0:
308,258,23094,1,8,0:0:0:0:
125,232,23303,2,0,L|115:146,1,82.4999976158143,8|8,0:0|3:0,0:0:0:0:
300,123,23692,1,4,3:0:0:0:
18,237,24137,6,0,L|239:243,1,164.999995231629,6|2,0:0|0:0,0:0:0:0:
75,175,24762,2,0,P|26:111|90:73,1,164.999995231629,2|0,0:0|0:0,0:0:0:0:
161,76,25387,1,2,0:0:0:0:
366,120,25595,1,2,0:0:0:0:
448,109,25803,6,0,L|455:228,1,82.4999976158143,0|0,0:0|0:0,0:0:0:0:
366,120,26220,1,2,0:0:0:0:
153,196,26428,2,0,L|368:189,1,164.999995231629,2|2,0:0|0:0,0:0:0:0:
245,122,27053,2,0,L|125:125,1,82.4999976158143,2|0,0:0|0:0,0:0:0:0:
439,119,27470,6,0,L|447:231,1,82.4999976158143,2|2,0:0|0:0,0:0:0:0:
354,244,27887,2,0,L|472:242,1,82.4999976158143,2|2,0:0|0:0,0:0:0:0:
249,153,28512,2,0,L|151:157,2,82.4999976158143,0|0|2,0:0|0:0|0:0,0:0:0:0:
419,219,29137,6,0,P|468:147|375:145,1,164.999995231629,2|2,0:0|0:0,0:0:0:0:
331,127,29762,2,0,L|149:128,1,164.999995231629,2|2,0:0|0:0,0:0:0:0:
261,70,30387,2,0,L|375:73,1,82.4999976158143,2|0,0:0|0:0,0:0:0:0:
55,156,30803,6,0,L|42:57,1,82.4999976158143,2|2,0:0|0:0,0:0:0:0:
147,55,31220,2,0,L|37:62,1,82.4999976158143,2|2,0:0|0:0,0:0:0:0:
236,173,31636,2,0,L|348:171,2,82.4999976158143,8|0|0,0:0|0:0|0:0,0:0:0:0:
68,211,32262,6,0,L|270:214,1,164.999995231629,2|2,0:0|0:0,0:0:0:0:
154,145,32887,1,2,0:0:0:0:
326,95,33095,2,0,P|372:177|305:187,1,164.999995231629,0|0,0:0|0:0,0:0:0:0:
246,175,33720,2,0,L|134:172,1,82.4999976158143,0|0,0:0|0:0,0:0:0:0:
443,95,34137,6,0,L|450:211,1,82.4999976158143,2|2,0:0|0:0,0:0:0:0:
352,213,34553,2,0,L|438:209,1,82.4999976158143,2|2,0:0|0:0,0:0:0:0:
238,146,35178,2,0,L|140:145,1,82.4999976158143,0|0,0:0|0:0,0:0:0:0:
326,91,35595,5,0,0:0:0:0:
176,203,36012,2,0,L|74:206,2,82.4999976158143,10|2|2,0:0|0:0|0:0,0:0:0:0:
345,113,36637,2,0,L|351:207,1,82.4999976158143,10|2,0:0|0:0,0:0:0:0:
164,161,37053,2,0,L|160:59,1,82.4999976158143,2|0,0:0|0:0,0:0:0:0:
436,178,37470,6,0,L|232:183,1,164.999995231629,2|2,0:0|0:0,0:0:0:0:
441,122,38095,2,0,P|500:179|415:197,1,164.999995231629,2|0,0:0|0:0,0:0:0:0:
351,183,38720,1,2,0:0:0:0:
189,128,38928,2,0,L|298:127,1,82.4999976158143,2|2,0:0|0:0,0:0:0:0:
355,120,39345,5,2,0:0:0:0:
264,171,39553,2,0,L|162:170,1,82.4999976158143,2|0,0:0|0:0,0:0:0:0:
358,81,39970,2,0,L|357:181,1,82.4999976158143,8|0,0:0|0:0,0:0:0:0:
172,75,40387,2,0,L|113:74,2,41.2499988079071,0|0|2,0:0|0:0|0:0,0:0:0:0:
443,217,40803,6,0,L|246:219,1,164.999995231629,2|2,0:0|0:0,0:0:0:0:
444,145,41428,2,0,L|247:147,1,164.999995231629,2|0,0:0|0:0,0:0:0:0:
365,84,42053,1,2,0:0:0:0:
176,225,42262,6,0,P|116:192|184:151,1,164.999995231629,2|0,0:0|0:0,0:0:0:0:
259,145,42887,2,0,L|376:145,1,82.4999976158143,0|0,0:0|0:0,0:0:0:0:
173,124,43303,2,0,L|166:29,1,82.4999976158143,8|0,0:0|0:0,0:0:0:0:
261,55,43720,2,0,L|159:57,1,82.4999976158143,2|2,0:0|0:0,0:0:0:0:
368,180,44137,5,2,0:0:0:0:
53,150,45803,1,2,0:0:0:0:
311,127,46637,5,2,0:0:0:0:
316,209,46845,1,2,2:0:0:0:
150,142,47053,2,0,L|81:143,2,41.2499988079071,2|0|2,3:2|3:2|3:2,0:0:0:0:
429,219,47470,6,0,P|477:176|412:106,1,164.999995231629,10|2,0:0|0:0,0:0:0:0:
267,133,48095,2,0,L|92:133,1,164.999995231629,10|2,0:0|0:0,0:0:0:0:
181,79,48720,1,10,0:0:0:0:
271,77,48928,1,2,0:0:0:0:
75,242,49137,6,0,P|28:211|87:145,1,164.999995231629,10|8,0:0|0:0,0:0:0:0:
174,138,49762,1,2,0:0:0:0:
464,135,49970,1,10,0:0:0:0:
471,189,50099,1,2,0:0:0:0:
464,135,50229,1,2,0:0:0:0:
216,159,50359,1,2,0:0:0:0:
161,157,50488,1,2,0:0:0:0:
216,159,50619,1,2,0:0:0:0:
459,233,50800,6,0,L|269:230,1,164.999995231629,6|2,0:0|0:0,0:0:0:0:
373,166,51425,1,0,0:0:0:0:
262,155,51633,2,0,L|158:158,1,82.4999976158143,10|0,0:0|0:0,0:0:0:0:
398,106,52050,6,0,P|487:171|371:236,1,247.499992847443,6|0,0:0|0:0,0:0:0:0:
205,169,52883,2,0,L|103:172,1,82.4999976158143,2|2,0:0|0:0,0:0:0:0:
46,195,53300,2,0,L|33:95,1,82.4999976158143,8|0,0:0|0:0,0:0:0:0:
142,89,53716,2,0,L|31:88,1,82.4999976158143,0|2,0:0|0:0,0:0:0:0:
355,138,54133,6,0,L|366:242,1,82.4999976158143,6|0,0:0|0:0,0:0:0:0:
207,204,54550,1,2,0:0:0:0:
352,144,54758,2,0,L|464:142,1,82.4999976158143,2|8,0:0|0:0,0:0:0:0:
271,116,55175,1,2,0:0:0:0:
94,181,55383,6,0,L|349:181,1,247.499992847443,6|0,0:0|0:0,0:0:0:0:
258,115,56216,1,0,0:0:0:0:
173,121,56425,1,0,0:0:0:0:
343,122,56633,2,0,L|351:227,1,82.4999976158143,10|0,0:0|0:0,0:0:0:0:
173,121,57050,2,0,L|161:34,1,82.4999976158143,0|0,0:0|0:0,0:0:0:0:
444,215,57466,6,0,L|259:209,1,164.999995231629,6|2,0:0|0:0,0:0:0:0:
371,153,58091,1,0,0:0:0:0:
284,165,58300,2,0,L|177:166,1,82.4999976158143,10|0,0:0|0:0,0:0:0:0:
424,102,58716,6,0,P|436:186|289:238,1,247.499992847443,6|0,0:0|0:0,0:0:0:0:
225,195,59550,2,0,L|217:84,1,82.4999976158143,2|2,0:0|0:0,0:0:0:0:
394,128,59966,1,8,0:0:0:0:
237,181,60383,2,0,L|338:184,1,82.4999976158143,0|2,0:0|0:0,0:0:0:0:
38,142,60800,6,0,P|46:54|146:34,1,164.999995231629,6|2,0:0|0:0,0:0:0:0:
302,146,61425,2,0,L|503:148,1,164.999995231629,2|0,0:0|0:0,0:0:0:0:
280,86,62050,2,0,L|177:87,1,82.4999976158143,2|2,0:0|0:0,0:0:0:0:
376,118,62466,5,2,1:2:0:0:
295,126,62675,2,0,L|200:124,1,82.4999976158143,2|0,0:0|0:0,0:0:0:0:
369,78,63091,2,0,L|376:188,1,82.4999976158143,2|10,0:0|0:0,0:0:0:0:
203,179,63508,1,8,0:0:0:0:
288,145,63716,1,8,3:0:0:0:
375,127,63924,1,4,0:3:0:0:
53,233,64133,6,0,L|243:230,1,164.999995231629,6|2,0:0|0:0,0:0:0:0:
141,169,64758,1,0,0:0:0:0:
234,157,64966,2,0,L|338:160,1,82.4999976158143,10|0,0:0|0:0,0:0:0:0:
112,103,65383,6,0,P|23:168|139:233,1,247.499992847443,6|0,0:0|0:0,0:0:0:0:
178,197,66216,1,2,0:0:0:0:
256,177,66425,1,2,0:0:0:0:
451,197,66633,2,0,L|464:97,1,82.4999976158143,8|0,0:0|0:0,0:0:0:0:
358,89,67049,2,0,L|469:88,1,82.4999976158143,0|2,0:0|0:0,0:0:0:0:
157,138,67466,6,0,L|146:242,1,82.4999976158143,6|0,0:0|0:0,0:0:0:0:
305,204,67883,1,2,0:0:0:0:
160,144,68091,2,0,L|48:142,2,82.4999976158143,2|8|0,0:0|0:0|0:0,0:0:0:0:
321,141,68716,1,2,0:0:0:0:
132,211,68925,6,0,L|401:213,1,247.499992847443,2|0,0:0|0:0,0:0:0:0:
289,142,69758,1,0,0:0:0:0:
117,111,69966,2,0,L|109:216,1,82.4999976158143,10|0,0:0|0:0,0:0:0:0:
306,151,70383,2,0,L|388:148,1,82.4999976158143,0|2,0:0|0:0,0:0:0:0:
94,259,70799,6,0,P|38:197|129:176,1,164.999995231629,6|2,0:0|0:0,0:0:0:0:
250,200,71424,2,0,L|447:201,1,164.999995231629,2|0,0:0|0:0,0:0:0:0:
331,134,72049,1,2,0:0:0:0:
151,199,72257,6,0,P|100:136|189:131,1,164.999995231629,2|0,0:0|0:0,0:0:0:0:
236,103,72882,1,2,0:0:0:0:
400,101,73091,1,2,0:0:0:0:
236,103,73299,2,0,L|125:108,2,82.4999976158143,8|0|0,0:0|0:0|0:0,0:0:0:0:
321,94,73924,1,2,0:0:0:0:
40,232,74132,6,0,L|285:225,1,164.999995231629,6|2,0:0|0:0,0:0:0:0:
21,283,74757,2,0,P|28:195|112:181,1,164.999995231629,2|0,0:0|0:0,0:0:0:0:
277,177,75382,2,0,L|387:179,1,82.4999976158143,2|2,0:0|0:0,0:0:0:0:
186,147,75799,5,0,1:2:0:0:
110,186,76007,2,0,L|102:88,1,82.4999976158143,10|0,0:0|0:0,0:0:0:0:
185,100,76424,2,0,L|87:104,1,82.4999976158143,2|10,0:0|0:0,0:0:0:0:
287,122,76841,2,0,L|407:127,2,82.4999976158143,10|10|0,0:0|3:2|0:0,0:0:0:0:
111,152,77466,5,0,0:0:0:0:
369,149,79133,1,2,0:0:0:0:
110,126,79966,1,2,0:0:0:0:
361,158,80799,6,0,L|138:162,1,164.999995231629,2|0,0:0|0:0,0:0:0:0:
301,110,81424,2,0,P|353:181|298:211,1,164.999995231629
216,175,82049,1,0,0:0:0:0:
256,192,82522,12,0,88527,0:0:0:0:
