osu file format v14

[General]
AudioFilename: audio.mp3
AudioLeadIn: 0
PreviewTime: 52167
Countdown: 0
SampleSet: Soft
StackLeniency: 0.7
Mode: 0
LetterboxInBreaks: 0
WidescreenStoryboard: 1

[Editor]
Bookmarks: 2252,15585,25585,45585,52252,65585,78918,83918,97252,110585,120585,133918,140585,147252,160585,173918,187252,202257,215580,228913,242247,248988
DistanceSpacing: 1
BeatDivisor: 4
GridSize: 32
TimelineZoom: 1.7

[Metadata]
Title:Sincerely
TitleUnicode:Sincerely
Artist:TRUE
ArtistUnicode:TRUE
Creator:Mir
Version:Real's Normal
Source:ヴァイオレット・エヴァーガーデン
Tags:full version Violet Evergarden op Realazy LMT CrystilonZ
BeatmapID:1543879
BeatmapSetID:729046

[Difficulty]
HPDrainRate:3
CircleSize:3.5
OverallDifficulty:4
ApproachRate:5
SliderMultiplier:2.19999990463257
SliderTickRate:1

[Events]
//Background and Video events
0,0,"violet gardenever.jpg",0,0
//Break Periods
2,79146,81584
2,202494,211094
//Storyboard Layer 0 (Background)
//Storyboard Layer 1 (Fail)
//Storyboard Layer 2 (Pass)
//Storyboard Layer 3 (Foreground)
//Storyboard Sound Samples

[TimingPoints]
2280,833.333333333333,4,2,1,40,1,0
15092,-100,4,2,1,5,0,0
15196,-100,4,2,1,40,0,0
25196,-100,4,2,1,60,0,0
48113,-100,4,2,1,70,0,0
51833,833.333333333333,4,2,1,70,1,0
52279,833.333333333333,4,2,1,90,1,1
52279,-100,4,2,1,90,0,1
65403,-100,4,2,1,90,0,0
65612,-100,4,2,1,90,0,1
78945,-100,4,2,1,40,0,0
83946,833.333333333333,4,2,1,70,1,0
97272,-100,4,2,1,60,0,0
143939,-100,4,2,1,70,0,0
173945,-100,4,2,1,50,0,0
185612,-100,4,2,1,70,0,0
197279,821.917808219178,4,2,1,70,1,0
200566,983.606557377049,4,2,1,70,1,0
200811,810.810810810811,4,2,1,70,1,0
201216,736.196319018405,4,2,1,70,1,0
201400,845.070422535211,4,2,1,70,1,0
201822,944.88188976378,4,2,1,70,1,0
202294,833.333333333333,4,2,1,60,1,0
215627,-100,4,2,1,90,0,1
220210,-97.5609756097561,4,2,1,90,0,1
220627,810.810810810811,4,2,1,90,1,1
222248,833.333333333333,4,2,1,90,1,1
228706,-100,4,2,1,90,0,0
228914,851.063829787234,4,2,1,90,1,1
230190,833.333333333333,4,2,1,90,1,1
232273,833.333333333333,4,2,1,90,1,1
239773,810.810810810811,4,2,1,90,1,0
241394,879.120879120879,4,2,1,90,1,0
242273,827.586206896552,4,2,1,90,1,1
245169,882.352941176471,4,2,1,90,1,0
245610,833.333333333333,4,2,1,30,1,0
246443,821.917808219178,4,2,1,30,1,0
248086,902.255639097744,4,2,1,30,1,0
248988,810.810810810811,4,2,1,30,1,0
250203,845.070422535211,4,2,1,30,1,0
252315,833.333333333333,4,2,1,30,1,0
258993,851.063829787234,4,2,1,30,1,0
270907,-100,4,2,1,5,0,0

[Colours]
Combo1 : 128,214,255
Combo2 : 179,255,255
Combo3 : 255,196,255
Combo4 : 252,235,199

[HitObjects]
102,71,2280,6,0,P|167:119|245:102,1,164.999992847443,0|0,0:0|0:0,0:0:0:0:
391,26,3529,1,0,0:0:0:0:
457,111,3946,2,0,P|477:189|437:259,1,164.999992847443,0|0,0:0|0:0,0:0:0:0:
183,364,5613,6,0,L|200:199,1,164.999992847443,0|0,0:0|0:0,0:0:0:0:
118,56,6863,1,0,0:0:0:0:
38,131,7279,2,0,L|55:295,1,164.999992847443,0|0,0:0|0:0,0:0:0:0:
320,361,8946,6,0,P|374:355|416:321,2,109.999995231628,0|0|0,0:0|0:0|0:0,0:0:0:0:
229,300,10196,1,0,0:0:0:0:
138,362,10613,2,0,P|120:283|159:212,1,164.999992847443,0|0,0:0|0:0,0:0:0:0:
388,60,12279,6,0,P|337:38|283:39,1,109.999995231628,0|0,0:0|0:0,0:0:0:0:
232,61,12904,1,0,0:0:0:0:
350,176,13529,1,0,0:0:0:0:
349,175,13946,2,0,P|367:255|341:332,1,164.999992847443,0|0,0:0|0:0,0:0:0:0:
238,292,14988,1,0,0:0:0:0:
349,175,15613,6,0,L|186:146,1,164.999992847443,2|0,0:0|0:0,0:0:0:0:
135,166,16446,1,8,0:0:0:0:
54,91,16863,1,2,0:0:0:0:
9,190,17279,2,0,P|20:269|90:306,1,164.999992847443,0|0,0:0|0:0,0:0:0:0:
144,295,18113,1,8,0:0:0:0:
299,350,18738,1,0,0:0:0:0:
299,350,18946,6,0,L|294:203,1,109.999995231628,2|2,0:0|0:0,0:0:0:0:
321,191,19571,1,2,0:0:0:0:
321,191,19779,1,8,0:0:0:0:
269,93,20196,1,2,0:0:0:0:
269,93,20404,2,0,P|193:120|118:91,1,164.999992847443,2|2,0:0|0:0,0:0:0:0:
79,51,21238,2,0,P|117:122|112:204,1,164.999992847443,0|0,0:0|0:0,0:0:0:0:
50,294,22279,6,0,L|159:288,1,109.999995231628,2|0,0:0|0:0,0:0:0:0:
202,331,22904,1,2,0:0:0:0:
202,331,23113,2,0,L|311:325,1,109.999995231628,8|2,0:0|0:0,0:0:0:0:
362,359,23738,1,2,0:0:0:0:
362,359,23946,2,0,P|343:308|356:255,1,109.999995231628,2|8,0:0|0:0,0:0:0:0:
420,166,24779,2,0,L|474:175,2,54.9999976158142,8|8|4,0:0|0:3|0:3,0:0:0:0:
342,87,25613,5,2,0:0:0:0:
342,87,25821,2,0,L|217:79,1,109.999995231628,2|2,0:0|0:0,0:0:0:0:
188,114,26446,1,8,0:0:0:0:
85,74,26863,1,0,0:0:0:0:
85,74,27071,2,0,P|97:154|63:228,1,164.999992847443,2|2,0:0|0:0,0:0:0:0:
29,272,27904,1,0,0:0:0:0:
28,272,28113,2,0,P|81:258|135:268,1,109.999995231628,8|0,0:0|0:0,0:0:0:0:
232,319,28946,6,0,L|233:373,2,54.9999976158142,2|2|0,0:0|0:0|0:0,0:0:0:0:
263,273,29571,1,2,0:0:0:0:
263,273,29779,1,8,0:0:0:0:
419,324,30404,1,2,0:0:0:0:
419,324,30613,2,0,L|423:215,1,109.999995231628,0|2,0:0|0:0,0:0:0:0:
391,168,31238,1,0,0:0:0:0:
391,168,31446,2,0,L|388:113,2,54.9999976158142,8|2|0,0:0|0:0|0:0,0:0:0:0:
297,226,32279,6,0,P|302:254|297:281,2,54.9999976158142,2|2|0,0:0|0:0|0:0,0:0:0:0:
279,175,32904,1,2,0:0:0:0:
279,175,33113,2,0,L|169:162,1,109.999995231628,8|0,0:0|0:0,0:0:0:0:
126,125,33738,2,0,P|152:202|120:276,1,164.999992847443,2|0,0:0|0:0,0:0:0:0:
85,319,34571,2,0,P|138:304|191:316,1,109.999995231628,0|0,0:0|0:0,0:0:0:0:
237,347,35196,1,0,0:0:0:0:
307,262,35613,6,0,L|361:272,2,54.9999976158142,2|0|0,0:0|0:0|0:0,0:0:0:0:
277,215,36238,1,2,0:0:0:0:
277,215,36446,1,8,0:0:0:0:
348,130,36863,2,0,P|351:103|348:76,1,54.9999976158142,0|0,0:0|0:0,0:0:0:0:
327,25,37279,1,8,0:0:0:0:
327,25,37488,2,0,P|274:35|242:78,1,109.999995231628,2|2,0:0|0:0,0:0:0:0:
249,133,38113,2,0,P|251:160|248:187,1,54.9999976158142,8|2,0:0|0:0,0:0:0:0:
304,303,38738,1,8,0:3:0:0:
304,303,38946,6,0,L|413:293,1,109.999995231628,2|0,0:0|0:0,0:0:0:0:
459,324,39571,1,2,0:0:0:0:
459,324,39779,2,0,P|439:273|446:219,1,109.999995231628,8|0,0:0|0:0,0:0:0:0:
465,167,40404,2,0,P|468:139|462:113,2,54.9999976158142,2|0|2,0:0|0:0|0:0,0:0:0:0:
413,187,41029,1,2,0:0:0:0:
330,114,41446,1,8,0:0:0:0:
247,259,42071,1,0,0:0:0:0:
246,259,42279,6,0,P|195:275|142:261,1,109.999995231628,2|0,0:0|0:0,0:0:0:0:
105,221,42904,2,0,L|102:111,1,109.999995231628,2|0,0:0|0:0,0:0:0:0:
71,65,43529,1,0,0:0:0:0:
71,65,43738,2,0,B|123:94|175:65|175:65|228:35|280:65,1,219.999990463257,2|0,0:0|0:0,0:0:0:0:
325,95,44779,1,8,0:0:0:0:
398,177,45196,2,0,P|425:179|452:176,1,54.9999976158142,0|0,0:0|0:0,0:0:0:0:
499,147,45613,5,0,0:0:0:0:
499,147,47279,1,0,0:0:0:0:
401,280,47904,2,0,L|346:270,1,54.9999976158142,0|0,0:0|0:0,0:0:0:0:
304,305,48321,2,0,L|195:285,1,109.999995231628,8|8,0:0|0:0,0:0:0:0:
156,325,48946,6,0,P|167:271|147:221,1,109.999995231628,2|8,0:0|0:0,0:0:0:0:
114,177,49571,2,0,P|93:126|104:73,1,109.999995231628,2|2,0:0|0:0,0:0:0:0:
133,26,50196,1,8,0:0:0:0:
225,80,50613,2,0,P|208:101|186:116,2,54.9999976158142,8|0|8,0:0|0:0|0:0,0:0:0:0:
311,11,51446,1,8,0:0:0:0:
310,10,52279,6,0,P|345:84|327:163,1,164.999992847443,6|2,0:0|0:0,0:0:0:0:
299,210,53113,1,8,0:0:0:0:
376,288,53529,2,0,P|302:320|226:291,1,164.999992847443,2|8,0:0|0:0,0:0:0:0:
185,255,54363,2,0,P|157:250|131:256,1,54.9999976158142,0|0,0:0|0:0,0:0:0:0:
90,293,54779,1,8,0:0:0:0:
19,143,55404,1,0,0:0:0:0:
18,142,55613,6,0,P|66:170|120:170,1,109.999995231628,2|0,0:0|0:0,0:0:0:0:
166,142,56238,2,0,P|220:142|267:170,1,109.999995231628,2|0,0:0|0:0,0:0:0:0:
306,209,56863,2,0,P|403:236|445:144,1,219.999990463257,2|0,0:0|0:0,0:0:0:0:
384,52,58113,1,8,0:0:0:0:
270,172,58738,1,0,0:0:0:0:
269,171,58946,6,0,P|290:251|367:288,1,164.999992847443,6|2,0:0|0:0,0:0:0:0:
414,278,59779,1,8,0:0:0:0:
356,371,60196,2,0,L|194:335,1,164.999992847443,2|8,0:0|0:0,0:0:0:0:
148,364,61029,2,0,L|94:352,1,54.9999976158142,0|2,0:0|0:0,0:0:0:0:
43,373,61446,1,8,0:0:0:0:
129,232,62071,1,0,0:0:0:0:
129,232,62279,6,0,P|164:159|148:79,1,164.999992847443,2|2,0:0|0:0,0:0:0:0:
120,31,63113,1,8,0:0:0:0:
227,52,63529,2,0,P|254:53|281:46,1,54.9999976158142,0|2,0:0|0:0,0:0:0:0:
324,12,63946,2,0,P|300:89|341:158,1,164.999992847443,0|0,0:0|0:0,0:0:0:0:
388,186,64779,2,0,L|442:185,2,54.9999976158142,8|8|4,0:0|0:3|0:3,0:0:0:0:
320,273,65613,6,0,L|210:264,1,109.999995231628,6|0,0:0|0:0,0:0:0:0:
169,302,66238,1,2,0:0:0:0:
169,302,66446,1,8,0:0:0:0:
263,358,66863,2,0,L|427:370,1,164.999992847443,2|8,0:0|0:0,0:0:0:0:
472,338,67696,1,0,0:0:0:0:
472,338,67904,2,0,P|474:311|469:284,1,54.9999976158142,2|8,0:0|0:0,0:0:0:0:
390,139,68738,1,2,0:0:0:0:
390,139,68946,6,0,P|306:148|241:98,1,164.999992847443,2|2,0:0|0:0,0:0:0:0:
221,52,69779,1,8,0:0:0:0:
140,127,70196,2,0,L|149:181,1,54.9999976158142,0|0,0:0|0:0,0:0:0:0:
120,227,70613,1,2,0:0:0:0:
119,227,70821,2,0,P|173:218|226:233,1,109.999995231628,8|2,0:0|0:0,0:0:0:0:
273,263,71446,1,8,0:0:0:0:
427,205,72071,1,0,0:0:0:0:
427,205,72279,6,0,L|433:49,1,109.999995231628,6|0,0:0|0:0,0:0:0:0:
456,45,72904,1,2,0:0:0:0:
455,45,73113,2,0,P|406:68|352:64,1,109.999995231628,8|0,0:0|0:0,0:0:0:0:
302,38,73738,2,0,P|222:24|155:68,1,164.999992847443,0|0,0:0|0:0,0:0:0:0:
137,120,74571,1,2,0:0:0:0:
137,120,74779,1,8,0:0:0:0:
71,271,75404,1,2,0:0:0:0:
71,271,75613,6,0,L|180:268,1,109.999995231628,2|0,0:0|0:0,0:0:0:0:
223,303,76238,1,2,0:0:0:0:
223,303,76446,1,8,0:0:0:0:
309,235,76863,2,0,L|303:180,1,54.9999976158142,0|0,0:0|0:0,0:0:0:0:
324,129,77279,2,0,P|250:159|178:125,1,164.999992847443,2|2,0:0|0:0,0:0:0:0:
148,78,78113,2,0,L|151:23,2,54.9999976158142,8|0|4,0:0|0:0|0:3,0:0:0:0:
95,174,78946,5,2,0:0:0:0:
99,178,82904,5,2,0:0:0:0:
99,178,83113,2,0,L|157:184,1,54.9999976158142,8|2,0:0|0:0,0:0:0:0:
289,91,83946,6,0,P|366:109|399:182,1,164.999992847443,6|2,0:0|0:0,0:0:0:0:
393,237,84779,1,8,0:0:0:0:
315,315,85196,2,0,B|263:286|211:315|211:315|158:345|106:315,1,219.999990463257,2|0,0:0|0:0,0:0:0:0:
72,270,86237,1,2,0:0:0:0:
72,270,86446,1,8,0:0:0:0:
181,146,87071,1,2,0:0:0:0:
181,146,87279,6,0,P|233:132|286:146,1,109.999995231628,2|0,0:0|0:0,0:0:0:0:
331,178,87904,2,0,L|409:171,1,54.9999976158142,2|8,0:0|0:0,0:0:0:0:
457,90,88529,2,0,P|425:163|451:240,1,164.999992847443,2|8,0:0|0:0,0:0:0:0:
486,281,89362,2,0,P|495:308|495:335,2,54.9999976158142,0|2|8,0:0|0:0|0:0,0:0:0:0:
392,338,90196,1,8,0:3:0:0:
316,257,90612,6,0,P|240:234|187:292,1,164.999992847443,6|2,0:0|0:0,0:0:0:0:
175,345,91446,1,8,0:0:0:0:
79,291,91862,2,0,L|75:116,1,164.999992847443,2|8,0:0|0:0,0:0:0:0:
104,79,92696,2,0,L|158:78,1,54.9999976158142,0|2,0:0|0:0,0:0:0:0:
199,115,93112,1,8,0:0:0:0:
103,251,93737,1,2,0:0:0:0:
102,250,93946,6,0,P|154:269|206:255,1,109.999995231628,2|0,0:0|0:0,0:0:0:0:
246,217,94571,2,0,P|298:203|349:221,1,109.999995231628,2|0,0:0|0:0,0:0:0:0:
391,257,95196,1,0,0:0:0:0:
448,163,95612,2,0,L|451:108,1,54.9999976158142,2|8,0:0|0:0,0:0:0:0:
438,54,96029,1,8,0:0:0:0:
334,91,96446,2,0,L|330:145,2,54.9999976158142,8|8|8,0:0|0:3|0:3,0:0:0:0:
241,30,97279,6,0,P|161:23|112:86,1,164.999992847443,6|2,0:0|0:0,0:0:0:0:
114,140,98112,1,8,0:0:0:0:
175,229,98529,2,0,P|181:256|174:283,1,54.9999976158142,0|0,0:0|0:0,0:0:0:0:
138,325,98946,2,0,P|214:296|290:322,1,164.999992847443,2|2,0:0|0:0,0:0:0:0:
325,364,99779,1,8,0:0:0:0:
477,205,100612,6,0,B|436:189|395:205|395:205|355:220|314:205,1,164.999992847443,2|2,0:0|0:0,0:0:0:0:
274,167,101446,2,0,P|288:242|219:276,1,164.999992847443,8|2,0:0|0:0,0:0:0:0:
167,257,102279,1,2,0:0:0:0:
109,351,102696,2,0,L|54:349,1,54.9999976158142,0|2,0:0|0:0,0:0:0:0:
10,315,103112,1,8,0:0:0:0:
120,123,103946,6,0,P|171:163|165:258,1,164.999992847443,2|2,0:0|0:0,0:0:0:0:
133,300,104779,2,0,P|184:281|236:295,1,109.999995231628,8|0,0:0|0:0,0:0:0:0:
326,359,105612,1,2,0:0:0:0:
408,285,106029,2,0,L|399:212,1,54.9999976158142,0|2,0:0|0:0,0:0:0:0:
393,175,106446,1,8,0:0:0:0:
501,50,107071,1,2,0:0:0:0:
501,49,107279,6,0,P|454:76|399:74,1,109.999995231628,2|0,0:0|0:0,0:0:0:0:
354,43,107904,2,0,P|299:40|252:68,1,109.999995231628,2|2,0:0|0:0,0:0:0:0:
231,119,108529,2,0,L|237:238,1,109.999995231628,2|2,0:0|0:0,0:0:0:0:
167,314,109362,2,0,L|176:368,2,54.9999976158142,0|2|8,0:0|0:0|0:0,0:0:0:0:
156,259,109987,1,8,0:0:0:0:
59,231,110404,1,8,0:0:0:0:
59,231,110612,5,2,0:0:0:0:
59,231,112070,1,0,0:0:0:0:
59,231,112279,2,0,P|136:251|207:212,1,164.999992847443,6|2,0:0|0:0,0:0:0:0:
239,167,113112,1,8,0:0:0:0:
239,167,113320,1,0,0:0:0:0:
336,217,113737,1,2,0:0:0:0:
336,217,113945,6,0,P|347:163|332:111,1,109.999995231628,2|2,0:0|0:0,0:0:0:0:
302,64,114570,2,0,P|295:37|299:10,1,54.9999976158142,2|8,0:0|0:0,0:0:0:0:
403,44,115195,2,0,L|457:40,1,54.9999976158142,2|2,0:0|0:0,0:0:0:0:
498,1,115612,2,0,P|457:71|472:150,1,164.999992847443,2|2,0:0|0:0,0:0:0:0:
500,197,116445,1,8,0:0:0:0:
380,310,117070,1,2,0:0:0:0:
379,309,117279,6,0,P|305:278|226:297,1,164.999992847443,2|2,0:0|0:0,0:0:0:0:
179,325,118112,2,0,P|243:276|266:198,1,164.999992847443,8|2,0:0|0:0,0:0:0:0:
266,143,118945,2,0,P|275:223|331:282,1,164.999992847443,2|2,0:0|0:0,0:0:0:0:
379,309,119779,1,8,0:0:0:0:
460,235,120195,2,0,L|454:180,1,54.9999976158142,4|4,0:3|0:3,0:0:0:0:
486,134,120612,6,0,P|406:137|359:74,1,164.999992847443,6|2,0:0|0:0,0:0:0:0:
348,20,121445,1,8,0:0:0:0:
268,96,121862,1,0,0:0:0:0:
267,96,122070,2,0,P|193:127|117:101,1,164.999992847443,2|0,0:0|0:0,0:0:0:0:
84,57,122904,1,0,0:0:0:0:
83,56,123112,2,0,P|123:127|105:205,1,164.999992847443,8|8,0:0|0:0,0:0:0:0:
75,252,123945,6,0,P|71:279|77:306,2,54.9999976158142,2|0|2,0:0|0:0|0:0,0:0:0:0:
105,205,124570,1,2,0:0:0:0:
105,205,124779,1,8,0:0:0:0:
258,301,125404,1,2,0:0:0:0:
258,301,125612,2,0,B|274:248|274:248|254:197,1,109.999995231628,0|0,0:0|0:0,0:0:0:0:
229,148,126237,1,0,0:0:0:0:
229,148,126445,2,0,P|275:176|328:167,1,109.999995231628,8|8,0:0|0:0,0:0:0:0:
409,93,127279,6,0,L|464:98,2,54.9999976158142,2|0|0,0:0|0:0|0:0,0:0:0:0:
372,51,127904,1,2,0:0:0:0:
372,51,128112,2,0,L|207:36,1,164.999992847443,8|2,0:0|0:0,0:0:0:0:
162,2,128945,2,0,P|216:60|194:136,1,164.999992847443,0|0,0:0|0:0,0:0:0:0:
161,181,129779,1,8,0:0:0:0:
243,253,130195,1,2,0:0:0:0:
310,167,130612,6,0,P|390:152|462:190,1,164.999992847443,2|2,0:0|0:0,0:0:0:0:
495,234,131446,1,8,0:0:0:0:
436,326,131862,1,0,0:0:0:0:
436,326,132071,2,0,P|366:340|306:294,1,109.999995231628,2|2,0:0|0:0,0:0:0:0:
293,286,132696,2,0,P|266:280|238:281,2,54.9999976158142,8|0|2,0:0|0:0|0:0,0:0:0:0:
362,200,133529,1,0,0:0:0:0:
263,148,133946,6,0,P|183:156|122:209,1,164.999992847443,6|2,0:0|0:0,0:0:0:0:
110,263,134779,1,8,0:0:0:0:
29,188,135195,1,0,0:0:0:0:
88,94,135612,2,0,P|159:55|240:40,1,164.999992847443,0|0,0:0|0:0,0:0:0:0:
295,47,136445,1,8,0:0:0:0:
270,210,137070,1,8,0:0:0:0:
270,210,137279,6,0,P|205:162|125:176,1,164.999992847443,2|2,0:0|0:0,0:0:0:0:
88,217,138112,2,0,P|78:270|95:321,1,109.999995231628,8|2,0:0|0:0,0:0:0:0:
137,358,138737,2,0,L|300:333,1,164.999992847443,2|0,0:0|0:0,0:0:0:0:
348,360,139570,1,0,0:0:0:0:
348,360,139779,1,8,0:0:0:0:
400,263,140195,2,0,L|397:208,1,54.9999976158142,8|4,0:3|0:3,0:0:0:0:
391,153,140612,1,2,0:0:0:0:
390,152,143945,6,0,P|339:136|287:150,1,109.999995231628,6|8,0:0|0:0,0:0:0:0:
248,190,144570,2,0,P|195:204|144:187,1,109.999995231628,2|2,0:0|0:0,0:0:0:0:
107,147,145195,1,8,0:0:0:0:
157,49,145612,1,8,0:0:0:0:
157,49,145820,2,0,L|211:46,1,54.9999976158142,2|8,0:0|0:3,0:0:0:0:
259,17,146237,1,4,0:3:0:0:
259,17,146445,2,0,L|368:11,1,109.999995231628,4|4,0:3|0:3,0:0:0:0:
463,66,147279,6,0,P|477:145|424:205,1,164.999992847443,6|2,0:0|0:0,0:0:0:0:
374,229,148112,1,8,0:0:0:0:
292,154,148529,2,0,L|123:128,1,164.999992847443,2|8,0:0|0:0,0:0:0:0:
86,164,149362,2,0,L|90:218,1,54.9999976158142,0|2,0:0|0:0,0:0:0:0:
99,273,149779,1,8,0:0:0:0:
239,360,150404,1,2,0:0:0:0:
239,360,150612,6,0,P|315:336|345:262,1,164.999992847443,2|2,0:0|0:0,0:0:0:0:
332,207,151445,2,0,P|330:180|335:153,1,54.9999976158142,8|0,0:0|0:0,0:0:0:0:
371,111,151862,2,0,B|319:140|267:111|267:111|214:81|162:111,1,219.999990463257,2|0,0:0|0:0,0:0:0:0:
213,208,153112,2,0,L|205:262,2,54.9999976158142,8|2|0,0:0|0:0|0:0,0:0:0:0:
108,174,153945,6,0,L|81:336,1,164.999992847443,6|2,0:0|0:0,0:0:0:0:
117,378,154779,1,8,0:0:0:0:
204,310,155195,2,0,B|285:297|285:297|355:341,1,164.999992847443,2|8,0:0|0:0,0:0:0:0:
397,376,156029,1,0,0:0:0:0:
469,292,156445,1,8,0:0:0:0:
375,156,157070,1,2,0:0:0:0:
375,156,157279,6,0,L|265:163,1,109.999995231628,2|0,0:0|0:0,0:0:0:0:
228,204,157904,1,2,0:0:0:0:
228,204,158112,2,0,P|242:259|223:315,1,109.999995231628,8|0,0:0|0:0,0:0:0:0:
200,357,158737,1,0,0:0:0:0:
200,357,158945,2,0,L|145:347,1,54.9999976158142,2|8,0:0|0:0,0:0:0:0:
79,260,159570,1,2,0:0:0:0:
78,260,159779,2,0,P|100:210|92:156,1,109.999995231628,8|8,0:0|0:3,0:0:0:0:
12,78,160612,6,0,P|86:45|163:70,1,164.999992847443,6|2,0:0|0:0,0:0:0:0:
207,103,161445,1,8,0:0:0:0:
307,58,161862,2,0,P|292:132|421:168,1,219.999990463257,2|0,0:0|0:0,0:0:0:0:
457,156,162904,1,2,0:0:0:0:
457,156,163112,1,8,0:0:0:0:
361,290,163737,1,0,0:0:0:0:
361,290,163945,6,0,B|313:283|281:313|281:313|248:288|207:292,1,164.999992847443,2|2,0:0|0:0,0:0:0:0:
153,307,164779,1,8,0:0:0:0:
187,201,165195,2,0,P|190:174|186:147,1,54.9999976158142,0|0,0:0|0:0,0:0:0:0:
161,98,165612,2,0,P|86:76|41:139,1,164.999992847443,2|2,0:0|0:0,0:0:0:0:
57,192,166445,1,8,0:0:0:0:
184,296,167070,1,2,0:0:0:0:
184,296,167279,6,0,L|348:278,1,164.999992847443,6|2,0:0|0:0,0:0:0:0:
397,301,168112,1,8,0:0:0:0:
445,202,168529,2,0,L|441:147,1,54.9999976158142,0|2,0:0|0:0,0:0:0:0:
480,107,168945,2,0,P|401:125|332:83,1,164.999992847443,2|2,0:0|0:0,0:0:0:0:
305,34,169779,1,8,0:0:0:0:
257,191,170404,1,2,0:0:0:0:
257,190,170612,6,0,P|210:218|155:218,1,109.999995231628,2|0,0:0|0:0,0:0:0:0:
108,189,171237,1,2,0:0:0:0:
107,188,171445,2,0,P|149:257|132:336,1,164.999992847443,8|0,0:0|0:0,0:0:0:0:
93,375,172279,2,0,L|38:365,2,54.9999976158142,2|8|0,0:0|0:0|0:0,0:0:0:0:
132,336,172904,2,0,L|240:316,1,109.999995231628,8|4,0:3|0:3,0:0:0:0:
289,341,173529,1,2,0:0:0:0:
377,275,173945,6,0,P|398:326|392:380,2,109.999995231628,6|8|8,0:0|0:0|0:0,0:0:0:0:
304,194,175195,1,8,0:0:0:0:
226,271,175612,2,0,P|173:283|123:263,1,109.999995231628,8|8,0:0|0:0,0:0:0:0:
87,221,176237,1,8,0:0:0:0:
87,221,176445,2,0,L|82:111,1,109.999995231628,8|8,0:0|0:0,0:0:0:0:
0,208,177279,6,0,L|5:318,1,109.999995231628,8|8,0:0|0:0,0:0:0:0:
102,367,178112,2,0,P|151:341|205:346,1,109.999995231628,8|8,0:0|0:0,0:0:0:0:
252,374,178737,1,8,0:0:0:0:
252,374,178945,2,0,P|306:378|354:353,1,109.999995231628,8|8,0:0|0:0,0:0:0:0:
426,269,179779,2,0,L|422:214,1,54.9999976158142,8|8,0:0|0:0,0:0:0:0:
450,167,180195,1,8,0:0:0:0:
363,98,180612,6,0,P|311:80|259:95,1,109.999995231628,8|8,0:0|0:0,0:0:0:0:
223,137,181237,1,8,0:0:0:0:
223,137,181445,2,0,P|171:152|119:134,1,109.999995231628,8|8,0:0|0:0,0:0:0:0:
31,68,182279,2,0,L|38:177,1,109.999995231628,8|8,0:0|0:0,0:0:0:0:
80,221,182904,1,8,0:0:0:0:
80,221,183112,2,0,L|87:330,1,109.999995231628,8|8,0:0|0:0,0:0:0:0:
183,382,183945,6,0,P|237:380|276:343,1,109.999995231628,10|0,0:0|0:0,0:0:0:0:
305,236,184779,2,0,P|343:198|397:196,1,109.999995231628,8|2,0:0|0:0,0:0:0:0:
501,231,185612,2,0,L|495:121,1,109.999995231628,6|8,0:0|0:0,0:0:0:0:
500,66,186237,2,0,P|418:82|373:54,1,109.999995231628,6|0,0:0|0:0,0:0:0:0:
355,35,186862,1,8,0:0:0:0:
286,121,187279,6,0,L|291:175,2,54.9999976158142,6|2|0,0:0|0:0|0:0,0:0:0:0:
216,35,188112,2,0,P|162:27|117:57,1,109.999995231628,8|0,0:0|0:0,0:0:0:0:
90,105,188737,1,0,0:0:0:0:
90,105,188945,2,0,L|103:269,1,164.999992847443,2|2,0:0|0:0,0:0:0:0:
90,323,189779,1,8,0:0:0:0:
90,323,189987,2,0,P|131:288|184:289,1,109.999995231628,2|2,0:0|0:0,0:0:0:0:
233,315,190612,6,0,L|225:378,2,54.9999976158142,2|2|0,0:0|0:0|0:0,0:0:0:0:
323,252,191445,2,0,P|337:199|323:146,1,109.999995231628,8|0,0:0|0:0,0:0:0:0:
294,97,192070,1,2,0:0:0:0:
294,97,192279,2,0,L|239:97,1,54.9999976158142,2|2,0:0|0:0,0:0:0:0:
182,191,192904,1,2,0:0:0:0:
182,191,193112,2,0,L|237:191,2,54.9999976158142,8|8|8,0:0|0:3|0:3,0:0:0:0:
86,138,193945,6,0,P|74:192|89:244,1,109.999995231628,6|2,0:0|0:0,0:0:0:0:
161,327,194779,1,8,0:0:0:0:
258,274,195195,2,0,L|313:278,1,54.9999976158142,2|2,0:0|0:0,0:0:0:0:
353,317,195612,2,0,P|346:263|369:214,1,109.999995231628,2|2,0:0|0:0,0:0:0:0:
443,132,196445,1,8,0:0:0:0:
332,133,196862,2,0,L|278:123,1,54.9999976158142,2|2,0:0|0:0,0:0:0:0:
238,84,197279,6,0,P|254:136|232:185,1,109.999995231628,6|8,0:0|0:0,0:0:0:0:
186,216,197895,2,0,L|78:198,1,109.999995231628,6|8,0:0|0:0,0:0:0:0:
37,235,198511,1,2,0:0:0:0:
102,324,198922,2,0,L|91:377,2,54.9999976158142,8|8|4,0:0|0:3|0:3,0:0:0:0:
198,269,199744,2,0,L|187:216,2,54.9999976158142,4|4|2,0:3|0:3|0:0,0:0:0:0:
241,304,200361,1,2,0:0:0:0:
241,304,200566,5,8,0:0:0:0:
241,304,202294,5,0,0:0:0:0:
256,192,212294,12,6,214794,0:0:0:0:
338,46,215627,6,0,L|353:210,1,164.999992847443,6|2,0:0|0:0,0:0:0:0:
320,253,216460,1,8,0:0:0:0:
405,321,216877,2,0,P|334:361|256:343,1,164.999992847443,2|8,0:0|0:0,0:0:0:0:
216,304,217710,2,0,P|189:298|161:300,1,54.9999976158142,0|2,0:0|0:0,0:0:0:0:
120,336,218127,1,8,0:0:0:0:
63,181,218752,1,2,0:0:0:0:
62,180,218960,6,0,P|107:211|161:208,1,109.999995231628,2|0,0:0|0:0,0:0:0:0:
210,182,219585,2,0,P|263:178|308:209,1,109.999995231628,2|0,0:0|0:0,0:0:0:0:
319,261,220210,2,0,P|332:160|435:151,1,222.199985960236,2|8,0:0|0:3,0:0:0:0:
488,244,221437,2,0,P|434:248|389:220,1,109.999995231628,8|4,0:3|0:3,0:0:0:0:
312,143,222248,6,0,P|234:131|179:190,1,164.999992847443,6|2,0:0|0:0,0:0:0:0:
172,242,223081,1,8,0:0:0:0:
241,327,223498,2,0,P|319:339|374:280,1,164.999992847443,2|0,0:0|0:0,0:0:0:0:
376,228,224331,2,0,P|370:201|375:174,1,54.9999976158142,2|0,0:0|0:0,0:0:0:0:
410,130,224748,2,0,P|357:142|310:115,1,109.999995231628,8|0,0:0|0:0,0:0:0:0:
251,22,225581,6,0,P|229:96|152:106,1,164.999992847443,2|2,0:0|0:0,0:0:0:0:
111,69,226414,1,8,0:0:0:0:
53,162,226831,2,0,P|60:189|60:217,1,54.9999976158142,0|0,0:0|0:0,0:0:0:0:
27,262,227248,2,0,P|76:238|125:258,1,109.999995231628,2|0,0:0|0:0,0:0:0:0:
170,291,227873,1,8,0:0:0:0:
170,291,228081,2,0,L|170:346,2,54.9999976158142,8|0|4,0:0|0:0|0:3,0:0:0:0:
245,213,228914,6,0,P|323:206|371:268,1,164.999992847443,6|2,0:0|0:0,0:0:0:0:
380,323,229765,1,8,0:0:0:0:
460,244,230190,2,0,L|455:134,1,109.999995231628,2|0,0:0|0:0,0:0:0:0:
413,99,230815,2,0,L|410:44,2,54.9999976158142,8|0|2,0:0|0:0|0:0,0:0:0:0:
375,139,231440,1,8,0:0:0:0:
247,34,232065,1,2,0:0:0:0:
247,34,232273,6,0,P|169:20|121:82,1,164.999992847443,2|2,0:0|0:0,0:0:0:0:
124,137,233106,1,8,0:0:0:0:
56,223,233523,2,0,L|65:277,1,54.9999976158142,0|0,0:0|0:0,0:0:0:0:
27,318,233939,2,0,P|101:285|171:323,1,164.999992847443,2|2,0:0|0:0,0:0:0:0:
201,369,234773,1,8,0:0:0:0:
305,241,235398,1,2,0:0:0:0:
305,240,235606,6,0,P|252:253|202:232,1,109.999995231628,6|0,0:0|0:0,0:0:0:0:
165,191,236231,1,2,0:0:0:0:
165,191,236439,2,0,P|114:170|62:182,1,109.999995231628,8|0,0:0|0:0,0:0:0:0:
93,77,237273,2,0,P|170:96|237:52,1,164.999992847443,2|2,0:0|0:0,0:0:0:0:
264,4,238106,1,8,0:0:0:0:
394,104,238731,1,2,0:0:0:0:
395,104,238939,6,0,P|406:157|390:209,1,109.999995231628,2|0,0:0|0:0,0:0:0:0:
361,256,239564,1,2,0:0:0:0:
360,255,239773,2,0,P|282:243|226:300,1,164.999992847443,8|2,0:0|0:0,0:0:0:0:
220,354,240583,1,0,0:0:0:0:
72,215,241394,2,0,L|17:222,2,54.9999976158142,8|8|4,0:3|0:3|0:3,0:0:0:0:
106,172,242053,1,4,0:3:0:0:
106,172,242273,6,0,P|156:191|209:175,1,109.999995231628,14|10,0:0|0:0,0:0:0:0:
292,103,243100,1,10,0:0:0:0:
401,112,243514,1,10,0:0:0:0:
459,203,243928,2,0,P|467:257|442:306,1,109.999995231628,10|10,0:0|0:0,0:0:0:0:
348,363,244755,1,10,0:0:0:0:
271,294,245169,5,10,0:0:0:0:
271,293,248988,5,0,0:0:0:0:
