osu file format v14

[General]
AudioFilename: audio.mp3
AudioLeadIn: 0
PreviewTime: 52167
Countdown: 0
SampleSet: Soft
StackLeniency: 0.7
Mode: 0
LetterboxInBreaks: 0
WidescreenStoryboard: 1

[Editor]
DistanceSpacing: 1.4
BeatDivisor: 8
GridSize: 32
TimelineZoom: 1.7

[Metadata]
Title:Sincerely
TitleUnicode:Sincerely
Artist:TRUE
ArtistUnicode:TRUE
Creator:Mir
Version:LMT's Hard
Source:ヴァイオレット・エヴァーガーデン
Tags:full version Violet Evergarden op Realazy LMT CrystilonZ
BeatmapID:1539724
BeatmapSetID:729046

[Difficulty]
HPDrainRate:5
CircleSize:4
OverallDifficulty:5
ApproachRate:7
SliderMultiplier:2.99999990463257
SliderTickRate:1

[Events]
//Background and Video events
0,0,"violet gardenever.jpg",0,0
//Break Periods
2,45813,47004
2,140812,142212
2,202494,211394
//Storyboard Layer 0 (Background)
//Storyboard Layer 1 (Fail)
//Storyboard Layer 2 (Pass)
//Storyboard Layer 3 (Foreground)
//Storyboard Sound Samples

[TimingPoints]
2280,833.333333333333,4,2,1,40,1,0
25196,-100,4,2,1,60,0,0
48113,-100,4,2,1,70,0,0
51833,833.333333333333,4,2,1,70,1,0
52279,833.333333333333,4,2,1,90,1,1
52279,-100,4,2,1,90,0,1
78945,-100,4,2,1,40,0,0
83321,-133.333333333333,4,2,1,40,0,0
83842,-133.333333333333,4,2,1,40,0,0
83946,833.333333333333,4,2,1,70,1,0
83946,-100,4,2,1,70,0,0
97272,-100,4,2,1,60,0,0
143939,-100,4,2,1,70,0,0
173945,-100,4,2,1,50,0,0
185612,-100,4,2,1,70,0,0
197279,821.917808219178,4,2,1,70,1,0
200566,983.606557377049,4,2,1,70,1,0
200811,810.810810810811,4,2,1,70,1,0
201216,736.196319018405,4,2,1,70,1,0
201400,845.070422535211,4,2,1,70,1,0
201822,944.88188976378,4,2,1,70,1,0
202294,833.333333333333,4,2,1,60,1,0
215627,-100,4,2,1,90,0,1
220627,810.810810810811,4,2,1,90,1,1
222248,833.333333333333,4,2,1,90,1,1
228914,851.063829787234,4,2,1,90,1,1
230190,833.333333333333,4,2,1,90,1,1
232273,833.333333333333,4,2,1,90,1,1
239773,810.810810810811,4,2,1,90,1,1
241394,879.120879120879,4,2,1,90,1,1
242273,827.586206896552,4,2,1,90,1,1
245058,-100,4,2,1,5,0,1
245169,882.352941176471,4,2,1,90,1,1
245169,-100,4,2,1,90,0,1
245610,833.333333333333,4,2,1,30,1,0
246443,821.917808219178,4,2,1,30,1,0
248086,902.255639097744,4,2,1,30,1,0
248988,810.810810810811,4,2,1,30,1,0
250203,845.070422535211,4,2,1,30,1,0
252315,833.333333333333,4,2,1,30,1,0
258993,851.063829787234,4,2,1,30,1,0
270907,-100,4,2,1,5,0,0

[Colours]
Combo1 : 128,214,255
Combo2 : 179,255,255
Combo3 : 255,196,255
Combo4 : 252,235,199

[HitObjects]
26,209,2280,6,0,B|72:189|133:219|145:269,1,149.999995231629,0|0,0:0|0:0,0:0:0:0:
160,345,2905,1,0,0:0:0:0:
369,304,3946,2,0,P|355:348|332:381,2,74.9999976158143,0|0|0,0:0|0:0|0:0,0:0:0:0:
405,236,4571,1,0,0:0:0:0:
48,148,5613,6,0,B|94:168|155:138|167:88,1,149.999995231629,0|0,0:0|0:0,0:0:0:0:
194,15,6238,1,0,0:0:0:0:
381,128,7279,2,0,P|367:84|344:51,2,74.9999976158143,0|0|0,0:0|0:0|0:0,0:0:0:0:
426,33,7904,1,0,0:0:0:0:
191,265,8738,5,0,0:0:0:0:
259,306,8946,2,0,B|290:270|356:255|412:277,1,149.999995231629,0|0,0:0|0:0,0:0:0:0:
187,256,9779,2,0,B|156:292|90:307|34:285,2,149.999995231629,0|0|0,0:0|0:0|0:0,0:0:0:0:
399,284,11029,1,0,0:0:0:0:
470,249,11238,1,0,0:0:0:0:
193,85,12071,5,0,0:0:0:0:
140,141,12279,2,0,B|112:99|50:83|-2:107,1,149.999995231629,0|0,0:0|0:0,0:0:0:0:
90,215,12904,2,0,B|118:173|180:157|232:181,1,149.999995231629,0|0,0:0|0:0,0:0:0:0:
295,219,13529,2,0,P|250:164|320:166,1,149.999995231629,0|0,0:0|0:0,0:0:0:0:
365,359,14363,6,0,B|356:304|385:247|443:235,1,149.999995231629,0|0,0:0|0:0,0:0:0:0:
507,224,14988,1,0,0:0:0:0:
278,276,15404,1,0,0:0:0:0:
211,239,15613,6,0,B|169:215|102:224|68:261,1,149.999995231629,2|0,0:0|0:0,0:0:0:0:
7,190,16238,2,0,P|50:166|70:127,1,74.9999976158143,2|8,0:0|0:0,0:0:0:0:
214,117,16863,1,2,0:0:0:0:
214,117,17071,1,2,0:0:0:0:
266,57,17279,6,0,B|242:99|251:166|288:200,1,149.999995231629,0|2,0:0|0:0,0:0:0:0:
240,266,17904,2,0,P|221:246|156:233,1,74.9999976158143,0|8,0:0|0:0,0:0:0:0:
9,99,18737,1,0,0:0:0:0:
75,138,18946,6,0,B|117:162|184:153|218:116,1,149.999995231629,2|2,0:0|0:0,0:0:0:0:
303,139,19571,2,0,P|279:168|272:208,1,74.9999976158143,2|8,0:0|0:0,0:0:0:0:
149,319,20196,1,2,0:0:0:0:
149,319,20404,1,2,0:0:0:0:
110,384,20613,6,0,B|134:342|125:275|88:241,1,149.999995231629,0|2,0:0|0:0,0:0:0:0:
167,202,21238,2,0,P|194:242|225:264,1,74.9999976158143,0|8,0:0|0:0,0:0:0:0:
410,84,22071,1,0,0:0:0:0:
338,112,22279,6,0,P|288:52|187:59,1,149.999995231629,2|0,0:0|0:0,0:0:0:0:
312,26,22904,1,2,0:0:0:0:
339,122,23113,2,0,P|389:182|489:168,1,149.999995231629,8|2,0:0|0:0,0:0:0:0:
366,204,23738,1,2,0:0:0:0:
430,102,23946,2,0,P|463:85|507:84,1,74.9999976158143,2|2,0:0|0:0,0:0:0:0:
400,14,24363,5,8,0:0:0:0:
324,33,24571,1,8,0:0:0:0:
321,39,24675,1,8,0:0:0:0:
318,46,24779,1,8,0:0:0:0:
241,24,24988,1,8,0:3:0:0:
165,48,25196,1,4,0:3:0:0:
173,248,25613,6,0,P|231:214|250:184,1,74.9999976158143,2|2,0:0|0:0,0:0:0:0:
252,130,26029,1,0,0:0:0:0:
386,181,26238,2,0,P|342:179|305:193,1,74.9999976158143,2|8,0:0|0:0,0:0:0:0:
155,325,26863,5,0,0:0:0:0:
21,274,27072,2,0,P|65:276|102:262,1,74.9999976158143,0|0,0:0|0:0,0:0:0:0:
112,187,27488,1,2,0:0:0:0:
244,237,27696,2,0,P|200:235|163:249,1,74.9999976158143,2|0,0:0|0:0,0:0:0:0:
248,326,28113,2,0,P|258:276|345:199,1,149.999995231629,8|0,0:0|0:0,0:0:0:0:
293,43,28946,5,2,0:0:0:0:
398,76,29154,1,2,0:0:0:0:
302,49,29363,1,0,0:0:0:0:
138,87,29571,2,0,P|185:74|235:84,1,74.9999976158143,2|8,0:0|0:0,0:0:0:0:
126,300,30404,5,2,0:0:0:0:
72,245,30613,2,0,P|30:229|-14:234,1,74.9999976158143,0|2,0:0|0:0,0:0:0:0:
151,224,31029,1,2,0:0:0:0:
96,166,31237,2,0,P|57:146|33:118,1,74.9999976158143,0|8,0:0|0:0,0:0:0:0:
174,145,31654,1,2,0:0:0:0:
235,202,31863,2,0,P|247:252|243:296,1,74.9999976158143,0|0,0:0|0:0,0:0:0:0:
310,149,32279,5,2,0:0:0:0:
350,250,32488,1,2,0:0:0:0:
399,165,32696,1,0,0:0:0:0:
505,281,32904,2,0,P|471:256|410:248,1,74.9999976158143,2|8,0:0|0:0,0:0:0:0:
355,239,33321,1,0,0:0:0:0:
287,289,33529,1,0,0:0:0:0:
168,194,33738,6,0,P|202:219|263:227,1,74.9999976158143,2|0,0:0|0:0,0:0:0:0:
296,176,34154,1,2,0:0:0:0:
423,157,34363,2,0,P|389:132|328:124,1,74.9999976158143,2|0,0:0|0:0,0:0:0:0:
432,244,34779,2,0,P|449:172|508:128,1,149.999995231629,8|0,0:0|0:0,0:0:0:0:
278,66,35613,5,2,0:0:0:0:
351,9,35821,1,2,0:0:0:0:
273,57,36029,1,0,0:0:0:0:
115,14,36238,2,0,P|168:13|215:37,1,74.9999976158143,2|8,0:0|0:0,0:0:0:0:
280,184,36863,6,0,P|285:165|298:140,1,37.4999988079071,0|0,0:0|0:0,0:0:0:0:
288,140,37071,2,0,P|245:149|203:135,1,74.9999976158143,2|8,0:0|0:0,0:0:0:0:
378,188,37488,2,0,L|369:113,2,74.9999976158143,2|0|2,0:0|0:0|0:0,0:0:0:0:
457,77,38113,1,8,0:0:0:0:
393,191,38321,2,0,L|377:41,1,149.999995231629,2|8,0:0|0:3,0:0:0:0:
375,36,38842,1,8,0:3:0:0:
372,30,38946,6,0,P|325:48|279:40,1,74.9999976158143,0|0,0:0|0:0,0:0:0:0:
232,9,39363,1,0,0:0:0:0:
157,104,39571,2,0,P|204:86|250:94,1,74.9999976158143,2|8,0:0|0:0,0:0:0:0:
152,275,40196,5,0,0:0:0:0:
285,338,40404,2,0,P|262:308|229:291,1,74.9999976158143,2|0,0:0|0:0,0:0:0:0:
213,215,40821,1,2,0:0:0:0:
364,223,41029,2,0,P|321:235|278:230,1,74.9999976158143,2|0,0:0|0:0,0:0:0:0:
392,310,41446,2,0,P|407:221|469:165,1,149.999995231629,8|0,0:0|0:0,0:0:0:0:
491,111,42071,1,0,0:0:0:0:
347,116,42279,6,0,P|386:92|441:93,1,74.9999976158143,2|2,0:0|0:0,0:0:0:0:
286,48,42696,1,0,0:0:0:0:
277,186,42904,2,0,P|262:133|226:99,1,74.9999976158143,2|8,0:0|0:0,0:0:0:0:
351,264,43529,1,0,0:0:0:0:
299,330,43738,2,0,P|349:298|463:293,1,149.999995231629,2|2,0:0|0:0,0:0:0:0:
378,181,44363,2,0,P|422:197|475:196,1,74.9999976158143,2|0,0:0|0:0,0:0:0:0:
510,251,44779,1,8,0:0:0:0:
512,97,45196,5,0,0:0:0:0:
437,86,45404,1,0,0:0:0:0:
484,24,45613,1,0,0:0:0:0:
20,99,47904,5,0,0:0:0:0:
80,160,48113,1,0,0:0:0:0:
127,83,48321,2,0,P|147:62|181:45,2,37.4999988079071,8|8|8,0:0|0:0|0:0,0:0:0:0:
201,138,48738,1,8,0:0:0:0:
212,135,48842,1,8,0:0:0:0:
223,131,48946,6,0,P|270:115|372:111,1,149.999995231629,2|8,0:0|0:0,0:0:0:0:
258,42,49571,2,0,P|290:114|308:205,1,149.999995231629,2|2,0:0|0:0,0:0:0:0:
380,102,50196,1,8,0:0:0:0:
414,185,50404,1,0,0:0:0:0:
504,53,50613,6,0,P|474:89|463:135,1,74.9999976158143,8|2,0:0|0:0,0:0:0:0:
500,264,51029,2,0,P|507:217|499:164,1,74.9999976158143,8|2,0:0|0:0,0:0:0:0:
374,108,51446,2,0,P|329:114|295:131,2,49.9999984105428,8|2|2,0:0|0:0|0:0,0:0:0:0:
287,111,51833,2,0,P|261:130|240:161,2,49.9999984105428,8|4|4,0:3|0:3|0:3,0:0:0:0:
175,169,52279,6,0,P|247:182|344:248,1,149.999995231629,6|0,0:0|0:0,0:0:0:0:
423,193,52904,1,2,0:0:0:0:
323,231,53113,1,8,0:0:0:0:
119,73,53529,6,0,P|198:66|283:22,1,149.999995231629,2|0,0:0|0:0,0:0:0:0:
357,67,54154,1,8,0:0:0:0:
298,136,54363,2,0,P|366:106|440:100,2,149.999995231629,0|8|0,0:0|0:0|0:0,0:0:0:0:
233,188,55404,1,0,0:0:0:0:
78,201,55613,6,0,P|148:210|245:188,1,149.999995231629,2|0,0:0|0:0,0:0:0:0:
321,251,56238,2,0,P|257:270|230:291,1,74.9999976158143,2|8,0:0|0:0,0:0:0:0:
370,179,56654,1,0,0:0:0:0:
512,212,56863,6,0,P|441:215|366:188,1,149.999995231629,2|0,0:0|0:0,0:0:0:0:
315,108,57488,2,0,P|355:95|409:100,1,74.9999976158143,2|2,0:0|0:0,0:0:0:0:
279,187,57904,1,2,0:0:0:0:
227,119,58113,2,0,P|185:119|136:136,1,74.9999976158143,8|2,0:0|0:0,0:0:0:0:
95,298,58738,1,0,0:0:0:0:
248,335,58946,6,0,P|174:337|89:300,1,149.999995231629,2|0,0:0|0:0,0:0:0:0:
6,234,59571,1,2,0:0:0:0:
127,227,59779,1,8,0:0:0:0:
335,361,60196,6,0,P|384:328|494:318,1,149.999995231629,2|0,0:0|0:0,0:0:0:0:
378,241,60821,1,8,0:0:0:0:
277,288,61029,2,0,P|232:308|129:307,2,149.999995231629,0|8|0,0:0|0:0|0:0,0:0:0:0:
293,200,62071,1,0,0:0:0:0:
441,174,62279,6,0,P|379:164|279:203,1,149.999995231629,2|0,0:0|0:0,0:0:0:0:
184,134,62904,2,0,P|227:129|274:97,1,74.9999976158143,2|8,0:0|0:0,0:0:0:0:
98,312,63529,2,0,P|146:310|183:320,1,74.9999976158143,0|2,0:0|0:0,0:0:0:0:
69,235,63946,5,0,0:0:0:0:
16,297,64154,2,0,L|-1:380,1,74.9999976158143,8|0,0:0|0:0,0:0:0:0:
65,229,64571,1,2,0:0:0:0:
29,155,64779,5,8,0:0:0:0:
108,161,64988,1,8,0:3:0:0:
184,166,65196,1,4,0:3:0:0:
244,218,65404,1,4,0:3:0:0:
395,225,65613,6,0,P|340:242|233:217,1,149.999995231629,6|0,0:0|0:0,0:0:0:0:
134,266,66238,1,2,0:0:0:0:
238,312,66446,1,8,0:0:0:0:
478,146,66863,6,0,P|423:129|316:154,1,149.999995231629,2|0,0:0|0:0,0:0:0:0:
216,69,67488,2,0,P|278:82|309:79,1,74.9999976158143,8|0,0:0|0:0,0:0:0:0:
156,126,67904,1,2,0:0:0:0:
215,188,68113,2,0,P|166:160|48:153,1,149.999995231629,8|0,0:0|0:0,0:0:0:0:
141,42,68738,1,2,0:0:0:0:
0,24,68946,6,0,P|49:46|172:43,1,149.999995231629,2|0,0:0|0:0,0:0:0:0:
292,31,69571,2,0,P|252:16|207:22,1,74.9999976158143,2|8,0:0|0:0,0:0:0:0:
415,168,70196,2,0,P|377:166|342:153,1,74.9999976158143,0|0,0:0|0:0,0:0:0:0:
403,263,70613,5,2,0:0:0:0:
496,152,70821,2,0,P|441:178|395:270,1,149.999995231629,8|2,0:0|0:0,0:0:0:0:
341,307,71446,1,8,0:0:0:0:
188,76,72071,1,0,0:0:0:0:
36,73,72279,6,0,P|112:96|199:83,1,149.999995231629,2|0,0:0|0:0,0:0:0:0:
288,147,72904,2,0,P|243:149|198:167,1,74.9999976158143,2|8,0:0|0:0,0:0:0:0:
49,235,73529,1,0,0:0:0:0:
114,295,73738,2,0,P|149:305|187:308,2,74.9999976158143,0|2|8,0:0|0:0|0:0,0:0:0:0:
239,246,74363,1,0,0:0:0:0:
258,377,74571,2,0,P|274:329|303:292,1,74.9999976158143,2|8,0:0|0:0,0:0:0:0:
497,169,75404,1,2,0:0:0:0:
350,162,75613,6,0,P|413:185|512:175,1,149.999995231629,2|0,0:0|0:0,0:0:0:0:
418,280,76238,2,0,P|466:267|525:268,1,74.9999976158143,2|8,0:0|0:0,0:0:0:0:
257,219,76863,2,0,P|207:234|176:235,1,74.9999976158143,0|0,0:0|0:0,0:0:0:0:
125,291,77279,5,2,0:0:0:0:
56,343,77488,2,0,P|125:323|216:343,1,149.999995231629,8|2,0:0|0:0,0:0:0:0:
273,362,78113,1,8,0:0:0:0:
350,348,78321,1,8,0:3:0:0:
424,328,78529,1,4,0:3:0:0:
256,192,78946,5,2,0:0:0:0:
281,41,82904,5,2,0:0:0:0:
251,118,83113,1,8,0:0:0:0:
288,49,83321,6,0,L|279:215,1,140.62500089407,2|2,0:0|0:0,0:0:0:0:
276,211,83946,6,0,P|196:183|102:192,1,149.999995231629,2|0,0:0|0:0,0:0:0:0:
56,213,84571,1,2,0:0:0:0:
0,160,84779,1,8,0:0:0:0:
197,283,85196,6,0,P|256:312|361:317,1,149.999995231629,2|0,0:0|0:0,0:0:0:0:
469,291,85821,2,0,P|417:268|368:264,1,74.9999976158143,8|0,0:0|0:0,0:0:0:0:
327,236,86237,1,2,0:0:0:0:
400,177,86446,2,0,P|331:193|232:182,1,149.999995231629,8|0,0:0|0:0,0:0:0:0:
183,143,87071,1,2,0:0:0:0:
26,144,87279,6,0,P|95:128|194:139,1,149.999995231629,2|0,0:0|0:0,0:0:0:0:
120,32,87904,2,0,P|180:51|226:52,1,74.9999976158143,2|8,0:0|0:0,0:0:0:0:
254,99,88321,1,0,0:0:0:0:
406,93,88529,6,0,P|334:78|232:101,1,149.999995231629,2|0,0:0|0:0,0:0:0:0:
234,179,89154,2,0,P|271:178|305:164,1,74.9999976158143,8|0,0:0|0:0,0:0:0:0:
175,127,89571,1,2,0:0:0:0:
98,127,89779,1,8,0:0:0:0:
47,298,90196,5,8,0:3:0:0:
55,295,90300,1,8,0:3:0:0:
65,293,90404,1,4,0:3:0:0:
74,291,90508,1,4,0:3:0:0:
83,291,90612,6,0,P|153:288|247:314,1,149.999995231629,6|0,0:0|0:0,0:0:0:0:
299,341,91237,1,2,0:0:0:0:
375,342,91446,1,8,0:0:0:0:
512,151,91862,6,0,P|447:164|340:147,1,149.999995231629,2|0,0:0|0:0,0:0:0:0:
245,213,92487,2,0,P|281:212|345:232,1,74.9999976158143,8|0,0:0|0:0,0:0:0:0:
291,130,92904,1,2,0:0:0:0:
348,72,93112,2,0,P|312:94|205:105,1,149.999995231629,8|0,0:0|0:0,0:0:0:0:
151,165,93737,1,2,0:0:0:0:
1,179,93946,6,0,P|46:160|156:154,1,149.999995231629,6|0,0:0|0:0,0:0:0:0:
96,236,94571,1,2,0:0:0:0:
76,80,94779,2,0,P|69:135|92:246,1,149.999995231629,8|0,0:0|0:0,0:0:0:0:
162,280,95404,1,2,0:0:0:0:
238,225,95612,5,2,0:0:0:0:
264,314,95821,1,8,0:0:0:0:
272,328,96029,1,8,0:0:0:0:
333,249,96237,2,0,P|352:243|370:242,2,37.4999988079071,0|8|8,0:0|0:0|0:0,0:0:0:0:
303,161,96654,2,0,P|315:103|337:64,2,74.9999976158143,8|8|4,0:3|0:3|0:3,0:0:0:0:
393,39,97279,6,0,P|341:54|230:36,1,149.999995231629,2|0,0:0|0:0,0:0:0:0:
174,15,97904,1,2,0:0:0:0:
103,46,98112,1,8,0:0:0:0:
20,181,98529,2,0,P|78:171|113:173,1,74.9999976158143,0|0,0:0|0:0,0:0:0:0:
170,193,98946,6,0,L|152:322,1,112.499996423721,2|2,0:0|0:0,0:0:0:0:
155,312,99362,1,2,0:0:0:0:
238,298,99571,1,2,0:0:0:0:
214,376,99779,1,8,0:0:0:0:
503,154,100404,5,8,0:0:0:0:
437,111,100612,2,0,P|367:109|292:147,1,149.999995231629,2|0,0:0|0:0,0:0:0:0:
204,197,101237,2,0,P|252:208|287:226,1,74.9999976158143,2|8,0:0|0:0,0:0:0:0:
145,81,101862,2,0,P|103:94|42:94,1,74.9999976158143,2|2,0:0|0:0,0:0:0:0:
20,157,102279,6,0,L|34:288,1,112.499996423721,2|2,0:0|0:0,0:0:0:0:
35,278,102696,1,0,0:0:0:0:
114,316,102904,1,2,0:0:0:0:
46,366,103112,2,0,L|209:348,1,149.999995231629,8|2,0:0|0:0,0:0:0:0:
246,287,103737,5,2,0:0:0:0:
329,266,103946,2,0,P|375:234|479:225,1,149.999995231629,2|0,0:0|0:0,0:0:0:0:
438,138,104571,1,2,0:0:0:0:
347,170,104779,2,0,P|386:216|414:321,1,149.999995231629,8|0,0:0|0:0,0:0:0:0:
245,111,105612,6,0,L|110:127,1,112.499996423721,2|2,0:0|0:0,0:0:0:0:
123,125,106029,1,0,0:0:0:0:
186,36,106237,1,2,0:0:0:0:
277,42,106446,2,0,L|253:211,1,149.999995231629,8|2,0:0|0:0,0:0:0:0:
283,262,107071,5,2,0:0:0:0:
204,251,107279,2,0,L|68:265,1,112.499996423721,2|2,0:0|0:0,0:0:0:0:
82,249,107696,2,0,L|52:169,1,74.9999976158143,0|2,0:0|0:0,0:0:0:0:
31,108,108112,1,8,0:0:0:0:
108,120,108321,2,0,L|161:112,2,37.4999988079071,2|8|2,0:0|0:0|0:0,0:0:0:0:
197,51,108737,1,2,0:0:0:0:
220,127,108946,6,0,L|352:140,1,112.499996423721,2|2,0:0|0:0,0:0:0:0:
341,139,109362,1,0,0:0:0:0:
419,148,109570,1,2,0:0:0:0:
377,219,109779,1,8,0:0:0:0:
384,245,109987,1,8,0:0:0:0:
492,364,110404,5,8,0:0:0:0:
492,364,110508,1,8,0:0:0:0:
492,364,110612,1,2,0:0:0:0:
191,273,111445,5,8,0:0:0:0:
246,210,111654,2,0,L|252:155,4,37.4999988079071,0|0|0|0|0,0:0|0:0|0:0|0:0|0:0,0:0:0:0:
168,190,112279,6,0,P|102:154|28:143,1,149.999995231629,6|0,0:0|0:0,0:0:0:0:
0,71,112904,1,2,0:0:0:0:
77,71,113112,2,0,P|122:75|162:65,1,74.9999976158143,8|0,0:0|0:0,0:0:0:0:
259,155,113737,1,2,0:0:0:0:
339,119,113945,6,0,L|470:100,1,112.499996423721,2|2,0:0|0:0,0:0:0:0:
459,108,114362,1,2,0:0:0:0:
472,185,114570,1,2,0:0:0:0:
392,218,114779,2,0,P|353:219|253:244,1,112.499996423721,8|8,0:0|0:0,0:0:0:0:
273,247,115195,1,2,0:0:0:0:
226,181,115404,1,2,0:0:0:0:
183,246,115612,6,0,L|166:363,1,112.499996423721,2|2,0:0|0:0,0:0:0:0:
174,366,116029,1,2,0:0:0:0:
93,290,116237,1,2,0:0:0:0:
103,212,116446,2,0,L|113:137,1,74.9999976158143,8|2,0:0|0:0,0:0:0:0:
301,46,117070,1,2,0:0:0:0:
370,104,117279,6,0,P|321:145|281:227,1,149.999995231629,2|0,0:0|0:0,0:0:0:0:
359,270,117904,1,2,0:0:0:0:
377,191,118112,2,0,P|319:156|215:135,1,149.999995231629,8|0,0:0|0:0,0:0:0:0:
167,176,118737,1,2,0:0:0:0:
158,21,118945,6,0,P|168:52|168:93,1,74.9999976158143,2|0,0:0|0:0,0:0:0:0:
158,99,119258,2,0,L|94:110,1,37.4999988079071,8|2,0:0|0:0,0:0:0:0:
55,141,119570,1,2,0:0:0:0:
20,207,119779,1,8,0:0:0:0:
39,282,119987,2,0,P|64:340|93:373,1,74.9999976158143,8|4,0:3|0:3,0:0:0:0:
150,357,120404,1,4,0:3:0:0:
153,350,120508,1,4,0:3:0:0:
156,341,120612,6,0,P|210:309|298:302,1,149.999995231629,2|0,0:0|0:0,0:0:0:0:
404,253,121237,2,0,P|354:248|308:217,1,74.9999976158143,2|8,0:0|0:0,0:0:0:0:
187,138,121862,1,0,0:0:0:0:
255,101,122070,2,0,P|302:107|350:129,2,74.9999976158143,2|0|2,0:0|0:0|0:0,0:0:0:0:
189,58,122695,1,0,0:0:0:0:
122,94,122904,2,0,P|69:109|15:109,1,74.9999976158143,0|8,0:0|0:0,0:0:0:0:
191,146,123320,1,2,0:0:0:0:
211,218,123529,2,0,P|220:263|220:307,1,74.9999976158143,2|8,0:0|0:0,0:0:0:0:
284,340,123945,5,2,0:0:0:0:
397,310,124154,2,0,L|341:298,2,37.4999988079071,0|2|2,0:0|0:0|0:0,0:0:0:0:
454,367,124570,1,2,0:0:0:0:
490,297,124779,2,0,L|510:175,1,112.499996423721,8|8,0:0|0:0,0:0:0:0:
508,177,125195,1,0,0:0:0:0:
457,113,125404,5,2,0:0:0:0:
386,144,125612,2,0,P|336:158|296:156,1,74.9999976158143,0|2,0:0|0:0,0:0:0:0:
236,178,126029,2,0,P|214:206|209:238,1,37.4999988079071,0|2,0:0|0:0,0:0:0:0:
204,218,126237,2,0,P|162:170|123:160,1,74.9999976158143,0|8,0:0|0:0,0:0:0:0:
75,172,126654,1,8,0:0:0:0:
66,176,126758,1,8,0:0:0:0:
59,183,126862,2,0,P|62:229|81:270,1,74.9999976158143,8|2,0:0|0:0,0:0:0:0:
77,331,127279,5,2,0:0:0:0:
152,290,127487,2,0,L|158:356,2,37.4999988079071,0|2|0,0:0|0:0|0:0,0:0:0:0:
216,376,127904,1,2,0:0:0:0:
352,296,128112,2,0,L|274:316,1,74.9999976158143,8|0,0:0|0:0,0:0:0:0:
273,310,128425,1,8,0:0:0:0:
267,306,128529,1,0,0:0:0:0:
217,246,128737,6,0,P|234:173|284:119,1,149.999995231629,2|2,0:0|0:0,0:0:0:0:
177,79,129362,2,0,P|172:116|161:134,1,37.4999988079071,0|2,0:0|0:0,0:0:0:0:
165,126,129570,2,0,P|131:157|80:175,1,74.9999976158143,0|8,0:0|0:0,0:0:0:0:
48,248,129987,1,2,0:0:0:0:
56,246,130091,1,8,0:0:0:0:
64,246,130195,2,0,P|105:259|148:304,1,74.9999976158143,2|2,0:0|0:0,0:0:0:0:
108,368,130612,6,0,L|211:354,1,74.9999976158143,2|0,0:0|0:0,0:0:0:0:
187,353,130925,1,2,0:0:0:0:
192,348,131029,1,0,0:0:0:0:
235,278,131237,1,2,0:0:0:0:
272,350,131446,2,0,L|352:360,1,74.9999976158143,8|8,0:0|0:0,0:0:0:0:
233,268,131862,1,0,0:0:0:0:
204,191,132071,6,0,L|46:175,1,149.999995231629,2|2,0:0|0:0,0:0:0:0:
80,89,132696,2,0,L|120:92,1,37.4999988079071,8|2,0:0|0:0,0:0:0:0:
211,181,133112,2,0,L|319:191,1,74.9999976158143,2|0,0:0|0:0,0:0:0:0:
289,180,133425,2,0,L|406:187,1,112.499996423721,2|8,0:0|0:0,0:0:0:0:
412,194,133841,1,8,0:0:0:0:
421,201,133946,6,0,P|405:162|403:49,1,149.999995231629,2|0,0:0|0:0,0:0:0:0:
279,22,134570,2,0,P|305:59|316:109,1,74.9999976158143,2|8,0:0|0:0,0:0:0:0:
307,168,134987,2,0,P|285:158|242:158,1,37.4999988079071,0|8,0:0|0:0,0:0:0:0:
264,160,135195,2,0,P|229:182|203:224,1,74.9999976158143,0|2,0:0|0:0,0:0:0:0:
250,292,135612,2,0,P|176:292|163:296,1,74.9999976158143,0|2,0:0|0:0,0:0:0:0:
321,353,136029,1,0,0:0:0:0:
320,344,136133,1,2,0:0:0:0:
320,337,136237,2,0,P|332:304|368:254,1,74.9999976158143,0|8,0:0|0:0,0:0:0:0:
306,119,137070,1,0,0:0:0:0:
365,167,137279,6,0,P|305:159|231:191,1,112.499996423721,2|0,0:0|0:0,0:0:0:0:
246,181,137695,1,2,0:0:0:0:
110,124,137904,2,0,P|165:124|210:143,1,74.9999976158143,2|8,0:0|0:0,0:0:0:0:
305,280,138529,1,2,0:0:0:0:
372,242,138737,2,0,P|367:159|410:76,2,149.999995231629,2|2|0,0:0|0:0|0:0,0:0:0:0:
418,309,139779,5,8,0:0:0:0:
347,348,139987,1,8,0:3:0:0:
270,330,140195,1,8,0:3:0:0:
200,358,140404,1,4,0:3:0:0:
194,353,140508,1,4,0:3:0:0:
189,348,140612,1,2,0:0:0:0:
125,186,143112,6,0,L|117:233,3,37.4999988079071,8|8|2|2,0:0|0:0|0:0|0:0,0:0:0:0:
135,180,143529,1,8,0:0:0:0:
146,179,143633,1,8,0:0:0:0:
159,177,143737,1,2,0:0:0:0:
174,181,143841,1,2,0:0:0:0:
188,187,143945,6,0,P|232:185|288:204,1,74.9999976158143,6|8,0:0|0:0,0:0:0:0:
339,218,144362,1,8,0:0:0:0:
272,263,144570,2,0,P|266:165|290:97,1,149.999995231629,2|2,0:0|0:0,0:0:0:0:
324,51,145195,2,0,P|386:54|426:73,1,74.9999976158143,8|2,0:0|0:0,0:0:0:0:
247,41,145612,6,0,P|212:57|152:58,1,74.9999976158143,8|2,0:0|0:0,0:0:0:0:
105,38,146029,2,0,P|90:30|63:27,2,37.4999988079071,8|8|4,0:3|0:3|0:3,0:0:0:0:
124,115,146445,2,0,P|65:134|40:164,1,74.9999976158143,4|8,0:3|0:3,0:0:0:0:
33,216,146862,1,4,0:3:0:0:
31,225,146966,1,4,0:3:0:0:
31,234,147070,1,4,0:3:0:0:
33,243,147174,1,4,0:3:0:0:
36,252,147279,6,0,P|104:242|202:263,1,149.999995231629,2|0,0:0|0:0,0:0:0:0:
253,297,147904,1,2,0:0:0:0:
309,244,148112,1,8,0:0:0:0:
499,173,148529,6,0,P|440:144|335:139,1,149.999995231629,2|0,0:0|0:0,0:0:0:0:
231,54,149154,2,0,P|283:77|332:81,1,74.9999976158143,8|0,0:0|0:0,0:0:0:0:
277,154,149570,1,2,0:0:0:0:
350,213,149779,2,0,P|281:197|182:208,1,149.999995231629,8|0,0:0|0:0,0:0:0:0:
147,256,150404,1,2,0:0:0:0:
79,310,150612,6,0,P|148:294|247:305,1,149.999995231629,2|0,0:0|0:0,0:0:0:0:
372,346,151237,2,0,P|312:327|266:326,1,74.9999976158143,2|8,0:0|0:0,0:0:0:0:
287,251,151654,1,0,0:0:0:0:
438,246,151862,6,0,P|366:231|264:254,1,149.999995231629,2|0,0:0|0:0,0:0:0:0:
176,184,152487,2,0,P|213:183|247:169,1,74.9999976158143,8|0,0:0|0:0,0:0:0:0:
331,143,152904,1,2,0:0:0:0:
266,89,153112,1,8,0:0:0:0:
418,58,153320,2,0,P|378:63|323:61,1,74.9999976158143,2|0,0:0|0:0,0:0:0:0:
50,175,153945,6,0,P|120:172|214:198,1,149.999995231629,2|0,0:0|0:0,0:0:0:0:
266,225,154570,1,2,0:0:0:0:
342,226,154779,1,8,0:0:0:0:
512,117,155195,6,0,P|447:130|340:113,1,149.999995231629,2|0,0:0|0:0,0:0:0:0:
228,60,155820,2,0,P|264:59|328:79,1,74.9999976158143,8|0,0:0|0:0,0:0:0:0:
286,144,156237,1,2,0:0:0:0:
343,202,156445,2,0,P|307:180|200:169,1,149.999995231629,8|0,0:0|0:0,0:0:0:0:
144,220,157070,1,2,0:0:0:0:
0,200,157279,6,0,P|45:219|155:225,1,149.999995231629,2|0,0:0|0:0,0:0:0:0:
95,143,157904,1,2,0:0:0:0:
75,299,158112,2,0,P|68:244|91:133,1,149.999995231629,8|0,0:0|0:0,0:0:0:0:
152,82,158737,1,0,0:0:0:0:
210,153,158945,5,2,0:0:0:0:
348,98,159154,2,0,P|296:88|257:94,1,74.9999976158143,8|0,0:0|0:0,0:0:0:0:
222,26,159570,1,2,0:0:0:0:
158,80,159779,1,8,0:0:0:0:
274,241,160195,5,8,0:3:0:0:
281,246,160300,1,8,0:3:0:0:
288,248,160404,1,4,0:3:0:0:
295,246,160508,1,4,0:3:0:0:
302,245,160612,6,0,P|352:225|478:229,1,149.999995231629,6|0,0:0|0:0,0:0:0:0:
422,140,161237,1,2,0:0:0:0:
504,156,161445,1,8,0:0:0:0:
264,95,161862,6,0,P|200:128|105:128,1,149.999995231629,2|0,0:0|0:0,0:0:0:0:
0,79,162487,2,0,P|38:71|97:77,1,74.9999976158143,8|0,0:0|0:0,0:0:0:0:
111,5,162904,1,2,0:0:0:0:
175,51,163112,2,0,P|194:117|186:225,1,149.999995231629,8|0,0:0|0:0,0:0:0:0:
152,265,163737,1,0,0:0:0:0:
73,296,163945,6,0,P|166:302|240:339,1,149.999995231629,2|0,0:0|0:0,0:0:0:0:
276,267,164570,1,2,0:0:0:0:
297,343,164779,2,0,P|223:350|157:384,1,149.999995231629,8|0,0:0|0:0,0:0:0:0:
76,374,165404,1,0,0:0:0:0:
39,305,165612,5,2,0:0:0:0:
166,239,165820,2,0,P|101:244|64:261,1,74.9999976158143,8|0,0:0|0:0,0:0:0:0:
212,174,166237,1,2,0:0:0:0:
249,248,166445,2,0,P|302:222|414:217,1,149.999995231629,8|0,0:0|0:0,0:0:0:0:
457,259,167070,1,2,0:0:0:0:
470,333,167279,6,0,P|480:237|519:163,1,149.999995231629,2|0,0:0|0:0,0:0:0:0:
401,72,167904,2,0,P|436:106|455:144,1,74.9999976158143,2|8,0:0|0:0,0:0:0:0:
265,160,168529,1,0,0:0:0:0:
172,47,168737,2,0,P|190:89|198:136,2,74.9999976158143,2|2|8,0:0|0:0|0:0,0:0:0:0:
193,194,169362,1,0,0:0:0:0:
127,149,169570,2,0,P|65:131|26:137,1,74.9999976158143,2|8,0:0|0:0,0:0:0:0:
259,278,170404,1,2,0:0:0:0:
200,332,170612,6,0,P|261:305|373:316,1,149.999995231629,2|0,0:0|0:0,0:0:0:0:
460,239,171237,2,0,P|419:244|365:243,1,74.9999976158143,2|8,0:0|0:0,0:0:0:0:
153,123,171862,2,0,P|213:116|254:124,1,74.9999976158143,0|0,0:0|0:0,0:0:0:0:
292,159,172279,5,2,0:0:0:0:
313,11,172487,2,0,L|298:95,1,74.9999976158143,8|0,0:0|0:0,0:0:0:0:
444,120,172904,2,0,P|398:123|347:145,1,74.9999976158143,8|0,0:3|0:0,0:0:0:0:
359,207,173320,1,4,0:3:0:0:
355,226,173529,1,2,0:0:0:0:
207,260,173945,6,0,L|54:248,1,149.999995231629,2|2,0:0|0:0,0:0:0:0:
125,332,174570,2,0,L|141:176,1,149.999995231629,2|0,0:0|0:0,0:0:0:0:
151,95,175195,2,0,L|159:32,3,37.4999988079071,8|8|8|8,0:0|0:0|0:0|0:0,0:0:0:0:
150,106,175612,6,0,L|307:124,1,149.999995231629,8|8,0:0|0:0,0:0:0:0:
236,42,176237,2,0,L|217:207,1,149.999995231629,8|0,0:0|0:0,0:0:0:0:
289,277,176862,2,0,L|301:192,1,74.9999976158143,0|0,0:0|0:0,0:0:0:0:
210,273,177279,6,0,L|116:264,1,74.9999976158143,8|8,0:0|0:0,0:0:0:0:
56,259,177695,2,0,L|6:256,3,37.4999988079071,8|8|8|8,0:0|0:0|0:0|0:0,0:0:0:0:
59,251,178112,2,0,L|75:96,1,149.999995231629,8|8,0:0|0:0,0:0:0:0:
84,26,178737,1,8,0:0:0:0:
147,73,178945,2,0,L|235:80,1,74.9999976158143,8|8,0:0|0:0,0:0:0:0:
297,86,179362,2,0,L|365:88,3,37.4999988079071,8|8|8|8,0:0|0:0|0:0|0:0,0:0:0:0:
294,91,179779,2,0,L|277:258,1,149.999995231629,8|8,0:0|0:0,0:0:0:0:
200,234,180404,1,8,0:0:0:0:
288,241,180612,6,0,L|446:250,1,149.999995231629,8|8,0:0|0:0,0:0:0:0:
360,318,181237,2,0,L|368:157,1,149.999995231629,8|0,0:0|0:0,0:0:0:0:
447,96,181862,2,0,L|443:176,1,74.9999976158143,0|0,0:0|0:0,0:0:0:0:
365,88,182279,6,0,L|194:83,1,149.999995231629,8|8,0:0|0:0,0:0:0:0:
294,12,182904,2,0,L|288:179,1,149.999995231629,8|8,0:0|0:0,0:0:0:0:
287,240,183529,2,8,L|286:294,3,37.4999988079071,8|8|8|8,0:0|0:0|0:0|0:0,0:0:0:0:
287,234,183945,6,0,L|114:228,1,149.999995231629,10|0,0:0|0:0,0:0:0:0:
395,317,184779,2,0,L|405:138,1,149.999995231629,8|2,0:0|0:0,0:0:0:0:
410,75,185404,1,0,0:0:0:0:
409,82,185508,1,0,0:0:0:0:
406,89,185612,6,0,P|360:56|269:33,1,149.999995231629,2|8,0:0|0:0,0:0:0:0:
406,0,186237,2,0,P|364:34|315:136,1,149.999995231629,2|0,0:0|0:0,0:0:0:0:
305,196,186862,1,8,0:0:0:0:
24,236,187279,6,0,P|95:247|188:283,1,149.999995231629,2|0,0:0|0:0,0:0:0:0:
241,319,187904,1,2,0:0:0:0:
178,376,188112,2,0,P|263:341|353:339,1,149.999995231629,8|0,0:0|0:0,0:0:0:0:
384,289,188737,1,0,0:0:0:0:
311,253,188945,5,2,0:0:0:0:
439,159,189154,2,0,P|408:183|379:223,1,74.9999976158143,8|0,0:0|0:0,0:0:0:0:
318,172,189570,1,2,0:0:0:0:
172,220,189779,2,0,P|217:206|282:211,1,74.9999976158143,8|2,0:0|0:0,0:0:0:0:
120,57,190404,1,2,0:0:0:0:
33,87,190612,6,0,P|115:95|187:153,1,149.999995231629,2|0,0:0|0:0,0:0:0:0:
246,91,191237,1,2,0:0:0:0:
332,79,191445,2,0,P|273:118|231:210,1,149.999995231629,8|0,0:0|0:0,0:0:0:0:
248,264,192070,1,2,0:0:0:0:
307,320,192279,5,2,0:0:0:0:
169,383,192487,2,0,P|204:353|262:334,1,74.9999976158143,2|0,0:0|0:0,0:0:0:0:
171,272,192904,1,2,0:0:0:0:
110,323,193112,2,0,P|68:347|4:356,2,74.9999976158143,8|8|8,0:0|0:3|0:3,0:0:0:0:
97,244,193737,1,4,0:3:0:0:
95,234,193841,1,4,0:3:0:0:
93,223,193945,6,0,L|71:70,1,149.999995231629,6|2,0:0|0:0,0:0:0:0:
50,152,194570,1,2,0:0:0:0:
160,134,194779,2,0,L|339:104,1,149.999995231629,8|2,0:0|0:0,0:0:0:0:
225,83,195404,1,2,0:0:0:0:
249,203,195612,2,0,L|266:302,1,74.9999976158143,2|0,0:0|0:0,0:0:0:0:
281,358,196029,1,2,0:0:0:0:
347,298,196237,1,2,0:0:0:0:
261,281,196445,2,0,L|166:298,1,74.9999976158143,8|0,0:0|0:0,0:0:0:0:
107,309,196862,6,0,L|97:256,1,37.4999988079071,2|0,0:0|0:0,0:0:0:0:
97,261,197070,2,0,L|87:201,1,37.4999988079071,2|2,0:0|0:0,0:0:0:0:
87,213,197279,6,0,L|214:185,1,112.499996423721,6|8,0:0|0:0,0:0:0:0:
205,188,197689,1,8,0:0:0:0:
252,248,197895,2,0,L|265:113,1,112.499996423721,2|8,0:0|0:0,0:0:0:0:
264,126,198306,1,8,0:0:0:0:
176,107,198511,1,2,0:0:0:0:
234,40,198717,1,8,0:0:0:0:
242,37,198820,1,8,0:0:0:0:
250,34,198922,5,8,0:0:0:0:
332,72,199128,1,8,0:3:0:0:
357,62,199333,1,4,0:3:0:0:
180,192,199744,5,4,0:3:0:0:
98,230,199950,1,4,0:3:0:0:
73,220,200155,1,2,0:0:0:0:
170,277,200361,1,2,0:0:0:0:
258,243,200566,6,0,L|355:252,1,74.9999976158143,8|2,0:0|0:0,0:0:0:0:
512,179,201216,1,8,0:0:0:0:
450,224,201400,2,0,L|444:281,2,49.9999984105428,8|2|2,0:0|0:0|0:0,0:0:0:0:
435,288,201822,1,2,0:0:0:0:
256,192,202294,5,0,0:0:0:0:
256,192,212294,12,0,213960,0:0:0:0:
476,355,214794,5,0,0:0:0:0:
214,168,215627,6,0,P|275:139|361:134,1,149.999995231629,2|0,0:0|0:0,0:0:0:0:
308,215,216252,1,2,0:0:0:0:
265,110,216460,1,8,0:0:0:0:
179,269,216877,6,0,P|97:236|-7:244,1,149.999995231629,2|0,0:0|0:0,0:0:0:0:
3,161,217502,1,8,0:0:0:0:
78,153,217710,2,0,P|114:143|158:116,1,74.9999976158143,0|2,0:0|0:0,0:0:0:0:
92,57,218127,2,0,P|184:89|244:86,1,149.999995231629,8|0,0:0|0:0,0:0:0:0:
292,149,218752,1,2,0:0:0:0:
384,176,218960,6,0,P|299:197|227:255,1,149.999995231629,2|0,0:0|0:0,0:0:0:0:
118,281,219585,2,0,P|151:274|218:293,1,74.9999976158143,2|8,0:0|0:0,0:0:0:0:
265,307,220002,1,0,0:0:0:0:
199,361,220210,2,0,P|269:350|363:373,1,149.999995231629,2|8,0:0|0:3,0:0:0:0:
352,370,220728,5,8,0:3:0:0:
359,376,220829,1,4,0:3:0:0:
414,319,221032,2,0,P|442:340|468:350,2,37.4999988079071,8|8|4,0:3|0:3|0:3,0:0:0:0:
388,243,221437,1,8,0:3:0:0:
397,242,221539,1,8,0:3:0:0:
406,241,221640,1,8,0:3:0:0:
337,185,221843,2,0,P|354:156|371:135,3,37.4999988079071,4|4|4|4,0:3|0:3|0:3|0:3,0:0:0:0:
329,198,222248,6,0,P|218:191|156:208,1,149.999995231629,6|0,0:0|0:0,0:0:0:0:
255,160,222873,1,2,0:0:0:0:
260,264,223081,1,8,0:0:0:0:
30,96,223498,6,0,P|108:122|187:117,1,149.999995231629,2|0,0:0|0:0,0:0:0:0:
237,77,224123,1,8,0:0:0:0:
328,142,224331,2,0,P|268:146|231:158,1,74.9999976158143,2|2,0:0|0:0,0:0:0:0:
312,61,224748,2,0,P|361:119|439:149,1,149.999995231629,8|0,0:0|0:0,0:0:0:0:
492,232,225373,1,2,0:0:0:0:
484,231,225477,1,2,0:0:0:0:
476,229,225581,6,0,P|420:230|314:264,1,149.999995231629,2|0,0:0|0:0,0:0:0:0:
299,337,226206,1,2,0:0:0:0:
377,315,226414,2,0,P|329:257|227:241,1,149.999995231629,8|0,0:0|0:0,0:0:0:0:
184,260,227039,1,0,0:0:0:0:
106,244,227248,5,2,0:0:0:0:
161,184,227456,1,8,0:0:0:0:
85,168,227664,1,8,0:0:0:0:
137,110,227873,2,0,L|148:63,2,37.4999988079071,8|8|8,0:0|0:0|0:0,0:0:0:0:
214,34,228289,2,0,L|232:92,2,37.4999988079071,4|4|4,0:3|0:3|0:3,0:0:0:0:
284,133,228706,1,2,0:0:0:0:
288,126,228810,1,2,0:0:0:0:
295,122,228914,6,0,P|357:97|450:94,1,149.999995231629,2|0,0:0|0:0,0:0:0:0:
355,61,229552,1,2,0:0:0:0:
383,171,229765,1,8,0:0:0:0:
132,260,230190,6,0,P|200:276|273:318,1,149.999995231629,2|0,0:0|0:0,0:0:0:0:
352,298,230815,1,8,0:0:0:0:
302,234,231023,2,0,P|268:210|243:171,1,74.9999976158143,0|2,0:0|0:0,0:0:0:0:
165,151,231440,2,0,P|268:144|333:109,1,149.999995231629,8|0,0:0|0:0,0:0:0:0:
396,62,232065,1,2,0:0:0:0:
407,59,232169,1,2,0:0:0:0:
416,56,232273,6,0,P|354:54|252:9,1,149.999995231629,2|0,0:0|0:0,0:0:0:0:
144,71,232898,2,0,P|187:22|199:17,1,74.9999976158143,2|8,0:0|0:0,0:0:0:0:
49,210,233523,2,0,P|34:175|32:138,1,74.9999976158143,0|0,0:0|0:0,0:0:0:0:
131,231,233939,1,2,0:0:0:0:
14,327,234148,2,0,P|56:295|100:286,1,74.9999976158143,8|0,0:0|0:0,0:0:0:0:
153,312,234564,1,2,0:0:0:0:
188,382,234773,2,0,P|187:329|237:221,1,149.999995231629,8|0,0:0|0:0,0:0:0:0:
296,205,235398,1,2,0:0:0:0:
440,231,235606,6,0,P|383:244|292:212,1,149.999995231629,6|0,0:0|0:0,0:0:0:0:
366,278,236231,1,2,0:0:0:0:
380,164,236439,1,8,0:0:0:0:
212,26,236856,2,0,P|206:77|215:124,1,74.9999976158143,0|0,0:0|0:0,0:0:0:0:
192,177,237273,5,2,0:0:0:0:
52,241,237481,2,0,P|101:213|153:209,1,74.9999976158143,8|0,0:0|0:0,0:0:0:0:
184,253,237898,1,2,0:0:0:0:
205,327,238106,2,0,P|250:332|358:316,1,149.999995231629,8|8,0:0|0:0,0:0:0:0:
361,243,238731,1,2,0:0:0:0:
512,229,238939,6,0,P|437:219|339:244,1,149.999995231629,2|0,0:0|0:0,0:0:0:0:
419,136,239564,1,2,0:0:0:0:
431,295,239773,2,0,P|438:211|418:133,1,149.999995231629,8|8,0:0|0:3,0:0:0:0:
338,99,240381,1,2,0:0:0:0:
257,140,240583,5,0,0:0:0:0:
249,113,240786,1,4,0:3:0:0:
124,207,241191,1,8,0:3:0:0:
112,204,241293,1,8,0:3:0:0:
99,203,241394,2,0,P|38:208|4:216,1,74.9999976158143,8|8,0:3|0:3,0:0:0:0:
68,124,241833,1,4,0:3:0:0:
154,128,242053,1,4,0:3:0:0:
116,47,242273,6,0,L|265:37,1,149.999995231629,10|10,0:0|0:0,0:0:0:0:
512,129,243100,2,0,L|363:119,1,149.999995231629,10|10,0:0|0:0,0:0:0:0:
197,309,243928,2,0,P|173:235|103:170,1,149.999995231629,10|10,0:0|0:0,0:0:0:0:
457,214,244755,2,0,P|424:256|409:335,1,112.499996423721,10|0,0:0|0:0,0:0:0:0:
409,323,245169,6,0,L|330:319,1,74.9999976158143,10|0,0:0|0:0,0:0:0:0:
247,85,248988,5,0,0:0:0:0:
