osu file format v14

[General]
AudioFilename: audio.mp3
AudioLeadIn: 0
PreviewTime: 201228
Countdown: 0
SampleSet: Soft
StackLeniency: 0.5
Mode: 0
LetterboxInBreaks: 0
WidescreenStoryboard: 1

[Editor]
Bookmarks: 82895,146228,172894,201227,214580,227913
DistanceSpacing: 0.85
BeatDivisor: 8
GridSize: 32
TimelineZoom: 2.1

[Metadata]
Title:Sincerely
TitleUnicode:Sincerely
Artist:TRUE
ArtistUnicode:TRUE
Creator:Kalibe
Version:Normal
Source:ヴァイオレット・エヴァーガーデン
Tags:irohas mugiwarasekai collab violet evergarden opening op full size kyoto animation
BeatmapID:1554231
BeatmapSetID:733581

[Difficulty]
HPDrainRate:4
CircleSize:3.5
OverallDifficulty:4
ApproachRate:5
SliderMultiplier:2.4
SliderTickRate:1

[Events]
//Background and Video events
0,0,"uwu.png",0,0
//Break Periods
2,87683,95033
2,201428,212061
2,244323,246396
//Storyboard Layer 0 (Background)
//Storyboard Layer 1 (Fail)
//Storyboard Layer 2 (Pass)
//Storyboard Layer 3 (Foreground)
//Storyboard Sound Samples

[TimingPoints]
1234,833.333333333333,4,2,1,45,1,0
1234,-100,4,2,1,45,0,0
14567,-100,4,2,1,40,0,0
21233,-100,4,2,1,45,0,0
22067,-100,4,2,1,50,0,0
22900,-100,4,2,1,50,0,0
24567,-100,4,2,1,60,0,0
36025,-100,4,2,1,60,0,0
37900,-100,4,2,1,60,0,0
46233,-100,4,2,1,50,0,0
47067,-100,4,2,1,60,0,0
47900,-100,4,2,1,65,0,0
51233,-100,4,2,1,70,0,0
52483,-100,4,2,1,70,0,0
53108,-100,4,2,1,70,0,0
53942,-100,4,2,1,70,0,0
54567,-100,4,2,1,70,0,0
55817,-100,4,2,1,70,0,0
56442,-100,4,2,1,70,0,0
57275,-100,4,2,1,70,0,0
57900,-100,4,2,1,70,0,0
59150,-100,4,2,1,70,0,0
59983,-100,4,2,1,70,0,0
60608,-100,4,2,1,70,0,0
61233,-100,4,2,1,70,0,0
65817,-100,4,2,1,70,0,0
66650,-100,4,2,1,70,0,0
67900,-100,4,2,1,70,0,0
77275,-100,4,2,1,55,0,0
77900,-100,4,2,1,40,0,0
82067,-100,4,2,1,50,0,0
82900,833.333333333333,4,2,1,60,1,0
82900,-100,4,2,1,60,0,0
84150,-100,4,2,1,60,0,0
84775,-100,4,2,1,60,0,0
84983,-100,4,2,1,60,0,0
87483,-100,4,2,1,60,0,0
87900,-100,4,2,1,60,0,0
90817,-100,4,2,1,60,0,0
91442,-100,4,2,1,60,0,0
96233,-100,4,2,1,55,0,0
98942,-100,4,2,1,55,0,0
99567,-100,4,2,1,55,0,0
109254,-100,4,2,1,5,0,0
109358,-100,4,2,1,60,0,0
111233,-100,4,2,1,55,0,0
116233,-100,4,2,1,60,0,0
119566,-100,4,2,1,60,0,0
132378,-100,4,2,1,60,0,0
132899,-100,4,2,1,60,0,0
139358,-100,4,2,1,50,0,0
142066,-100,4,2,1,65,0,0
147483,-100,4,2,1,60,0,0
148108,-100,4,2,1,60,0,0
150816,-100,4,2,1,60,0,0
151441,-100,4,2,1,60,0,0
154149,-100,4,2,1,60,0,0
154774,-100,4,2,1,60,0,0
159566,-100,4,2,1,65,0,0
172066,-100,4,2,1,50,0,0
172899,-100,4,2,1,60,0,0
184566,-100,4,2,1,70,0,0
186232,-100,4,2,1,60,0,0
192895,821.917808219178,4,2,1,65,1,0
193330,821.917808219178,4,2,1,65,1,0
193330,-100,4,2,1,65,0,0
195795,-100,4,2,1,65,0,0
196205,821.917808219178,4,2,1,70,1,0
196205,-100,4,2,1,70,0,0
199094,821.917808219178,4,2,1,70,1,0
199504,983.606557377049,4,2,1,55,1,0
199749,810.810810810811,4,2,1,55,1,0
199749,-100,4,2,1,55,0,0
200053,-100,4,2,1,5,0,0
200154,736.196319018405,4,2,1,55,1,0
200365,821.917808219178,4,2,1,55,1,0
200365,-100,4,2,1,55,0,0
200775,944.88188976378,4,2,1,55,1,0
200775,-100,4,2,1,55,0,0
200932,-100,4,2,1,5,0,0
201228,833.333333333333,4,2,1,50,1,0
201228,-100,4,2,1,50,0,0
212061,-100,4,2,1,50,0,0
213728,-100,4,2,1,75,0,0
214353,-100,4,2,1,25,0,0
214457,-100,4,2,1,50,0,0
214561,-100,4,2,1,75,0,0
215811,-100,4,2,1,75,0,0
216436,-100,4,2,1,75,0,0
219561,810.810810810811,4,2,1,75,1,0
219561,-100,4,2,1,75,0,0
221227,833.333333333333,4,2,1,75,1,0
221227,-100,4,2,1,75,0,0
222478,-100,4,2,1,75,0,0
223103,-100,4,2,1,75,0,0
227060,810.810810810811,4,2,1,75,1,0
227060,-100,4,2,1,75,0,0
227893,851.063829787234,4,2,1,75,1,0
227893,-100,4,2,1,75,0,0
229143,833.333333333333,4,2,1,75,1,0
229144,-100,4,2,1,75,0,0
229769,-100,4,2,1,75,0,0
231226,833.333333333333,4,2,1,75,1,0
231226,-100,4,2,1,75,0,0
238726,810.810810810811,4,2,1,75,1,0
238726,-100,4,2,1,75,0,0
240392,833.333333333333,4,2,1,75,1,0
240392,-100,4,2,1,75,0,0
241226,827.586206896552,4,2,1,70,1,0
244122,-100,4,2,1,60,0,0
244536,833.333333333333,4,2,1,40,1,0
245369,821.917808219178,4,2,1,40,1,0
246396,-100,4,2,1,35,0,0
247012,902.255639097744,4,2,2,45,1,0
247914,833.333333333333,4,2,1,40,1,0
247914,-111.111111111111,4,2,1,40,0,0
254605,833.333333333333,4,2,1,40,1,0
254605,-111.111111111111,4,2,1,40,0,0
257914,851.063829787234,4,2,1,40,1,0
257914,-111.111111111111,4,2,1,40,0,0
261318,-111.111111111111,4,2,1,40,0,0
263445,-111.111111111111,4,2,1,20,0,0
264775,851.063829787234,4,2,1,30,1,0
264775,-111.111111111111,4,2,1,30,0,0
270679,-111.111111111111,4,2,1,5,0,0

[Colours]
Combo1 : 116,189,214
Combo2 : 128,128,192
Combo3 : 166,206,236
Combo4 : 182,114,222

[HitObjects]
87,325,1234,6,0,P|128:321|227:314,1,120,2|0,0:0|0:0,0:0:0:0:
256,324,1859,1,2,0:0:0:0:
256,324,2900,6,0,P|281:286|256:210,1,120,2|0,0:0|0:0,0:0:0:0:
219,192,3525,1,2,0:0:0:0:
412,25,4567,6,0,P|418:61|435:171,1,120,2|0,0:0|0:0,0:0:0:0:
428,194,5192,1,2,0:0:0:0:
428,194,6233,6,0,B|373:221|373:221|298:194,1,120,2|0,0:0|0:0,0:0:0:0:
273,175,6858,1,2,0:0:0:0:
77,20,7900,6,0,P|49:48|84:136,1,120,2|0,0:0|0:0,0:0:0:0:
100,154,8525,1,2,0:0:0:0:
100,154,9567,6,0,P|141:150|240:143,1,120,2|0,0:0|0:0,0:0:0:0:
270,152,10192,1,2,0:0:0:0:
478,5,11233,6,0,P|472:41|455:151,1,120,2|0,0:0|0:0,0:0:0:0:
468,173,11858,1,2,0:0:0:0:
468,173,12900,6,0,P|413:194|353:166,1,120,2|2,0:0|0:3,0:0:0:0:
258,153,13733,1,0,0:0:0:0:
261,149,13942,2,0,P|267:185|284:295,1,120,2|0,1:3|0:0,0:0:0:0:
283,318,14567,6,0,P|242:314|143:307,1,120,0|0,3:0|0:0,0:0:0:0:
120,336,15192,1,0,0:0:0:0:
118,332,15400,1,8,1:3:0:0:
17,311,15817,2,0,P|26:351|34:388,2,60,0|0|0,3:0|3:0|0:0,0:0:0:0:
86,235,16650,1,0,3:0:0:0:
25,152,17067,2,0,P|74:129|141:150,1,120,8|0,1:3|0:0,0:0:0:0:
225,192,17900,6,0,P|274:215|336:192,1,120,0|0,3:0|3:0,0:0:0:0:
374,164,18525,1,2,0:0:0:0:
376,160,18733,1,8,1:3:0:0:
452,92,19150,2,0,P|445:63|438:34,2,60,0|0|0,3:0|3:0|0:0,0:0:0:0:
511,175,19983,1,2,0:0:0:0:
453,259,20400,1,8,1:3:0:0:
511,342,20817,1,2,0:0:0:0:
453,259,21233,6,0,B|329:261|378:367|239:350,1,240,2|2,0:0|0:0,0:0:0:0:
142,343,22483,2,0,P|148:314|155:285,1,60,0|0,0:0|3:0,0:0:0:0:
199,258,22900,2,0,P|192:229|185:200,1,60,2|4,0:0|3:0,0:0:0:0:
158,155,23317,1,8,0:0:0:0:
247,106,23733,2,0,P|280:111|327:119,2,60,8|4|8,0:0|3:0|3:0,0:0:0:0:
173,34,24567,6,0,P|140:38|49:52,1,120,4|0,0:0|0:0,0:0:0:0:
3,58,25192,2,0,P|12:89|24:132,1,60,0|8,3:0|0:0,0:0:0:0:
163,167,26025,2,0,P|155:208|138:291,1,120,2|2,0:0|0:0,0:0:0:0:
157,332,26650,2,0,P|219:349|280:316,1,120,4|8,3:0|0:0,0:0:0:0:
347,264,27483,1,0,0:0:0:0:
444,294,27900,6,0,P|438:324|433:353,2,60,2|0|2,0:0|3:0|0:0,0:0:0:0:
470,250,28525,2,0,P|465:218|458:177,1,60,6|8,3:0|0:0,0:0:0:0:
382,124,29150,1,2,3:3:0:0:
380,120,29358,2,0,P|333:100|265:133,1,120,4|2,3:0|3:0,0:0:0:0:
245,168,29983,2,0,P|185:158|126:150,1,120,4|8,3:0|0:0,0:0:0:0:
82,123,30608,1,2,3:0:0:0:
26,265,31233,6,0,P|21:235|15:205,2,60,2|0|2,0:0|3:0|0:0,0:0:0:0:
58,304,31858,2,0,P|53:333|48:363,1,60,0|8,3:0|0:0,0:0:0:0:
154,252,32692,2,0,P|199:230|265:252,1,120,2|2,3:2|0:0,0:0:0:0:
296,288,33317,2,0,P|341:310|407:288,1,120,4|8,3:0|0:0,0:0:0:0:
471,213,34150,1,0,0:0:0:0:
391,149,34567,6,0,P|356:153|315:158,2,60,2|0|2,0:0|3:0|0:0,0:0:0:0:
434,121,35192,2,0,P|469:125|516:133,1,60,0|8,3:0|0:0,0:0:0:0:
445,38,35817,1,4,3:0:0:0:
443,34,36025,2,0,P|408:29|306:16,1,120,2|6,3:0|3:0,0:0:0:0:
278,41,36650,1,0,3:0:0:0:
176,27,37067,1,8,0:0:0:0:
172,31,37275,2,0,P|155:70|190:141,1,120,2|0,3:0|3:0,0:0:0:0:
228,162,37900,6,0,P|222:203|213:301,1,120,4|0,0:0|0:0,0:0:0:0:
181,320,38525,2,0,P|186:360|191:392,1,60,0|8,3:0|0:0,0:0:0:0:
36,363,39358,2,0,P|29:303|22:243,1,120,2|2,0:0|0:0,0:0:0:0:
62,211,39983,2,0,P|68:151|75:91,1,120,4|8,3:0|0:0,0:0:0:0:
154,26,40817,1,2,0:0:0:0:
226,98,41233,6,0,P|284:129|354:100,1,120,4|2,0:0|0:0,0:0:0:0:
355,70,41858,1,0,3:0:0:0:
356,66,42067,2,0,P|414:35|484:64,1,120,8|0,0:0|0:0,0:0:0:0:
496,86,42692,2,0,P|490:127|481:225,1,120,0|0,3:0|3:0,0:0:0:0:
457,249,43317,1,4,3:0:0:0:
379,315,43733,2,0,P|385:345|390:374,2,60,8|8|0,0:0|3:0|0:0,0:0:0:0:
295,255,44567,5,2,0:0:0:0:
295,255,46233,5,2,0:0:0:0:
295,255,47067,6,0,P|257:250|217:245,1,60,8|0,3:0|3:0,0:0:0:0:
192,275,47483,2,0,P|162:278|132:282,1,60,8|8,0:0|0:0,0:0:0:0:
82,271,47900,6,0,P|52:229|71:161,1,120,4|8,0:0|0:0,0:0:0:0:
113,145,48525,2,0,P|173:135|232:127,1,120,4|0,0:0|3:0,0:0:0:0:
275,153,49150,2,0,P|304:156|334:160,1,60,8|0,0:0|3:0,0:0:0:0:
384,148,49567,1,8,0:0:0:0:
440,232,49983,1,8,0:0:0:0:
395,324,50400,2,0,P|354:346|270:315,1,120,8|8,0:0|0:0,0:0:0:0:
332,239,51233,6,0,B|276:229|276:229|230:256|230:256|156:240,1,180,4|0,0:1|3:0,0:0:0:0:
112,226,52067,1,10,0:0:0:0:
34,291,52483,2,0,B|-19:172|85:193|26:58,1,240,4|2,0:0|0:0,0:0:0:0:
120,18,53733,2,0,P|163:7|236:41,1,120,8|0,0:0|0:0,0:0:0:0:
275,127,54567,6,0,P|339:154|402:127,1,120,4|0,0:0|0:0,0:0:0:0:
406,94,55192,2,0,P|402:66|395:20,1,60,0|8,3:0|0:0,0:0:0:0:
495,5,55817,2,0,P|503:56|524:196,1,180,4|8,0:0|3:0,0:0:0:0:
509,232,56650,1,2,0:0:0:0:
438,305,57067,1,8,0:0:0:0:
435,309,57275,2,0,P|388:303|282:290,1,120,0|2,3:0|0:0,0:0:0:0:
289,250,57900,6,0,P|165:243|130:288,1,180,4|0,0:0|3:0,0:0:0:0:
113,323,58733,1,8,0:0:0:0:
20,279,59150,2,0,B|-20:232|-20:232|42:52,1,240,4|2,0:0|0:0,0:0:0:0:
128,15,60400,2,0,P|171:4|244:38,1,120,8|0,0:0|0:0,0:0:0:0:
338,12,61233,6,0,P|361:49|351:129,1,120,4|0,0:0|0:0,0:0:0:0:
314,151,61858,2,0,P|282:147|235:143,1,60,2|8,0:0|0:0,0:0:0:0:
155,171,62483,2,0,P|131:174|85:181,2,60,0|0|4,0:0|3:0|3:0,0:0:0:0:
194,202,63108,2,0,P|187:238|172:347,1,120,10|2,0:0|3:2,0:0:0:0:
199,365,63733,2,0,P|223:368|267:375,2,60,8|8|8,0:0|3:0|3:0,0:0:0:0:
272,294,64567,6,0,P|331:302|471:325,1,180,4|0,0:1|3:0,0:0:0:0:
494,297,65400,1,10,0:0:0:0:
512,198,65817,2,0,B|458:184|414:230|414:230|353:220|279:206,1,240,6|0,0:0|3:0,0:0:0:0:
187,174,67067,2,0,B|164:121|164:121|202:52,1,120,8|2,0:0|0:3,0:0:0:0:
237,39,67692,1,4,3:0:0:0:
239,44,67900,6,0,P|286:51|392:67,1,120,4|2,0:0|0:0,0:0:0:0:
407,72,68525,2,0,P|439:68|486:64,1,60,0|8,3:0|0:0,0:0:0:0:
420,156,69150,2,0,P|452:152|499:148,2,60,2|0|4,0:0|3:0|3:0,0:0:0:0:
382,191,69775,2,0,P|322:182|183:163,1,180,8|8,0:0|0:0,0:0:0:0:
104,190,70817,1,0,0:0:0:0:
12,144,71233,6,0,B|-31:247|54:225|9:352,1,180,4|0,0:0|3:0,0:0:0:0:
52,356,72067,1,8,0:0:0:0:
143,310,72483,2,0,P|150:278|140:238,2,60,2|0|4,3:0|3:0|3:0,0:0:0:0:
146,361,73108,2,0,B|184:383|184:383|251:363|333:341,1,180,8|8,0:0|0:0,0:0:0:0:
411,378,74150,1,0,0:0:0:0:
501,330,74567,6,0,P|521:204|475:162,1,180,4|0,0:0|3:0,0:0:0:0:
445,153,75400,1,8,0:0:0:0:
359,209,75817,2,0,P|353:233|376:288,2,60,2|0|4,0:0|3:0|3:0,0:0:0:0:
326,169,76442,2,0,P|262:177|169:190,1,120,10|2,0:0|0:0,0:0:0:0:
158,169,77067,2,0,P|150:140|157:110,2,60,8|8|8,0:0|3:0|3:0,0:0:0:0:
181,262,77900,5,2,0:0:0:0:
181,262,79567,1,2,0:0:0:0:
181,262,81233,5,2,0:0:0:0:
304,352,81858,2,0,P|308:322|313:292,2,60,0|8|8,0:0|0:0|3:0,0:0:0:0:
256,192,82900,12,4,87483,0:1:0:0:
0,80,96233,6,0,L|133:67,1,120,4|2,3:2|0:0,0:0:0:0:
162,40,96858,2,0,L|146:112,1,60,0|8,3:0|0:0,0:0:0:0:
67,160,97483,2,0,L|80:231,1,60,0|2,3:0|3:0,0:0:0:0:
36,249,97900,2,0,P|96:246|149:273,1,120,2|2,3:2|3:0,0:0:0:0:
175,315,98525,1,0,0:0:0:0:
174,320,98733,1,8,0:0:0:0:
262,371,99150,1,4,3:2:0:0:
322,288,99566,6,0,L|450:303,1,120,2|0,0:0|0:0,0:0:0:0:
484,328,100191,2,0,L|472:245,1,60,0|8,3:0|0:0,0:0:0:0:
402,196,100816,2,0,L|415:127,1,60,0|0,3:0|3:0,0:0:0:0:
451,103,101233,2,0,P|384:112|294:121,1,120,4|2,3:0|0:0,0:0:0:0:
284,97,101858,1,0,3:0:0:0:
284,97,102066,1,8,0:0:0:0:
201,37,102483,1,0,0:0:0:0:
107,77,102900,6,0,P|71:123|83:182,1,120,4|2,0:0|0:0,0:0:0:0:
46,217,103525,1,2,3:2:0:0:
46,217,103733,2,0,P|104:223|171:240,1,120,8|0,0:0|3:0,0:0:0:0:
242,303,104566,2,0,P|256:244|262:185,1,120,4|2,3:0|0:0,0:0:0:0:
236,140,105191,1,0,3:0:0:0:
236,140,105400,2,0,P|284:170|352:160,1,120,8|2,0:0|0:0,0:0:0:0:
385,133,106025,1,0,3:0:0:0:
390,130,106233,5,4,3:0:0:0:
452,210,106650,2,0,L|443:282,1,60,0|2,3:0|0:3,0:0:0:0:
485,299,107066,2,0,P|420:308|327:331,1,120,8|0,0:0|0:0,0:0:0:0:
331,356,107691,1,0,3:0:0:0:
331,356,107900,2,0,P|268:367|210:338,1,120,2|2,3:0|0:3,0:0:0:0:
134,286,108733,2,0,L|28:305,2,60,8|8|0,0:0|0:0|0:0,0:0:0:0:
178,260,109358,1,8,1:3:0:0:
178,260,109566,6,0,P|207:209|180:154,1,120,0|2,0:0|0:0,0:0:0:0:
90,197,110399,2,0,P|66:143|95:93,1,120,2|0,3:0|3:0,0:0:0:0:
181,38,111233,6,0,L|303:50,1,120,4|0,0:0|0:0,0:0:0:0:
338,15,111858,2,0,P|345:44|348:76,1,60,0|8,3:0|0:0,0:0:0:0:
388,104,112274,2,0,P|371:158|356:220,1,120,2|0,0:3|3:0,0:0:0:0:
312,246,112899,5,4,3:0:0:0:
390,311,113316,1,0,0:0:0:0:
313,378,113733,2,0,L|171:365,1,120,8|8,0:0|3:3,0:0:0:0:
158,330,114358,1,4,3:0:0:0:
158,330,114566,2,0,P|108:357|41:348,1,120,4|2,3:0|0:0,0:0:0:0:
3,324,115191,1,2,0:3:0:0:
0,319,115399,1,8,0:0:0:0:
70,244,115816,1,0,0:0:0:0:
11,160,116233,6,0,P|77:207|180:189,1,180,4|0,0:0|3:0,0:0:0:0:
212,165,117066,1,8,0:0:0:0:
146,86,117483,1,0,0:0:0:0:
234,35,117899,2,0,B|340:22|311:91|412:73,1,180,8|0,3:0|3:0,0:0:0:0:
442,40,118733,2,0,P|445:71|452:111,1,60,8|2,0:0|0:0,0:0:0:0:
484,136,119149,2,0,P|479:165|476:195,1,60,8|8,3:0|3:0,0:0:0:0:
440,231,119566,6,0,P|385:258|331:244,1,120,4|0,0:0|0:0,0:0:0:0:
290,212,120191,2,0,L|231:221,1,60,0|8,3:0|0:0,0:0:0:0:
169,302,120816,1,2,0:0:0:0:
169,302,121024,2,0,L|44:291,1,120,0|0,3:0|3:0,0:0:0:0:
10,258,121649,1,0,0:0:0:0:
97,206,122066,1,10,0:0:0:0:
29,129,122483,2,0,P|33:98|45:64,1,60,0|0,0:0|3:0,0:0:0:0:
81,38,122899,5,2,3:0:0:0:
157,105,123316,2,0,L|235:96,1,60,2|2,3:0|3:1,0:0:0:0:
246,56,123733,2,0,L|367:69,1,120,8|2,0:0|0:0,0:0:0:0:
407,39,124358,1,0,3:0:0:0:
407,39,124566,2,0,P|437:92|425:151,1,120,2|0,0:0|0:0,0:0:0:0:
343,207,125399,2,0,L|330:135,2,60,8|0|0,0:0|3:0|3:0,0:0:0:0:
373,248,126024,1,0,3:0:0:0:
373,248,126233,6,0,L|220:233,1,120,2|2,3:2|0:3,0:0:0:0:
207,213,126858,2,0,L|219:292,1,60,0|8,3:0|0:0,0:0:0:0:
137,337,127483,1,0,3:0:0:0:
137,337,127691,2,0,L|117:202,1,120,2|2,0:3|0:3,0:0:0:0:
87,178,128316,2,0,P|148:189|208:199,1,120,0|8,0:0|0:0,0:0:0:0:
280,129,129149,1,2,0:3:0:0:
360,191,129566,6,0,P|374:164|383:117,1,60,6|2,0:0|0:0,0:0:0:0:
426,111,129983,2,0,P|418:82|404:55,1,60,2|0,0:3|3:0,0:0:0:0:
363,24,130399,1,8,0:0:0:0:
363,24,130608,2,0,P|301:32|199:43,1,120,8|0,3:0|3:0,0:0:0:0:
163,101,131441,2,0,L|73:89,1,60,2|8,3:0|0:0,0:0:0:0:
58,68,131858,1,2,0:0:0:0:
58,68,132066,2,0,P|69:127|74:196,1,120,2|0,1:2|0:0,0:0:0:0:
50,232,132691,1,8,0:0:0:0:
50,232,132900,6,0,P|102:203|161:207,1,120,4|2,0:0|0:3,0:0:0:0:
204,180,133524,2,0,L|190:252,1,60,0|8,3:0|0:0,0:0:0:0:
167,337,134149,1,2,0:0:0:0:
167,337,134358,2,0,P|230:325|291:316,1,120,0|2,3:0|3:2,0:0:0:0:
320,353,134983,2,0,P|349:297|331:235,1,120,0|8,0:0|0:0,0:0:0:0:
271,165,135816,2,0,L|287:93,1,60,2|2,0:0|3:2,0:0:0:0:
318,68,136233,6,0,P|264:82|188:89,1,120,2|2,0:3|0:0,0:0:0:0:
159,58,136858,1,0,3:0:0:0:
159,58,137066,2,0,P|120:108|131:165,1,120,8|2,0:0|0:0,0:0:0:0:
101,203,137691,2,0,B|157:165|157:165|277:189,1,180,0|2,3:0|0:0,0:0:0:0:
344,253,138733,1,8,0:0:0:0:
414,179,139149,2,0,L|478:192,1,60,8|8,3:0|3:0,0:0:0:0:
510,225,139566,5,2,3:2:0:0:
510,225,141233,5,2,0:3:0:0:
510,225,142066,6,0,P|479:232|439:235,1,60,8|8,0:0|3:0,0:0:0:0:
422,277,142483,2,0,P|391:270|351:267,1,60,8|12,3:0|3:0,0:0:0:0:
315,249,142899,6,0,L|333:167,2,60,4|8|8,0:0|0:0|0:0,0:0:0:0:
281,287,143524,2,0,P|219:314|142:291,1,120,4|8,0:0|0:3,0:0:0:0:
125,279,144149,1,8,0:0:0:0:
39,334,144566,5,8,0:0:0:0:
39,334,144774,2,0,P|18:284|51:221,1,120,12|10,0:0|3:0,0:0:0:0:
82,193,145399,2,0,L|156:179,1,60,2|2,3:0|3:0,0:0:0:0:
181,150,145816,2,0,L|250:160,1,60,2|2,3:2|3:2,0:0:0:0:
283,186,146233,6,0,P|264:99|288:64,1,120,4|0,0:1|0:0,0:0:0:0:
323,55,146858,2,0,L|382:46,1,60,0|8,3:0|0:0,0:0:0:0:
482,25,147483,2,0,P|476:59|448:216,1,180,6|8,0:0|3:0,0:0:0:0:
431,249,148316,2,0,P|436:273|448:342,2,60,2|0|8,0:0|3:0|0:0,0:0:0:0:
344,194,149149,1,0,0:0:0:0:
282,275,149566,6,0,P|212:309|158:284,1,120,4|2,0:0|0:0,0:0:0:0:
132,269,150191,2,0,P|137:297|149:351,1,60,0|8,3:0|0:0,0:0:0:0:
52,373,150816,2,0,P|45:343|23:231,1,120,4|0,0:0|0:0,0:0:0:0:
51,210,151441,2,0,P|79:183|172:191,1,120,0|0,3:0|3:0,0:0:0:0:
196,214,152066,2,0,P|190:243|185:281,2,60,8|0|2,0:0|3:0|0:0,0:0:0:0:
278,153,152899,6,0,P|271:123|249:11,1,120,4|0,0:0|0:0,0:0:0:0:
297,9,153524,2,0,P|331:14|356:17,1,60,0|8,3:0|0:0,0:0:0:0:
455,55,154149,2,0,P|488:169|432:214,1,180,4|8,0:0|3:0,0:0:0:0:
406,220,154983,2,0,P|376:224|346:228,2,60,2|0|8,0:0|3:0|0:0,0:0:0:0:
482,287,155816,1,2,0:0:0:0:
399,347,156233,6,0,P|369:342|259:327,1,120,4|2,0:0|0:0,0:0:0:0:
234,306,156858,2,0,P|204:310|174:314,1,60,0|8,3:0|0:0,0:0:0:0:
77,293,157483,1,2,0:0:0:0:
73,296,157691,2,0,P|44:217|72:170,2,120,2|10|10,3:0|3:0|3:0,0:0:0:0:
118,319,158733,1,8,0:0:0:0:
209,274,159149,1,4,3:0:0:0:
298,323,159566,6,0,B|340:350|340:350|469:302,1,180,4|0,0:1|0:0,0:0:0:0:
507,281,160399,1,10,0:0:0:0:
415,236,160816,2,0,P|378:116|416:79,1,180,6|0,0:0|3:0,0:0:0:0:
453,70,161649,2,0,P|483:75|524:82,2,60,2|0|8,0:0|0:0|0:0,0:0:0:0:
366,17,162483,2,0,P|336:22|295:29,1,60,0|2,0:0|0:0,0:0:0:0:
260,49,162899,6,0,P|224:44|124:32,1,120,4|0,0:0|0:0,0:0:0:0:
92,50,163524,2,0,P|62:55|21:62,1,60,0|8,3:0|0:0,0:0:0:0:
0,156,164149,2,0,P|29:150|59:146,1,60,2|2,0:0|3:0,0:0:0:0:
109,154,164566,1,4,0:0:0:0:
109,154,164774,2,0,P|102:190|84:295,1,120,8|0,0:0|3:0,0:0:0:0:
116,312,165399,1,8,0:0:0:0:
210,350,165816,1,2,3:0:0:0:
294,292,166233,6,0,B|390:273|359:357|473:335,1,180,4|0,0:0|3:0,0:0:0:0:
508,320,167066,1,8,0:0:0:0:
443,240,167483,1,2,0:0:0:0:
439,237,167691,2,0,P|446:201|464:96,1,120,2|8,0:3|0:0,0:0:0:0:
435,74,168316,2,0,P|429:44|424:7,2,60,2|2|8,0:0|3:2|0:0,0:0:0:0:
347,126,169149,1,2,0:3:0:0:
274,54,169566,6,0,P|160:43|109:96,1,180,4|0,0:0|3:0,0:0:0:0:
90,125,170399,1,8,0:0:0:0:
174,181,170816,2,0,P|203:175|245:168,2,60,2|2|0,0:0|0:0|3:0,0:0:0:0:
131,210,171441,2,0,P|138:244|158:339,1,120,8|8,0:0|3:0,0:0:0:0:
166,377,172066,2,0,P|136:372|106:366,2,60,0|8|4,3:0|3:0|3:0,0:0:0:0:
257,330,172899,5,2,0:3:0:0:
352,292,173316,1,0,3:0:0:0:
437,346,173733,2,0,P|460:289|456:223,1,120,4|4,3:0|3:0,0:0:0:0:
425,192,174358,1,0,0:0:0:0:
425,192,174566,2,0,L|298:213,1,120,8|0,3:0|3:0,0:0:0:0:
219,157,175399,1,4,3:0:0:0:
135,215,175816,1,8,0:0:0:0:
41,173,176233,6,0,P|17:122|40:57,1,120,0|0,3:0|3:0,0:0:0:0:
127,21,177066,1,2,3:0:0:0:
214,73,177483,2,0,L|283:62,1,60,0|8,3:0|3:0,0:0:0:0:
310,29,177899,2,0,L|377:40,1,60,2|0,0:0|0:0,0:0:0:0:
404,76,178316,1,0,3:0:0:0:
328,145,178733,2,0,L|210:166,1,120,2|8,0:0|3:0,0:0:0:0:
160,179,179358,1,0,3:0:0:0:
160,179,179566,6,0,B|130:234|130:234|151:293,1,120,2|2,0:0|0:0,0:0:0:0:
188,382,180399,1,4,3:0:0:0:
277,332,180816,1,0,3:0:0:0:
369,376,181233,2,0,P|429:364|496:354,1,120,2|0,3:0|0:0,0:0:0:0:
420,277,182066,1,4,3:0:0:0:
486,199,182483,1,4,3:0:0:0:
401,141,182899,6,0,P|341:139|288:171,1,120,2|2,3:0|0:0,0:0:0:0:
256,206,183524,1,0,3:0:0:0:
256,206,183733,2,0,L|223:70,1,120,10|4,0:0|0:0,0:0:0:0:
143,31,184566,6,0,P|102:67|104:133,1,120,6|8,0:0|0:0,0:0:0:0:
148,150,185191,2,0,L|15:179,1,120,4|0,0:0|3:0,0:0:0:0:
3,219,185816,1,8,0:0:0:0:
48,310,186233,5,4,0:0:0:0:
48,310,186441,2,0,P|99:336|168:332,1,120,4|0,3:0|3:0,0:0:0:0:
204,307,187066,1,8,0:0:0:0:
130,236,187483,1,0,0:0:0:0:
206,168,187899,2,0,P|236:173|275:177,1,60,2|8,3:0|0:0,0:0:0:0:
300,213,188316,2,0,P|330:208|369:204,1,60,0|0,0:0|3:0,0:0:0:0:
404,180,188733,1,8,0:0:0:0:
404,180,188941,2,0,P|430:128|396:65,1,120,8|2,3:0|0:0,0:0:0:0:
371,37,189566,5,0,3:0:0:0:
371,37,189774,2,0,L|237:57,1,120,4|0,3:0|3:0,0:0:0:0:
214,88,190399,1,8,0:0:0:0:
116,58,190816,1,0,0:0:0:0:
35,121,191233,1,4,3:0:0:0:
35,121,191441,2,0,B|8:177|8:177|32:237,1,120,8|0,3:0|3:0,0:0:0:0:
7,276,192066,2,0,P|31:267|78:261,1,60,8|8,0:0|3:0,0:0:0:0:
111,239,192483,2,0,P|140:243|168:253,1,60,4|0,3:0|3:0,0:0:0:0:
208,285,192895,5,4,0:0:0:0:
291,352,193330,2,0,L|416:336,1,120,2|10,3:0|0:0,0:0:0:0:
410,234,194151,2,0,L|478:248,2,60,0|8|0,3:0|3:0|3:0,0:0:0:0:
363,256,194768,1,2,3:2:0:0:
363,256,194973,2,0,P|341:207|363:140,1,120,0|8,3:0|0:0,0:0:0:0:
383,46,195795,2,0,L|311:62,1,60,0|8,3:0|0:0,0:0:0:0:
285,91,196206,6,0,P|220:81|160:73,1,120,4|8,0:0|0:0,0:0:0:0:
126,42,196821,2,0,P|87:87|97:151,1,120,4|12,0:0|3:0,0:0:0:0:
119,187,197437,1,4,0:0:0:0:
102,287,197848,6,0,P|131:279|160:273,1,60,12|8,0:0|3:0,0:0:0:0:
205,298,198259,1,8,3:0:0:0:
296,343,198670,2,0,P|303:313|309:284,1,60,2|4,3:0|3:0,0:0:0:0:
279,238,199094,2,0,P|271:208|265:179,1,60,8|8,3:0|3:0,0:0:0:0:
286,142,199504,6,0,L|361:152,1,60,8|4,0:0|3:2,0:0:0:0:
442,93,200154,1,8,0:0:0:0:
442,93,200365,2,0,P|445:150|451:216,1,120,8|8,3:0|3:0,0:0:0:0:
403,313,201228,5,2,0:0:0:0:
29,66,213728,5,8,1:3:0:0:
29,66,214561,6,0,B|134:60|84:134|200:134,1,180,4|0,0:1|3:0,0:0:0:0:
232,110,215394,1,8,0:0:0:0:
319,56,215811,2,0,B|344:99|344:99|295:261,1,180,4|8,0:0|3:0,0:0:0:0:
267,256,216644,2,0,P|234:251|181:246,2,60,0|0|8,3:0|3:0|0:0,0:0:0:0:
349,304,217478,1,2,0:0:0:0:
445,270,217894,6,0,P|466:135|419:101,1,180,4|0,0:0|3:0,0:0:0:0:
399,94,218728,1,8,0:0:0:0:
304,55,219144,2,0,P|265:59|162:72,1,120,4|8,0:0|0:0,0:0:0:0:
90,109,219966,1,4,3:0:0:0:
140,197,220371,1,4,3:0:0:0:
83,281,220777,1,4,3:0:0:0:
174,342,221227,6,0,B|240:325|240:325|286:347|286:347|368:323,1,180,4|0,0:0|3:0,0:0:0:0:
385,299,222060,1,8,0:0:0:0:
476,343,222477,2,0,B|519:240|434:262|479:135,1,180,4|8,0:0|3:0,0:0:0:0:
446,126,223310,2,0,P|403:114|376:117,2,60,2|0|12,3:2|3:0|0:0,0:0:0:0:
395,214,224143,1,2,0:0:0:0:
476,275,224560,6,0,P|431:267|279:244,1,180,4|0,0:0|3:0,0:0:0:0:
248,258,225393,1,8,0:0:0:0:
183,181,225810,2,0,P|140:169|113:172,1,60,0|2,0:0|3:2,0:0:0:0:
89,206,226227,2,0,P|46:218|19:215,2,60,2|8|12,3:0|0:0|0:0,0:0:0:0:
165,273,227060,2,0,P|158:291|153:333,2,60,8|2|2,3:0|0:0|0:0,0:0:0:0:
207,245,227668,1,2,0:0:0:0:
207,245,227893,6,0,B|313:251|259:315|378:327,1,180,4|0,0:1|3:0,0:0:0:0:
411,308,228744,1,8,0:0:0:0:
363,222,229143,2,0,P|335:144|388:59,1,180,4|8,0:0|3:0,0:0:0:0:
408,21,229976,2,0,L|426:93,1,60,0|0,3:0|3:0,0:0:0:0:
462,111,230393,2,0,P|414:145|344:136,1,120,8|2,0:0|0:3,0:0:0:0:
311,115,231018,1,4,3:0:0:0:
311,115,231226,6,0,L|331:240,1,120,4|2,0:0|0:0,0:0:0:0:
365,270,231851,2,0,P|333:273|291:286,1,60,0|8,3:0|0:0,0:0:0:0:
232,351,232476,2,0,P|202:343|173:340,1,60,2|0,0:3|3:0,0:0:0:0:
126,361,232892,1,4,3:0:0:0:
126,361,233101,2,0,P|104:309|134:248,1,120,8|2,0:0|0:0,0:0:0:0:
171,226,233726,1,8,0:0:0:0:
122,136,234142,2,0,L|55:146,1,60,2|4,0:0|3:0,0:0:0:0:
17,121,234559,6,0,L|211:97,1,180,4|0,0:0|3:0,0:0:0:0:
228,60,235392,1,8,0:0:0:0:
294,137,235809,2,0,P|286:166|280:195,1,60,2|0,0:0|0:0,0:0:0:0:
252,238,236226,1,0,3:0:0:0:
252,238,236434,2,0,P|313:212|382:226,1,120,8|2,0:0|3:2,0:0:0:0:
397,257,237059,1,8,0:0:0:0:
470,186,237476,2,0,L|457:84,1,60,2|0,0:0|3:0,0:0:0:0:
505,98,237892,6,0,L|367:76,1,120,4|0,0:0|0:0,0:0:0:0:
342,52,238517,2,0,P|348:79|353:119,1,60,2|8,3:2|0:0,0:0:0:0:
273,175,239131,2,0,P|269:145|262:115,1,60,8|0,3:0|3:0,0:0:0:0:
226,80,239536,1,2,0:0:0:0:
226,80,239739,2,0,P|167:70|115:117,1,120,2|2,3:2|3:2,0:0:0:0:
76,145,240392,6,0,P|86:174|90:212,1,60,0|8,3:0|3:0,0:0:0:0:
129,234,240808,2,0,P|119:263|115:301,1,60,0|2,3:0|0:0,0:0:0:0:
82,331,241225,5,12,3:2:0:0:
175,372,241639,1,8,0:0:0:0:
269,332,242053,1,10,3:0:0:0:
301,235,242467,1,10,0:0:0:0:
268,138,242881,1,12,3:0:0:0:
175,97,243295,1,8,0:0:0:0:
81,137,243709,1,12,3:0:0:0:
49,234,244123,1,12,0:0:0:0:
383,281,247914,5,2,0:0:0:0:
383,281,248330,2,0,L|275:295,1,107.999996704102,2|2,0:0|0:0,0:0:0:0:
188,351,249164,2,0,P|138:283|194:172,1,215.999993408203,2|0,0:0|0:0,0:0:0:0:
279,122,250414,2,0,L|290:184,2,53.9999983520508,2|0|0,0:0|0:0|0:0,0:0:0:0:
198,56,251247,5,2,0:0:0:0:
109,109,251664,1,2,0:0:0:0:
189,174,252080,1,2,0:0:0:0:
102,231,252497,2,0,B|178:190|267:210|225:307|325:329|398:277,1,323.999990112305,2|2,0:0|0:0,0:0:0:0:
500,97,254605,6,0,P|435:140|301:99,1,215.999993408203,2|2,0:0|0:0,0:0:0:0:
245,24,255855,2,0,B|199:80|199:80|226:222,1,215.999993408203,2|0,0:0|0:0,0:0:0:0:
151,293,257105,2,0,P|203:301|263:328,1,107.999996704102,2|0,0:0|0:0,0:0:0:0:
332,377,257914,6,0,P|459:278|357:204,1,323.999990112305,2|0,0:0|0:0,0:0:0:0:
284,262,259616,2,0,P|157:163|259:89,1,323.999990112305,2|0,0:0|0:0,0:0:0:0:
345,118,261318,5,2,0:0:0:0:
256,192,261531,12,0,263445,0:0:0:0:
256,192,264775,12,0,270732,0:0:0:0:
