osu file format v14

[General]
AudioFilename: audio.mp3
AudioLeadIn: 0
PreviewTime: 201228
Countdown: 0
SampleSet: Soft
StackLeniency: 0.2
Mode: 0
LetterboxInBreaks: 0
WidescreenStoryboard: 1

[Editor]
Bookmarks: 82895,146228,172894,201227,214580,227913
DistanceSpacing: 1.2
BeatDivisor: 16
GridSize: 32
TimelineZoom: 2.1

[Metadata]
Title:Sincerely
TitleUnicode:Sincerely
Artist:TRUE
ArtistUnicode:TRUE
Creator:Kalibe
Version:Hard
Source:ヴァイオレット・エヴァーガーデン
Tags:irohas mugiwarasekai collab violet evergarden opening op full size kyoto animation
BeatmapID:1554524
BeatmapSetID:733581

[Difficulty]
HPDrainRate:5
CircleSize:4
OverallDifficulty:6
ApproachRate:7
SliderMultiplier:2.9
SliderTickRate:1

[Events]
//Background and Video events
0,0,"uwu.png",0,0
//Break Periods
2,201428,211161
//Storyboard Layer 0 (Background)
//Storyboard Layer 1 (Fail)
//Storyboard Layer 2 (Pass)
//Storyboard Layer 3 (Foreground)
//Storyboard Sound Samples

[TimingPoints]
1234,833.333333333333,4,2,1,45,1,0
1234,-133.333333333333,4,2,1,45,0,0
14567,-153.846153846154,4,2,1,40,0,0
21233,-142.857142857143,4,2,1,45,0,0
22067,-111.111111111111,4,2,1,50,0,0
22900,-142.857142857143,4,2,1,50,0,0
24567,-125,4,2,1,60,0,0
36025,-100,4,2,1,60,0,0
37900,-111.111111111111,4,2,1,60,0,0
46233,-166.666666666666,4,2,1,50,0,0
47067,-83.3333333333333,4,2,1,60,0,0
47900,-90.9090909090909,4,2,1,65,0,0
51233,-90.9090909090909,4,2,1,70,0,0
52483,-125,4,2,1,70,0,0
53108,-90.9090909090909,4,2,1,70,0,0
53942,-111.111111111111,4,2,1,70,0,0
54567,-90.9090909090909,4,2,1,70,0,0
55817,-125,4,2,1,70,0,0
56442,-90.9090909090909,4,2,1,70,0,0
57275,-111.111111111111,4,2,1,70,0,0
57900,-90.9090909090909,4,2,1,70,0,0
59150,-125,4,2,1,70,0,0
59983,-90.9090909090909,4,2,1,70,0,0
60608,-100,4,2,1,70,0,0
61233,-90.9090909090909,4,2,1,70,0,0
65817,-125,4,2,1,70,0,0
66650,-90.9090909090909,4,2,1,70,0,0
67900,-90.9090909090909,4,2,1,70,0,0
77275,-142.857142857143,4,2,1,55,0,0
77900,-200,4,2,1,40,0,0
82067,-100,4,2,1,50,0,0
82900,833.333333333333,4,2,1,60,1,0
82900,-111.111111111111,4,2,1,60,0,0
84150,-125,4,2,1,60,0,0
84775,-200,4,2,1,60,0,0
84983,-111.111111111111,4,2,1,60,0,0
87483,-111.111111111111,4,2,1,60,0,0
87900,-111.111111111111,4,2,1,60,0,0
90817,-125,4,2,1,60,0,0
91442,-111.111111111111,4,2,1,60,0,0
96233,-142.857142857143,4,2,1,55,0,0
98942,-142.857142857143,4,2,1,55,0,0
99567,-142.857142857143,4,2,1,55,0,0
109254,-142.857142857143,4,2,1,5,0,0
109358,-111.111111111111,4,2,1,60,0,0
111233,-125,4,2,1,55,0,0
116233,-125,4,2,1,60,0,0
119566,-125,4,2,1,60,0,0
132378,-90.9090909090909,4,2,1,60,0,0
132899,-125,4,2,1,60,0,0
139358,-200,4,2,1,50,0,0
142066,-99.9999999999999,4,2,1,65,0,0
147483,-125,4,2,1,60,0,0
148108,-99.9999999999999,4,2,1,60,0,0
150816,-125,4,2,1,60,0,0
151441,-99.9999999999999,4,2,1,60,0,0
154149,-125,4,2,1,60,0,0
154774,-99.9999999999999,4,2,1,60,0,0
159566,-99.9999999999999,4,2,1,65,0,0
172066,-125,4,2,1,50,0,0
172899,-111.111111111111,4,2,1,60,0,0
184566,-107.52688172043,4,2,1,70,0,0
186232,-111.111111111111,4,2,1,60,0,0
192895,821.917808219178,4,2,1,65,1,0
193330,821.917808219178,4,2,1,65,1,0
193330,-125,4,2,1,65,0,0
195795,-111.111111111111,4,2,1,65,0,0
196205,821.917808219178,4,2,1,70,1,0
196205,-99.9999999999999,4,2,1,70,0,0
199094,821.917808219178,4,2,1,70,1,0
199504,983.606557377049,4,2,1,55,1,0
199749,810.810810810811,4,2,1,55,1,0
199749,-125,4,2,1,55,0,0
200053,-125,4,2,1,5,0,0
200154,736.196319018405,4,2,1,55,1,0
200365,821.917808219178,4,2,1,55,1,0
200365,-125,4,2,1,55,0,0
200775,944.88188976378,4,2,1,55,1,0
200775,-125,4,2,1,55,0,0
200932,-125,4,2,1,5,0,0
201228,833.333333333333,4,2,1,50,1,0
201228,-166.666666666667,4,2,1,50,0,0
212061,-200,4,2,1,50,0,0
213728,-333.333333333333,4,2,1,75,0,0
214353,-333.333333333333,4,2,1,25,0,0
214457,-333.333333333333,4,2,1,50,0,0
214561,-90.9090909090909,4,2,1,75,0,0
215811,-125,4,2,1,75,0,0
216436,-90.9090909090909,4,2,1,75,0,0
219561,810.810810810811,4,2,1,75,1,0
219561,-90.9090909090909,4,2,1,75,0,0
221227,833.333333333333,4,2,1,75,1,0
221227,-90.9090909090909,4,2,1,75,0,0
222478,-125,4,2,1,75,0,0
223102,-90.9090909090909,4,2,1,75,0,0
227060,810.810810810811,4,2,1,75,1,0
227060,-90.9090909090909,4,2,1,75,0,0
227893,851.063829787234,4,2,1,75,1,0
227893,-90.9090909090909,4,2,1,75,0,0
229143,833.333333333333,4,2,1,75,1,0
229143,-125,4,2,1,75,0,0
229769,-90.9090909090909,4,2,1,75,0,0
231226,833.333333333333,4,2,1,75,1,0
231226,-90.9090909090909,4,2,1,75,0,0
238726,810.810810810811,4,2,1,75,1,0
238726,-90.9090909090909,4,2,1,75,0,0
240392,833.333333333333,4,2,1,75,1,0
240392,-90.9090909090909,4,2,1,75,0,0
241226,827.586206896552,4,2,1,70,1,0
244122,-125,4,2,1,60,0,0
244536,833.333333333333,4,2,1,40,1,0
245369,821.917808219178,4,2,1,40,1,0
246396,-100,4,2,1,35,0,0
247012,902.255639097744,4,2,2,45,1,0
247914,833.333333333333,4,2,1,40,1,0
247914,-200,4,2,1,40,0,0
254605,833.333333333333,4,2,1,40,1,0
254605,-200,4,2,1,40,0,0
257914,851.063829787234,4,2,1,40,1,0
257914,-250,4,2,1,40,0,0
261318,-200,4,2,1,40,0,0
263445,-200,4,2,1,20,0,0
264775,851.063829787234,4,2,1,30,1,0
264775,-200,4,2,1,30,0,0
270679,-200,4,2,1,5,0,0

[Colours]
Combo1 : 116,189,214
Combo2 : 128,128,192
Combo3 : 166,206,236
Combo4 : 182,114,222

[HitObjects]
47,89,1234,6,0,L|38:26,2,54.3750020742417,2|0|0,0:0|0:0|0:0,0:0:0:0:
60,164,1859,1,2,0:0:0:0:
345,321,2900,6,0,L|336:384,2,54.3750020742417,2|0|0,0:0|0:0|0:0,0:0:0:0:
358,246,3525,1,2,0:0:0:0:
45,341,4567,6,0,L|120:356,1,54.3750020742417,2|0,0:0|0:0,0:0:0:0:
111,345,4983,1,0,0:0:0:0:
185,329,5192,1,2,0:0:0:0:
339,42,6233,6,0,L|285:31,1,54.3750020742417,2|0,0:0|0:0,0:0:0:0:
273,38,6649,1,0,0:0:0:0:
199,54,6858,1,2,0:0:0:0:
472,231,7900,6,0,P|478:259|478:300,2,54.3750020742417,2|0|0,0:0|0:0|0:0,0:0:0:0:
431,166,8525,1,2,0:0:0:0:
147,327,9567,6,0,P|141:355|141:396,2,54.3750020742417,2|0|0,0:0|0:0|0:0,0:0:0:0:
188,262,10192,1,2,0:0:0:0:
430,44,11233,6,0,L|368:55,1,54.3750020742417,2|0,0:0|0:0,0:0:0:0:
364,45,11650,1,0,0:0:0:0:
290,64,11858,1,2,0:0:0:0:
285,61,12900,6,0,P|269:112|266:172,1,108.750004148483,2|2,0:0|0:3,0:0:0:0:
345,296,13733,1,0,0:0:0:0:
281,254,13942,2,0,P|226:257|175:273,1,108.750004148483,2|0,1:3|0:0,0:0:0:0:
113,332,14567,6,0,P|89:272|176:192,1,188.499991371155,0|8,3:0|1:3,0:0:0:0:
82,44,15817,2,0,L|137:54,1,47.1249978427888,0|0,3:0|3:0,0:0:0:0:
190,110,16233,6,0,P|235:96|292:87,1,94.2499956855776,0|0,0:0|3:0,0:0:0:0:
343,30,16858,1,2,0:0:0:0:
347,34,17067,2,0,P|392:48|449:57,1,94.2499956855776,8|0,1:3|0:0,0:0:0:0:
499,214,17900,6,0,P|453:213|412:236,1,94.2499956855776,0|0,3:0|3:0,0:0:0:0:
352,296,18525,1,2,0:0:0:0:
348,300,18733,2,0,P|302:301|261:278,1,94.2499956855776,8|0,1:3|3:0,0:0:0:0:
186,319,19358,6,0,P|171:256|221:204,1,141.374993528366,0|2,3:0|0:0,0:0:0:0:
295,52,20400,2,0,P|300:98|311:152,1,94.2499956855776,8|2,1:3|0:0,0:0:0:0:
313,151,21233,6,0,P|241:110|162:131,1,152.249995353699,2|0,0:0|0:0,0:0:0:0:
90,207,22067,2,0,P|162:248|262:212,1,195.749994026184,2|0,0:0|3:0,0:0:0:0:
320,143,22900,6,0,L|381:151,1,50.749998451233,2|4,0:0|3:0,0:0:0:0:
444,203,23317,1,8,0:0:0:0:
373,260,23525,2,0,L|333:268,2,25.3749992256165,0|8|8,3:0|3:0|0:0,0:0:0:0:
452,305,23942,5,4,3:0:0:0:
455,310,24150,1,8,3:0:0:0:
296,381,24567,6,0,P|235:371|173:366,1,116,4|0,0:0|0:0,0:0:0:0:
109,315,25192,2,0,P|81:322|41:327,1,58,0|8,3:0|0:0,0:0:0:0:
152,184,25817,2,0,P|180:191|220:196,1,58,0|2,0:0|0:0,0:0:0:0:
280,146,26233,5,0,0:0:0:0:
205,100,26442,1,2,0:0:0:0:
270,43,26650,2,0,P|327:33|387:23,1,116,4|8,3:0|0:0,0:0:0:0:
454,75,27275,2,0,P|456:102|463:139,1,58,0|0,0:0|0:0,0:0:0:0:
379,215,27692,1,0,3:0:0:0:
385,213,27796,1,0,3:0:0:0:
391,211,27900,6,0,P|448:204|498:240,1,116,2|2,0:0|0:0,0:0:0:0:
462,316,28525,2,0,L|389:327,1,58,6|8,3:0|0:0,0:0:0:0:
302,183,29150,2,0,L|229:172,1,58,2|4,3:3|3:0,0:0:0:0:
178,231,29567,5,2,0:0:0:0:
255,270,29775,1,2,3:0:0:0:
190,328,29983,2,0,P|128:338|61:351,1,116,4|8,3:0|0:0,0:0:0:0:
15,284,30608,2,0,P|24:257|33:224,1,58,2|2,3:0|0:0,0:0:0:0:
87,161,31025,1,0,3:0:0:0:
85,155,31129,1,0,3:0:0:0:
83,149,31233,6,0,L|148:159,1,58,2|0,0:0|3:0,0:0:0:0:
214,77,31650,2,0,L|279:67,1,58,2|0,0:0|3:0,0:0:0:0:
360,133,32067,2,0,P|383:86|375:23,1,116,8|0,0:0|3:0,0:0:0:0:
268,88,32692,6,0,P|279:146|290:214,1,116,2|2,3:2|0:0,0:0:0:0:
361,252,33317,2,0,P|391:241|432:233,1,58,4|0,3:0|0:0,0:0:0:0:
315,328,33733,2,0,P|255:320|193:313,1,116,8|0,0:0|0:0,0:0:0:0:
106,348,34358,1,0,3:0:0:0:
104,342,34463,1,0,3:0:0:0:
102,336,34567,6,0,P|110:306|122:266,1,58,2|0,0:0|3:0,0:0:0:0:
180,220,34983,2,0,P|171:190|160:150,1,58,2|0,0:0|3:0,0:0:0:0:
89,101,35400,2,0,P|131:65|193:70,1,116,8|4,0:0|3:0,0:0:0:0:
286,38,36025,6,0,B|268:70|268:70|276:113,1,72.5,2|8,3:0|0:0,0:0:0:0:
358,162,36442,2,0,B|376:130|376:130|368:87,2,72.5,6|0|0,3:0|3:0|3:0,0:0:0:0:
270,197,37067,1,8,0:0:0:0:
336,263,37275,2,0,P|420:286|471:257,1,145,2|0,3:0|3:0,0:0:0:0:
477,250,37796,1,8,0:0:0:0:
485,241,37900,6,0,L|341:265,1,130.499996017456,4|0,0:0|0:0,0:0:0:0:
291,331,38525,1,0,3:0:0:0:
286,338,38733,2,0,P|221:329|140:325,1,130.499996017456,8|0,0:0|0:0,0:0:0:0:
95,266,39358,6,0,P|65:216|109:159,1,130.499996017456,2|2,0:0|0:0,0:0:0:0:
178,108,39983,2,0,L|190:175,1,65.2499980087281,4|2,3:0|0:0,0:0:0:0:
265,254,40400,2,0,P|282:185|300:128,1,130.499996017456,8|2,0:0|0:0,0:0:0:0:
241,52,41025,1,0,3:0:0:0:
246,55,41129,1,0,3:0:0:0:
250,59,41233,6,0,P|310:92|376:78,1,130.499996017456,4|2,0:0|0:0,0:0:0:0:
435,29,41858,1,0,3:0:0:0:
440,35,42067,2,0,P|466:88|444:158,1,130.499996017456,8|0,0:0|0:0,0:0:0:0:
477,245,42692,6,0,P|415:221|339:216,1,130.499996017456,0|0,3:0|3:0,0:0:0:0:
283,282,43317,2,0,P|289:314|292:350,1,65.2499980087281,4|0,3:0|3:0,0:0:0:0:
189,285,43733,1,8,0:0:0:0:
186,280,43942,2,0,P|200:213|218:140,1,130.499996017456,8|0,3:0|0:0,0:0:0:0:
235,70,44567,5,2,0:0:0:0:
40,233,46233,6,0,P|100:224|174:216,1,130.499996017456,2|0,0:0|0:0,0:0:0:0:
239,278,47067,5,8,3:0:0:0:
317,223,47275,1,0,3:0:0:0:
320,226,47379,1,8,0:0:0:0:
324,228,47483,2,0,L|335:180,3,43.4999986724854,8|8|8|0,0:0|0:0|0:0|3:0,0:0:0:0:
359,163,47900,6,0,L|326:328,1,159.500004867554,4|8,0:0|0:0,0:0:0:0:
439,383,48525,2,0,P|486:317|460:248,1,159.500004867554,4|0,0:0|3:0,0:0:0:0:
365,169,49150,2,0,P|405:166|455:153,1,79.7500024337769,8|0,0:0|3:0,0:0:0:0:
460,68,49567,5,8,0:0:0:0:
457,74,49775,1,4,3:0:0:0:
375,40,49983,5,8,0:0:0:0:
372,34,50191,1,4,3:0:0:0:
294,76,50400,6,0,L|234:67,2,53.1666682891846,8|8|8,0:0|3:0|3:0,0:0:0:0:
304,153,50817,2,0,L|356:145,2,53.1666682891846,8|8|8,0:0|3:0|3:0,0:0:0:0:
275,225,51233,6,0,P|214:257|120:234,1,159.500004867554,4|0,0:1|0:0,0:0:0:0:
138,232,51858,1,0,3:0:0:0:
46,290,52067,2,0,P|34:252|38:212,1,79.7500024337769,10|0,0:0|0:0,0:0:0:0:
100,129,52483,6,0,B|146:137|197:155|197:155|245:135|235:94,1,174,4|8,0:0|3:0,0:0:0:0:
155,34,53317,2,0,P|213:66|303:49,1,159.500004867554,2|8,0:0|0:0,0:0:0:0:
387,8,53942,2,0,L|362:142,1,130.499996017456,2|0,0:0|3:0,0:0:0:0:
439,206,54567,6,0,B|350:193|380:263|276:248,1,159.500004867554,4|0,0:0|0:0,0:0:0:0:
283,240,55192,1,0,3:0:0:0:
349,326,55400,2,0,P|312:343|260:345,1,79.7500024337769,8|0,0:0|0:0,0:0:0:0:
177,307,55817,6,0,B|167:242|167:242|185:210|185:210|174:130,1,174,4|8,0:0|3:0,0:0:0:0:
91,78,56650,2,0,P|71:111|71:157,1,79.7500024337769,2|0,0:0|3:0,0:0:0:0:
22,267,57067,2,0,P|103:227|174:244,1,159.500004867554,8|0,0:0|0:0,0:0:0:0:
92,318,57692,1,2,0:0:0:0:
173,383,57900,6,0,P|250:365|337:354,1,159.500004867554,4|2,0:0|0:0,0:0:0:0:
420,301,58525,1,0,3:0:0:0:
426,299,58733,2,0,P|412:338|405:388,1,79.7500024337769,8|0,0:0|0:0,0:0:0:0:
322,280,59150,6,0,P|321:201|400:167,1,174,4|8,0:0|3:0,0:0:0:0:
463,85,59983,2,0,P|427:66|387:64,1,79.7500024337769,2|0,0:0|3:0,0:0:0:0:
293,116,60400,1,8,0:0:0:0:
226,48,60608,2,0,P|221:93|206:192,1,145,2|8,0:0|3:0,0:0:0:0:
137,270,61233,6,0,P|94:206|127:133,1,159.500004867554,4|0,0:0|0:0,0:0:0:0:
206,191,61858,1,2,0:0:0:0:
202,195,62067,2,0,B|286:212|273:156|359:174,1,159.500004867554,8|0,0:0|0:0,0:0:0:0:
439,235,62692,6,0,P|458:200|455:151,1,79.7500024337769,0|4,3:0|3:0,0:0:0:0:
367,252,63108,2,0,P|402:271|451:268,1,79.7500024337769,10|0,0:0|0:0,0:0:0:0:
355,173,63525,2,0,P|336:208|339:257,1,79.7500024337769,2|8,3:2|0:0,0:0:0:0:
380,347,63942,5,8,3:0:0:0:
293,317,64150,1,8,3:0:0:0:
205,372,64358,1,0,3:0:0:0:
123,307,64567,6,0,P|104:235|129:150,1,159.500004867554,4|0,0:1|0:0,0:0:0:0:
70,66,65192,1,0,3:0:0:0:
66,59,65400,2,0,P|106:68|145:75,1,79.7500024337769,10|0,0:0|0:0,0:0:0:0:
35,183,65817,6,0,P|116:168|228:157,1,174,6|8,0:0|3:0,0:0:0:0:
305,85,66650,2,0,B|283:119|283:119|292:157,1,79.7500024337769,0|0,3:0|3:0,0:0:0:0:
377,216,67067,1,8,0:0:0:0:
384,211,67275,2,0,B|405:176|405:176|397:139,1,79.7500024337769,2|2,0:0|0:3,0:0:0:0:
319,68,67692,1,4,3:0:0:0:
447,34,67900,6,0,P|369:29|293:76,1,159.500004867554,4|2,0:0|0:0,0:0:0:0:
213,152,68525,1,0,3:0:0:0:
207,158,68733,2,0,P|194:120|201:67,1,79.7500024337769,8|0,0:0|0:0,0:0:0:0:
292,157,69150,5,2,0:0:0:0:
297,164,69358,2,0,L|274:263,1,79.7500024337769,0|4,3:0|3:0,0:0:0:0:
379,304,69775,2,0,B|320:316|320:316|296:346|296:346|236:360,1,159.500004867554,8|0,0:0|3:0,0:0:0:0:
144,310,70400,2,0,P|129:231|191:196,1,159.500004867554,8|0,0:0|0:0,0:0:0:0:
253,258,71025,1,0,3:0:0:0:
331,180,71233,6,0,P|319:97|309:4,1,159.500004867554,4|2,0:0|0:0,0:0:0:0:
231,89,71858,1,0,3:0:0:0:
226,83,72067,2,0,P|149:52|75:62,1,159.500004867554,8|2,0:0|0:0,0:0:0:0:
5,154,72692,6,0,P|41:142|83:135,1,79.7500024337769,0|4,3:0|3:0,0:0:0:0:
18,251,73108,2,0,P|5:213|0:173,1,79.7500024337769,8|0,0:0|0:0,0:0:0:0:
111,246,73525,2,0,P|73:258|33:264,1,79.7500024337769,0|8,3:0|0:0,0:0:0:0:
152,176,73942,2,0,P|138:247|121:342,1,159.500004867554,2|0,0:0|3:0,0:0:0:0:
209,383,74567,6,0,P|256:313|227:249,1,159.500004867554,4|0,0:0|0:0,0:0:0:0:
307,183,75192,1,0,3:0:0:0:
268,102,75400,6,0,L|285:193,1,79.7500024337769,8|0,0:0|0:0,0:0:0:0:
350,46,75817,2,0,L|364:124,1,79.7500024337769,2|0,0:0|3:0,0:0:0:0:
441,193,76233,5,4,3:0:0:0:
505,111,76442,2,0,P|487:180|467:276,1,159.500004867554,10|2,0:0|0:0,0:0:0:0:
382,330,77067,2,0,P|364:293|369:240,1,79.7500024337769,8|8,0:0|3:0,0:0:0:0:
441,193,77483,1,8,3:0:0:0:
370,360,77900,5,2,0:0:0:0:
47,216,79567,5,2,0:0:0:0:
382,99,81233,5,2,0:0:0:0:
260,171,81858,1,0,0:0:0:0:
323,236,82067,5,8,0:0:0:0:
316,239,82275,2,0,B|402:260|402:260|416:292|381:316,1,145,8|0,3:0|0:0,0:0:0:0:
304,361,82900,6,0,P|277:307|311:239,1,130.499996017456,4|0,0:1|0:0,0:0:0:0:
192,160,83525,1,2,0:0:0:0:
186,158,83733,2,0,P|194:188|210:241,1,65.2499980087281,8|0,0:0|0:0,0:0:0:0:
302,245,84150,6,0,B|204:230|240:312|123:289,1,174,6|8,0:0|0:3,0:0:0:0:
56,353,84983,2,0,P|42:325|48:273,1,65.2499980087281,2|2,0:3|0:3,0:0:0:0:
112,219,85400,1,8,0:0:0:0:
31,173,85608,2,0,P|0:182|-27:190,2,32.624999004364,0|0|4,0:0|0:0|3:0,0:0:0:0:
128,123,86025,1,2,0:0:0:0:
9,90,86233,6,0,P|80:137|140:115,1,130.499996017456,4|0,0:0|0:0,0:0:0:0:
176,61,86858,2,0,P|209:49|248:54,1,65.2499980087281,2|8,0:3|0:0,0:0:0:0:
314,104,87275,1,0,0:0:0:0:
414,47,87483,6,0,P|408:72|384:176,1,130.499996017456,6|0,0:0|0:0,0:0:0:0:
292,185,88108,2,0,P|295:205|304:252,1,65.2499980087281,8|2,0:0|0:0,0:0:0:0:
251,323,88525,1,2,3:0:0:0:
254,328,88733,2,0,P|223:321|164:310,1,65.2499980087281,8|0,0:0|0:0,0:0:0:0:
178,310,89045,1,0,0:0:0:0:
178,310,89150,2,0,P|157:312|124:322,3,32.624999004364,4|4|8|8,3:0|3:0|3:0|3:0,0:0:0:0:
127,324,89566,6,0,P|85:245|109:204,1,130.499996017456,4|0,0:1|0:0,0:0:0:0:
206,153,90191,1,0,3:0:0:0:
212,151,90399,2,0,P|202:183|188:234,1,65.2499980087281,8|2,0:0|0:3,0:0:0:0:
241,298,90816,6,0,B|303:284|303:284|342:309|342:309|439:286,1,195.749994026184,6|8,0:0|3:0,0:0:0:0:
512,226,91650,2,0,P|484:219|426:204,1,65.2499980087281,2|2,0:3|0:3,0:0:0:0:
371,152,92066,1,8,0:0:0:0:
366,148,92275,6,0,P|334:156|302:164,1,65.2499980087281,2|4,0:0|3:0,0:0:0:0:
227,230,92691,1,0,3:0:0:0:
321,293,92900,6,0,P|280:320|191:301,1,130.499996017456,4|2,0:0|0:3,0:0:0:0:
145,239,93525,1,0,3:0:0:0:
142,244,93733,2,0,P|174:234|225:221,1,65.2499980087281,8|0,0:0|0:0,0:0:0:0:
269,153,94150,2,0,P|236:143|185:130,1,65.2499980087281,2|0,0:0|3:0,0:0:0:0:
131,82,94566,5,4,3:0:0:0:
134,77,94775,1,8,0:0:0:0:
33,125,94983,6,0,P|14:154|48:231,1,97.8749970130921,8|8,0:0|0:3,0:0:0:0:
33,223,95400,2,0,P|71:216|113:208,1,65.2499980087281,8|2,0:3|3:2,0:0:0:0:
185,231,95816,1,8,3:0:0:0:
137,309,96025,1,4,3:0:0:0:
211,371,96233,6,0,P|249:364|332:353,1,101.499996902466,4|2,3:2|0:0,0:0:0:0:
395,306,96858,1,0,3:0:0:0:
391,312,97066,1,8,0:0:0:0:
480,207,97483,6,0,P|473:231|467:256,1,50.749998451233,0|2,3:0|3:0,0:0:0:0:
391,312,97900,2,0,P|386:280|373:194,1,101.499996902466,2|2,3:2|3:0,0:0:0:0:
313,151,98525,1,0,0:0:0:0:
388,97,98733,1,8,0:0:0:0:
384,102,98941,6,0,P|425:115|455:116,2,50.749998451233,2|4|8,0:0|3:2|3:0,0:0:0:0:
302,64,99566,6,0,P|251:70|201:79,1,101.499996902466,2|0,0:0|0:0,0:0:0:0:
122,45,100191,1,0,3:0:0:0:
44,82,100400,2,0,P|18:120|31:177,1,101.499996902466,8|0,0:0|3:0,0:0:0:0:
95,224,101025,1,0,3:0:0:0:
194,171,101233,6,0,P|186:207|171:282,1,101.499996902466,4|2,3:0|0:0,0:0:0:0:
237,328,101858,1,0,3:0:0:0:
316,294,102066,1,8,0:0:0:0:
379,349,102275,2,0,P|335:342|255:333,1,101.499996902466,2|0,0:0|3:0,0:0:0:0:
214,251,102900,6,0,P|181:239|116:266,1,101.499996902466,4|2,0:0|0:0,0:0:0:0:
74,334,103525,1,2,3:2:0:0:
78,340,103733,1,8,0:0:0:0:
0,247,104150,6,0,P|13:208|23:180,1,50.749998451233,0|0,3:0|0:0,0:0:0:0:
10,93,104566,2,0,P|21:142|32:192,1,101.499996902466,4|2,3:0|0:0,0:0:0:0:
101,243,105191,1,0,3:0:0:0:
181,197,105399,1,0,0:0:0:0:
177,202,105607,6,0,P|208:208|248:216,2,50.749998451233,2|2|0,0:0|0:0|3:0,0:0:0:0:
107,132,106233,6,0,P|156:123|218:113,1,101.499996902466,4|0,3:0|3:0,0:0:0:0:
264,49,106858,2,0,P|300:36|365:60,1,101.499996902466,2|2,0:3|0:0,0:0:0:0:
418,115,107483,2,0,P|411:142|400:185,1,50.749998451233,0|0,0:0|3:0,0:0:0:0:
308,156,107900,6,0,P|313:184|330:272,1,101.499996902466,2|2,3:0|0:3,0:0:0:0:
270,321,108524,1,8,3:0:0:0:
189,287,108733,1,8,0:0:0:0:
200,201,108941,1,8,0:0:0:0:
200,201,109358,6,0,P|193:172|187:149,2,32.624999004364,8|8|0,1:3|1:3|0:0,0:0:0:0:
96,224,110399,6,0,B|192:205|159:300|290:269,1,195.749994026184,2|4,3:0|3:0,0:0:0:0:
352,201,111233,6,0,B|380:279|380:279|358:325,1,116,4|0,0:0|0:0,0:0:0:0:
291,355,111858,1,0,3:0:0:0:
288,360,112067,1,8,0:0:0:0:
373,327,112274,2,0,P|336:321|234:308,1,116,2|0,0:3|3:0,0:0:0:0:
161,295,112899,6,0,P|168:328|178:366,2,58,4|0|0,3:0|0:0|0:0,0:0:0:0:
95,234,113524,1,2,3:0:0:0:
148,167,113733,2,0,P|179:148|260:167,1,116,8|8,0:0|3:3,0:0:0:0:
334,226,114358,1,4,3:0:0:0:
328,228,114566,2,0,P|336:198|351:150,1,58,4|2,3:0|3:0,0:0:0:0:
423,129,114983,2,0,P|415:99|400:51,1,58,2|2,0:0|0:3,0:0:0:0:
314,3,115399,5,8,0:0:0:0:
398,58,115608,2,0,P|331:97|279:82,1,116,2|0,0:0|3:0,0:0:0:0:
213,53,116233,6,0,B|112:39|152:117|44:101,1,174,4|0,0:0|3:0,0:0:0:0:
19,9,117066,6,0,B|0:56|0:56|23:100|23:100|-4:180,1,174,8|0,0:0|3:0,0:0:0:0:
62,237,117899,2,0,P|102:226|141:234,1,58,8|0,3:0|0:0,0:0:0:0:
124,230,118212,1,8,0:0:0:0:
127,234,118316,1,2,0:0:0:0:
198,294,118524,1,0,3:0:0:0:
123,340,118733,6,0,P|165:330|200:320,1,58,8|2,0:0|0:0,0:0:0:0:
283,277,119149,2,0,P|325:287|360:297,1,58,8|8,3:0|3:0,0:0:0:0:
440,342,119566,6,0,P|478:293|447:230,1,116,4|0,0:0|0:0,0:0:0:0:
367,207,120191,1,0,3:0:0:0:
371,213,120399,1,8,0:0:0:0:
512,163,120816,6,0,P|470:153|435:143,1,58,2|0,0:0|3:0,0:0:0:0:
430,70,121233,2,0,P|404:78|313:99,1,116,2|0,0:0|0:0,0:0:0:0:
231,61,121858,1,0,0:0:0:0:
226,56,122066,6,0,P|234:21|244:-15,1,58,10|0,0:0|0:0,0:0:0:0:
147,0,122483,2,0,P|139:28|133:56,1,58,0|0,0:0|3:0,0:0:0:0:
59,110,122899,5,2,3:0:0:0:
63,117,123108,1,2,0:0:0:0:
124,181,123316,1,2,3:0:0:0:
28,233,123524,6,0,P|87:201|133:212,1,116,2|0,3:1|0:0,0:0:0:0:
185,274,124149,2,0,P|177:302|168:335,1,58,2|0,0:0|3:0,0:0:0:0:
242,384,124566,6,0,P|278:376|321:366,1,58,2|8,0:0|3:0,0:0:0:0:
363,317,124983,1,0,0:0:0:0:
275,273,125191,2,0,P|322:280|410:294,1,116,2|0,0:0|3:0,0:0:0:0:
477,249,125816,2,0,P|468:212|461:173,1,58,0|0,3:0|3:0,0:0:0:0:
460,121,126233,6,0,P|454:149|449:183,2,58,2|2|2,3:2|0:0|0:3,0:0:0:0:
412,45,126858,2,0,P|336:38|305:62,1,116,0|0,3:0|0:0,0:0:0:0:
306,148,127483,2,0,P|341:142|385:133,1,58,0|2,3:0|0:3,0:0:0:0:
298,66,127899,6,0,P|263:60|217:52,1,58,2|2,0:0|0:3,0:0:0:0:
186,120,128316,2,0,P|157:124|128:129,1,58,0|2,0:0|0:3,0:0:0:0:
48,73,128733,6,0,P|10:122|41:185,1,116,8|2,0:0|0:3,0:0:0:0:
107,230,129358,1,0,3:0:0:0:
40,256,129566,6,0,P|67:250|103:244,2,58,6|2|2,0:0|0:0|0:3,0:0:0:0:
3,350,130191,1,0,3:0:0:0:
0,344,130399,6,0,P|28:348|56:355,1,58,8|8,0:0|3:0,0:0:0:0:
137,309,130816,1,2,0:3:0:0:
216,359,131024,1,0,3:0:0:0:
216,359,131441,5,2,3:0:0:0:
286,299,131650,2,0,P|279:263|272:228,1,58,8|2,0:0|0:0,0:0:0:0:
336,147,132066,1,2,1:2:0:0:
228,133,132275,6,0,P|271:163|353:143,1,116,2|8,0:1|0:0,0:0:0:0:
415,78,132900,6,0,B|442:148|442:148|423:204,1,116,4|2,0:0|0:3,0:0:0:0:
356,231,133524,1,0,3:0:0:0:
350,228,133732,2,0,P|357:255|368:299,1,58,8|0,0:0|0:0,0:0:0:0:
443,347,134149,1,2,0:0:0:0:
367,384,134358,6,0,P|336:377|242:360,1,116,0|2,3:0|3:2,0:0:0:0:
181,312,134983,1,0,0:0:0:0:
98,356,135191,1,2,0:0:0:0:
91,359,135399,2,0,P|78:324|87:288,1,58,8|0,0:0|0:0,0:0:0:0:
16,237,135816,2,0,P|33:227|57:221,3,29,2|2|2|0,0:0|0:0|3:2|0:0,0:0:0:0:
10,224,136233,6,0,P|84:193|137:210,1,116,2|2,0:3|0:0,0:0:0:0:
180,261,136858,1,0,3:0:0:0:
269,227,137066,6,0,P|293:190|268:109,1,116,8|2,0:0|0:0,0:0:0:0:
202,54,137691,1,0,3:0:0:0:
274,115,137899,6,0,P|312:108|352:98,1,58,0|0,0:0|3:0,0:0:0:0:
401,143,138316,2,0,P|429:147|469:158,1,58,2|0,0:0|3:0,0:0:0:0:
512,88,138733,1,8,0:0:0:0:
508,83,138941,1,2,3:2:0:0:
470,163,139149,1,8,3:0:0:0:
512,240,139358,6,0,L|506:265,2,18.125,8|8|2,3:0|3:0|3:2,0:0:0:0:
49,261,141233,5,2,0:3:0:0:
49,261,141858,5,0,0:0:0:0:
137,230,142066,6,0,P|165:234|197:240,3,36.25,8|8|8|0,0:0|0:0|3:0|3:0,0:0:0:0:
186,241,142483,2,0,P|203:238|221:235,3,36.25,8|8|12|12,3:0|3:0|3:0|3:0,0:0:0:0:
233,229,142899,5,4,0:0:0:0:
181,149,143108,1,8,0:0:0:0:
238,74,143316,1,8,0:0:0:0:
171,6,143524,6,0,P|241:57|313:27,1,145,4|8,0:0|0:3,0:0:0:0:
384,21,144149,2,0,P|376:56|363:118,1,72.5,8|8,0:0|3:0,0:0:0:0:
304,161,144566,1,8,0:0:0:0:
376,221,144774,6,0,P|325:211|206:189,1,145,12|10,0:0|3:0,0:0:0:0:
160,242,145399,1,2,3:0:0:0:
50,203,145608,5,2,3:0:0:0:
47,200,145712,1,0,3:0:0:0:
44,197,145816,2,0,P|63:194|88:189,3,36.25,2|4|2|4,3:2|3:0|3:2|3:0,0:0:0:0:
52,173,146233,6,0,P|2:239|24:293,1,145,4|0,0:1|0:0,0:0:0:0:
91,354,146858,1,0,3:0:0:0:
98,358,147066,2,0,P|61:365|17:382,1,72.5,8|0,0:0|0:0,0:0:0:0:
122,280,147483,6,0,B|225:293|167:348|270:360,1,174,6|8,0:0|3:0,0:0:0:0:
352,316,148316,2,0,P|366:280|361:233,1,72.5,2|0,0:0|3:0,0:0:0:0:
301,153,148733,1,8,0:0:0:0:
259,240,148941,2,0,P|316:230|415:216,1,145,2|0,0:0|0:0,0:0:0:0:
506,149,149566,6,0,P|443:103|375:120,1,145,4|2,0:0|0:0,0:0:0:0:
303,51,150191,1,0,3:0:0:0:
308,45,150399,2,0,P|343:36|377:25,1,72.5,8|0,0:0|0:0,0:0:0:0:
298,130,150816,6,0,B|227:114|227:114|188:132|188:132|108:115,1,174,4|0,0:0|3:0,0:0:0:0:
201,27,151649,2,0,B|218:59|218:59|209:95,1,72.5,2|0,0:0|3:0,0:0:0:0:
63,171,152066,2,0,B|46:139|46:139|55:103,1,72.5,8|0,0:0|3:0,0:0:0:0:
141,203,152483,2,0,L|125:280,1,72.5,2|0,0:0|3:0,0:0:0:0:
2,374,152899,6,0,P|66:354|151:348,1,145,4|0,0:0|0:0,0:0:0:0:
225,287,153524,1,0,3:0:0:0:
219,293,153733,2,0,P|225:328|227:380,1,72.5,8|0,0:0|0:0,0:0:0:0:
280,232,154149,6,0,P|215:280|121:271,1,174,4|8,0:0|3:0,0:0:0:0:
53,211,154983,2,0,P|62:171|69:124,1,72.5,2|0,0:0|3:0,0:0:0:0:
152,42,155399,2,0,P|158:113|168:194,1,145,8|2,0:0|0:0,0:0:0:0:
243,131,156024,1,2,0:3:0:0:
313,247,156233,6,0,P|328:171|353:77,1,145,4|2,0:0|0:0,0:0:0:0:
417,45,156858,1,0,3:0:0:0:
423,39,157066,2,0,P|440:67|436:109,1,72.5,8|0,0:0|0:0,0:0:0:0:
500,183,157483,2,0,P|462:188|423:206,1,72.5,2|2,0:0|3:0,0:0:0:0:
355,257,157899,5,0,3:0:0:0:
466,335,158108,2,0,L|486:255,1,72.5,10|0,3:0|0:0,0:0:0:0:
377,360,158524,2,0,L|460:348,1,72.5,10|8,3:0|0:0,0:0:0:0:
363,268,158941,5,0,3:0:0:0:
363,268,159045,1,0,3:0:0:0:
363,268,159149,2,0,L|312:275,3,36.25,4|4|8|8,3:0|3:0|3:0|3:0,0:0:0:0:
345,251,159566,6,0,B|265:242|281:305|191:288,1,145,4|2,0:1|0:0,0:0:0:0:
149,201,160191,1,0,0:0:0:0:
155,196,160399,2,0,P|189:197|225:219,1,72.5,10|0,0:0|0:0,0:0:0:0:
88,296,160816,6,0,P|57:233|130:108,1,217.5,6|0,0:0|3:0,0:0:0:0:
205,43,161649,2,0,P|210:78|216:114,1,72.5,2|0,0:0|0:0,0:0:0:0:
324,34,162066,2,0,P|311:94|296:180,1,145,8|0,0:0|0:0,0:0:0:0:
249,267,162691,1,2,0:0:0:0:
376,215,162899,6,0,P|323:262|252:255,1,145,4|0,0:0|0:0,0:0:0:0:
179,196,163524,1,0,3:0:0:0:
83,295,163733,2,0,B|168:288|140:345|228:337,1,145,8|2,0:0|0:0,0:0:0:0:
303,380,164358,6,0,P|310:343|328:298,1,72.5,2|4,3:0|0:0,0:0:0:0:
399,199,164774,2,0,P|364:210|329:218,1,72.5,8|0,0:0|0:0,0:0:0:0:
194,204,165191,2,0,P|219:230|241:258,1,72.5,0|8,3:0|0:0,0:0:0:0:
300,341,165608,5,0,0:0:0:0:
395,287,165816,2,0,P|430:295|470:301,1,72.5,2|0,3:0|3:0,0:0:0:0:
364,185,166233,6,0,P|291:201|208:213,1,145,4|2,0:0|0:0,0:0:0:0:
131,154,166858,1,0,3:0:0:0:
204,67,167066,2,0,P|224:96|214:141,1,72.5,8|0,0:0|0:0,0:0:0:0:
106,58,167483,2,0,P|141:52|186:43,1,72.5,2|2,0:0|0:3,0:0:0:0:
264,10,167899,5,0,3:0:0:0:
341,95,168108,2,0,B|357:60|357:60|350:19,1,72.5,8|2,0:0|0:0,0:0:0:0:
250,93,168524,1,2,3:2:0:0:
329,182,168733,2,0,P|405:171|487:164,1,145,8|2,0:0|0:3,0:0:0:0:
402,253,169358,1,0,3:0:0:0:
486,363,169566,6,0,P|411:327|343:345,1,145,4|2,0:0|0:0,0:0:0:0:
249,286,170191,1,0,3:0:0:0:
254,277,170399,2,0,P|289:267|323:257,1,72.5,8|0,0:0|0:0,0:0:0:0:
224,363,170816,2,0,L|147:354,1,72.5,2|2,0:0|0:0,0:0:0:0:
77,296,171233,5,0,3:0:0:0:
162,222,171441,2,0,B|117:199|117:199|13:226,1,145,8|8,0:0|3:0,0:0:0:0:
22,216,172066,6,0,L|31:156,1,58,0|8,3:0|3:0,0:0:0:0:
98,97,172483,2,0,L|89:37,1,58,4|2,3:0|0:0,0:0:0:0:
185,130,172899,6,0,P|250:114|316:105,1,130.499996017456,2|0,0:3|3:0,0:0:0:0:
394,81,173524,1,2,0:0:0:0:
399,87,173733,2,0,P|431:115|414:199,1,130.499996017456,4|4,3:0|3:0,0:0:0:0:
347,237,174358,1,0,0:0:0:0:
418,283,174566,6,0,P|378:274|345:262,1,65.2499980087281,8|0,3:0|3:0,0:0:0:0:
302,333,174983,2,0,P|262:342|229:354,1,65.2499980087281,0|8,3:0|3:0,0:0:0:0:
198,275,175399,2,0,P|158:268|62:250,1,130.499996017456,4|8,3:0|0:0,0:0:0:0:
14,186,176024,1,0,0:0:0:0:
107,151,176233,6,0,P|112:128|126:68,1,65.2499980087281,0|4,3:0|3:0,0:0:0:0:
27,19,176649,2,0,P|31:41|38:66,3,32.624999004364,0|2|0|0,3:0|0:0|0:0|0:0,0:0:0:0:
47,52,177066,6,0,P|133:59|172:22,1,130.499996017456,2|0,3:0|3:0,0:0:0:0:
237,0,177691,1,8,3:0:0:0:
218,109,177899,6,0,P|252:103|351:85,1,130.499996017456,2|0,0:0|3:0,0:0:0:0:
430,75,178524,1,0,0:0:0:0:
436,73,178733,2,0,P|428:103|412:156,1,65.2499980087281,2|4,0:0|3:0,0:0:0:0:
343,176,179149,2,0,P|351:206|367:259,1,65.2499980087281,8|0,3:0|3:0,0:0:0:0:
422,311,179566,6,0,P|347:276|304:292,1,130.499996017456,2|2,0:0|0:0,0:0:0:0:
309,381,180191,1,0,0:0:0:0:
305,374,180399,2,0,P|271:368|172:350,1,130.499996017456,4|0,3:0|3:0,0:0:0:0:
87,363,181024,1,2,0:0:0:0:
93,365,181233,6,0,P|85:335|69:282,1,65.2499980087281,2|0,3:0|3:0,0:0:0:0:
152,266,181649,2,0,P|160:236|176:183,1,65.2499980087281,0|2,0:0|0:0,0:0:0:0:
116,136,182066,2,0,P|191:179|239:165,1,130.499996017456,4|4,3:0|3:0,0:0:0:0:
282,103,182691,1,0,0:0:0:0:
203,71,182899,6,0,P|237:65|336:47,1,130.499996017456,2|2,3:0|0:0,0:0:0:0:
402,0,183524,1,0,3:0:0:0:
474,44,183733,2,0,P|469:66|459:121,1,65.2499980087281,10|0,0:0|0:0,0:0:0:0:
387,150,184149,2,0,P|393:181|410:260,1,97.8749970130921,4|0,0:0|0:0,0:0:0:0:
406,254,184566,2,0,P|366:244|325:235,1,67.425002109089,6|0,0:0|0:0,0:0:0:0:
261,296,184983,1,8,0:0:0:0:
343,327,185191,6,0,P|310:334|201:361,1,134.850004218178,4|0,0:0|3:0,0:0:0:0:
124,352,185816,2,0,P|108:319|112:281,1,67.425002109089,8|0,0:0|3:0,0:0:0:0:
182,188,186233,1,4,0:0:0:0:
55,236,186441,6,0,P|87:243|195:272,1,130.499996017456,4|0,3:0|3:0,0:0:0:0:
270,254,187066,2,0,P|286:221|279:174,1,65.2499980087281,8|0,0:0|0:0,0:0:0:0:
223,134,187483,2,0,P|215:94|209:55,1,65.2499980087281,0|0,0:0|3:0,0:0:0:0:
261,0,187899,1,2,3:0:0:0:
203,73,188108,6,0,P|126:113|79:97,1,130.499996017456,8|0,0:0|3:0,0:0:0:0:
6,82,188733,1,8,0:0:0:0:
0,79,188941,2,0,P|8:109|24:162,1,65.2499980087281,8|4,3:0|3:0,0:0:0:0:
90,185,189358,1,2,0:0:0:0:
19,247,189566,5,0,3:0:0:0:
82,324,189774,2,0,P|133:313|232:292,1,130.499996017456,4|0,3:0|3:0,0:0:0:0:
268,234,190399,2,0,P|298:244|330:250,1,65.2499980087281,8|0,0:0|0:0,0:0:0:0:
381,319,190816,2,0,P|411:308|443:302,1,65.2499980087281,0|0,0:0|3:0,0:0:0:0:
512,242,191233,1,4,3:0:0:0:
445,295,191441,6,0,P|408:216|441:161,1,130.499996017456,8|0,3:0|3:0,0:0:0:0:
495,122,192066,5,8,0:0:0:0:
492,116,192274,1,8,3:0:0:0:
421,180,192483,2,0,L|352:169,1,65.2499980087281
340,182,192795,1,8,3:0:0:0:
340,182,192895,1,4,0:0:0:0:
268,22,193330,5,2,3:0:0:0:
268,22,193535,1,0,3:0:0:0:
193,77,193740,6,0,P|167:147|201:195,1,116,10|0,0:0|3:0,0:0:0:0:
254,220,194357,1,8,3:0:0:0:
191,271,194562,6,0,P|162:263|117:254,2,58,0|2|0,3:0|3:2|3:0,0:0:0:0:
250,326,195179,1,8,3:0:0:0:
183,384,195384,6,0,P|211:376|322:352,1,116,8|0,0:0|3:0,0:0:0:0:
405,380,196001,1,8,0:0:0:0:
405,379,196103,1,0,0:0:0:0:
408,382,196205,6,0,P|449:302|422:254,1,145,4|8,0:0|3:0,0:0:0:0:
342,228,196821,1,4,0:0:0:0:
415,169,197026,6,0,P|446:162|474:156,2,36.25,0|8|12,0:0|0:0|3:0,0:0:0:0:
332,131,197437,2,0,P|307:125|212:107,1,96.6666666666667,4|0,0:0|0:0,0:0:0:0:
211,102,197848,6,0,P|218:128|230:189,1,72.5,12|8,0:0|3:0,0:0:0:0:
299,237,198259,1,8,3:0:0:0:
291,316,198670,6,0,P|298:280|307:245,1,72.5,2|4,3:0|3:0,0:0:0:0:
377,192,199094,5,8,3:0:0:0:
375,188,199299,1,8,3:0:0:0:
442,137,199504,1,8,0:0:0:0:
512,181,199749,5,4,3:2:0:0:
352,83,200154,1,8,0:0:0:0:
418,39,200365,6,0,P|427:7|436:-20,2,38.6666666666667,8|4|4,3:0|3:0|3:0,0:0:0:0:
352,83,200775,5,8,3:0:0:0:
239,33,201228,1,2,0:0:0:0:
256,192,212061,12,8,213728,1:3:0:0:
139,88,214561,6,0,P|74:133|79:217,1,159.500004867554,4|2,0:1|0:0,0:0:0:0:
81,218,215186,1,0,3:0:0:0:
14,325,215394,2,0,L|103:303,1,79.7500024337769,8|0,0:0|0:0,0:0:0:0:
207,203,215811,6,0,B|185:268|185:268|200:310|200:310|183:370,1,174,4|8,0:0|3:0,0:0:0:0:
303,324,216644,2,0,L|382:342,1,79.7500024337769,0|0,3:0|3:0,0:0:0:0:
486,285,217061,2,0,P|410:267|346:311,1,159.500004867554,8|2,0:0|0:0,0:0:0:0:
232,274,217686,1,0,3:0:0:0:
318,178,217894,6,0,B|368:155|368:155|478:194,1,159.500004867554,4|2,0:0|0:0,0:0:0:0:
477,182,218519,1,0,3:0:0:0:
418,85,218728,2,0,P|428:46|452:2,1,79.7500024337769,8|2,0:0|0:0,0:0:0:0:
330,148,219144,6,0,P|252:177|158:153,1,159.500004867554,4|8,0:0|0:0,0:0:0:0:
103,93,219763,1,4,3:0:0:0:
193,38,219966,6,0,L|243:27,2,39.8750012168885,4|0|8,3:0|3:0|3:0,0:0:0:0:
93,98,220371,2,0,L|29:88,2,39.8750012168885,4|0|0,3:0|3:0|3:0,0:0:0:0:
175,173,220777,2,0,L|187:249,3,39.8750012168885,4|0|8|0,3:0|3:0|3:0|3:0,0:0:0:0:
202,237,221227,6,0,B|120:221|136:285|39:267,1,159.500004867554,4|2,0:0|0:0,0:0:0:0:
103,369,221852,1,0,3:0:0:0:
112,363,222060,2,0,P|152:351|200:345,1,79.7500024337769,8|0,0:0|0:0,0:0:0:0:
301,384,222477,6,0,P|292:307|360:258,1,159.500004867554,4|0,0:0|0:0,0:0:0:0:
479,219,223102,2,0,P|471:256|452:305,1,79.7500024337769,8|2,3:0|3:2,0:0:0:0:
399,162,223518,2,0,P|436:170|485:189,1,79.7500024337769,0|12,3:0|0:0,0:0:0:0:
350,259,223935,2,0,P|358:222|377:173,1,79.7500024337769,0|2,0:0|0:0,0:0:0:0:
456,295,224352,1,8,3:0:0:0:
353,354,224560,6,0,P|272:364|182:379,1,159.500004867554,4|2,0:0|0:0,0:0:0:0:
129,278,225185,1,0,3:0:0:0:
136,273,225393,2,0,P|174:283|229:293,1,79.7500024337769,8|0,0:0|0:0,0:0:0:0:
303,238,225810,2,0,P|321:197|304:150,1,79.7500024337769,0|2,0:0|3:2,0:0:0:0:
235,87,226227,5,2,3:0:0:0:
130,141,226435,1,8,0:0:0:0:
182,261,226643,2,0,L|212:167,1,79.7500024337769,12|0,0:0|3:0,0:0:0:0:
330,79,227060,6,0,L|390:70,3,39.8750012168885,8|0|2|8,3:0|0:0|0:0|3:0,0:0:0:0:
404,102,227465,2,0,L|450:109,3,39.8750012168885,2|0|2|8,0:0|3:0|0:0|3:0,0:0:0:0:
478,85,227893,6,0,B|437:165|495:155|451:240,1,159.500004867554,4|2,0:1|0:0,0:0:0:0:
388,294,228531,1,0,3:0:0:0:
384,288,228744,2,0,P|350:272|301:283,1,79.7500024337769,8|0,0:0|0:0,0:0:0:0:
216,349,229143,6,0,P|108:363|61:307,1,174,4|8,0:0|3:0,0:0:0:0:
0,278,229976,2,0,P|44:288|105:305,1,79.7500024337769,0|0,3:0|3:0,0:0:0:0:
169,254,230393,1,8,0:0:0:0:
161,258,230601,2,0,P|208:250|329:233,1,159.500004867554,2|4,0:0|3:0,0:0:0:0:
419,246,231226,6,0,P|457:153|422:106,1,159.500004867554,4|2,0:0|0:0,0:0:0:0:
328,18,231851,1,0,3:0:0:0:
325,26,232059,2,0,P|332:49|351:119,1,79.7500024337769,8|0,0:0|0:0,0:0:0:0:
287,160,232476,1,2,0:3:0:0:
285,163,232684,1,0,3:0:0:0:
191,118,232892,5,4,3:0:0:0:
100,168,233101,2,0,P|139:160|209:144,1,79.7500024337769,8|0,0:0|0:0,0:0:0:0:
236,222,233517,1,2,0:0:0:0:
137,273,233726,6,0,P|245:259|290:305,1,159.500004867554,8|2,0:0|0:0,0:0:0:0:
325,356,234351,1,4,3:0:0:0:
424,314,234559,6,0,B|458:276|458:276|420:159,1,159.500004867554,4|0,0:0|0:0,0:0:0:0:
418,163,235184,1,0,3:0:0:0:
341,214,235392,2,0,P|304:206|242:195,1,79.7500024337769,8|0,0:0|0:0,0:0:0:0:
181,242,235809,1,2,0:0:0:0:
102,200,236017,6,0,P|84:155|102:111,1,79.7500024337769,0|0,0:0|3:0,0:0:0:0:
209,85,236434,2,0,P|200:130|178:262,1,159.500004867554,8|2,0:0|3:2,0:0:0:0:
109,296,237059,1,8,0:0:0:0:
176,354,237267,2,0,P|225:344|281:333,1,79.7500024337769,8|2,3:0|0:0,0:0:0:0:
331,384,237684,1,0,3:0:0:0:
403,301,237892,6,0,P|306:287|255:343,1,159.500004867554,4|0,0:0|0:0,0:0:0:0:
259,330,238517,1,2,3:2:0:0:
160,299,238726,2,0,P|148:268|170:206,1,79.7500024337769,8|0,0:0|0:0,0:0:0:0:
234,180,239131,2,0,P|226:148|210:84,1,79.7500024337769,8|0,3:0|3:0,0:0:0:0:
278,47,239536,1,2,0:0:0:0:
203,106,239739,6,0,P|167:99|37:77,1,159.500004867554,2|2,3:2|3:2,0:0:0:0:
29,74,240246,1,0,0:0:0:0:
29,74,240392,6,0,P|38:115|48:156,1,79.7500024337769,0|8,3:0|3:0,0:0:0:0:
118,201,240808,1,0,3:0:0:0:
73,274,241016,1,2,0:0:0:0:
157,329,241226,6,0,B|211:318|211:318|248:337|248:337|319:322,2,145,12|8|8,3:2|0:0|3:0,0:0:0:0:
332,247,242467,2,0,P|326:276|313:332,1,72.5,10|0,0:0|0:0,0:0:0:0:
447,358,242881,6,0,P|473:331|437:224,2,145,12|8|12,3:0|0:0|3:0,0:0:0:0:
289,270,244122,6,0,B|355:260|335:302|415:294,1,116,12|2,0:0|0:0,0:0:0:0:
256,192,246396,12,2,247914,0:0:0:0:
359,195,248330,6,0,P|365:225|375:275,1,72.5,2|2,0:0|0:0,0:0:0:0:
500,302,249164,2,0,B|422:300|448:358|358:352,1,145,2|0,0:0|0:0,0:0:0:0:
281,263,250414,6,0,P|287:288|294:313,2,36.25,2|0|0,0:0|0:0|0:0,0:0:0:0:
281,263,251247,6,0,P|277:283|268:347,2,72.5,2|2|2,0:0|0:0|0:0,0:0:0:0:
217,197,252497,2,0,P|120:186|82:220,1,145,2|0,0:0|0:0,0:0:0:0:
88,213,253747,6,0,P|72:182|75:133,1,72.5,2|0,0:0|0:0,0:0:0:0:
214,11,254605,5,2,0:0:0:0:
162,83,255021,1,0,0:0:0:0:
215,151,255438,2,0,P|256:144|296:138,1,72.5,2|2,0:0|0:0,0:0:0:0:
458,198,256688,1,0,0:0:0:0:
378,154,257105,6,0,P|367:125|374:70,1,72.5,2|0,0:0|0:0,0:0:0:0:
458,198,257914,2,0,P|366:258|308:232,1,174,2|0,0:0|0:0,0:0:0:0:
234,109,259616,6,0,B|266:191|192:178|229:278,1,174,2|0,0:0|0:0,0:0:0:0:
491,285,261318,6,0,B|432:269|432:269|392:289|392:289|361:302|333:306|266:275|267:206|313:157|379:177|399:224|353:250,1,362.5,2|0,0:0|0:0,0:0:0:0:
256,192,264775,12,0,270732,0:0:0:0:
