osu file format v14

[General]
AudioFilename: audio.mp3
AudioLeadIn: 0
PreviewTime: 201228
Countdown: 0
SampleSet: Soft
StackLeniency: 0.2
Mode: 0
LetterboxInBreaks: 0
WidescreenStoryboard: 0

[Editor]
Bookmarks: 82895,146228,172894,201227,214580,227913
DistanceSpacing: 1.2
BeatDivisor: 16
GridSize: 32
TimelineZoom: 2.1

[Metadata]
Title:Sincerely
TitleUnicode:Sincerely
Artist:TRUE
ArtistUnicode:TRUE
Creator:Kalibe
Version:Emotion
Source:ヴァイオレット・エヴァーガーデン
Tags:irohas mugiwarasekai collab violet evergarden opening op full size kyoto animation
BeatmapID:1548159
BeatmapSetID:733581

[Difficulty]
HPDrainRate:6
CircleSize:4.2
OverallDifficulty:8
ApproachRate:9
SliderMultiplier:3.3
SliderTickRate:1

[Events]
//Background and Video events
0,0,"uwu.png",0,0
//Break Periods
//Storyboard Layer 0 (Background)
//Storyboard Layer 1 (Fail)
//Storyboard Layer 2 (Pass)
//Storyboard Layer 3 (Foreground)
//Storyboard Sound Samples

[TimingPoints]
1234,833.333333333333,4,2,1,45,1,0
1234,-133.333333333333,4,2,1,45,0,0
14567,-200,4,2,1,40,0,0
21233,-142.857142857143,4,2,1,45,0,0
22067,-111.111111111111,4,2,1,50,0,0
22900,-142.857142857143,4,2,1,50,0,0
24567,-125,4,2,1,60,0,0
36025,-100,4,2,1,60,0,0
37900,-111.111111111111,4,2,1,60,0,0
46233,-166.666666666666,4,2,1,50,0,0
47067,-71.4285714285714,4,2,1,60,0,0
47900,-90.9090909090909,4,2,1,65,0,0
51233,-90.9090909090909,4,2,1,70,0,0
52483,-125,4,2,1,70,0,0
53108,-90.9090909090909,4,2,1,70,0,0
53942,-111.111111111111,4,2,1,70,0,0
54567,-90.9090909090909,4,2,1,70,0,0
55817,-125,4,2,1,70,0,0
56442,-90.9090909090909,4,2,1,70,0,0
57275,-111.111111111111,4,2,1,70,0,0
57900,-90.9090909090909,4,2,1,70,0,0
59150,-125,4,2,1,70,0,0
59983,-90.9090909090909,4,2,1,70,0,0
60608,-100,4,2,1,70,0,0
61233,-90.9090909090909,4,2,1,70,0,0
65817,-125,4,2,1,70,0,0
66650,-90.9090909090909,4,2,1,70,0,0
67900,-90.9090909090909,4,2,1,70,0,0
77275,-142.857142857143,4,2,1,55,0,0
77900,-200,4,2,1,40,0,0
82067,-100,4,2,1,50,0,0
82900,833.333333333333,4,2,1,60,1,0
82900,-111.111111111111,4,2,1,60,0,0
84150,-142.857142857143,4,2,1,60,0,0
84775,-200,4,2,1,60,0,0
84983,-111.111111111111,4,2,1,60,0,0
87483,-142.857142857143,4,2,1,60,0,0
87900,-111.111111111111,4,2,1,60,0,0
90817,-142.857142857143,4,2,1,60,0,0
91442,-111.111111111111,4,2,1,60,0,0
96233,-142.857142857143,4,2,1,55,0,0
98942,-200,4,2,1,55,0,0
99567,-142.857142857143,4,2,1,55,0,0
109254,-142.857142857143,4,2,1,5,0,0
109358,-111.111111111111,4,2,1,60,0,0
111233,-125,4,2,1,55,0,0
116233,-142.857142857143,4,2,1,60,0,0
117066,-166.666666666667,4,2,1,60,0,0
117483,-142.857142857143,4,2,1,60,0,0
119566,-125,4,2,1,60,0,0
132378,-90.9090909090909,4,2,1,60,0,0
132899,-125,4,2,1,60,0,0
139358,-200,4,2,1,50,0,0
142066,-99.9999999999999,4,2,1,65,0,0
147483,-125,4,2,1,60,0,0
148108,-99.9999999999999,4,2,1,60,0,0
150816,-125,4,2,1,60,0,0
151441,-99.9999999999999,4,2,1,60,0,0
154149,-125,4,2,1,60,0,0
154774,-99.9999999999999,4,2,1,60,0,0
159566,-99.9999999999999,4,2,1,65,0,0
172066,-125,4,2,1,50,0,0
172899,-111.111111111111,4,2,1,60,0,0
184566,-107.52688172043,4,2,1,70,0,0
186232,-125,4,2,1,60,0,0
192895,821.917808219178,4,2,1,65,1,0
193330,821.917808219178,4,2,1,65,1,0
193330,-125,4,2,1,65,0,0
195795,-111.111111111111,4,2,1,65,0,0
196205,821.917808219178,4,2,1,70,1,0
196205,-111.111111111111,4,2,1,70,0,0
199094,821.917808219178,4,2,1,70,1,0
199504,983.606557377049,4,2,1,55,1,0
199749,810.810810810811,4,2,1,55,1,0
199749,-125,4,2,1,55,0,0
200053,-125,4,2,1,5,0,0
200154,736.196319018405,4,2,1,55,1,0
200365,821.917808219178,4,2,1,55,1,0
200365,-125,4,2,1,55,0,0
200775,944.88188976378,4,2,1,55,1,0
200775,-125,4,2,1,55,0,0
200932,-125,4,2,1,5,0,0
201228,833.333333333333,4,2,1,50,1,0
201228,-166.666666666667,4,2,1,50,0,0
212061,-200,4,2,1,50,0,0
213728,-333.333333333333,4,2,1,75,0,0
214353,-333.333333333333,4,2,1,25,0,0
214457,-333.333333333333,4,2,1,50,0,0
214561,-90.9090909090909,4,2,1,75,0,0
215811,-125,4,2,1,75,0,0
216436,-90.9090909090909,4,2,1,75,0,0
219561,810.810810810811,4,2,1,75,1,0
219561,-90.9090909090909,4,2,1,75,0,0
221227,833.333333333333,4,2,1,75,1,0
221227,-90.9090909090909,4,2,1,75,0,0
222478,-125,4,2,1,75,0,0
223103,-90.9090909090909,4,2,1,75,0,0
227060,810.810810810811,4,2,1,75,1,0
227060,-90.9090909090909,4,2,1,75,0,0
227893,851.063829787234,4,2,1,75,1,0
227893,-90.9090909090909,4,2,1,75,0,0
229143,833.333333333333,4,2,1,75,1,0
229144,-125,4,2,1,75,0,0
229769,-90.9090909090909,4,2,1,75,0,0
231226,833.333333333333,4,2,1,75,1,0
231226,-90.9090909090909,4,2,1,75,0,0
238726,810.810810810811,4,2,1,75,1,0
238726,-90.9090909090909,4,2,1,75,0,0
240392,833.333333333333,4,2,1,75,1,0
240392,-90.9090909090909,4,2,1,75,0,0
241226,827.586206896552,4,2,1,70,1,0
244122,-200,4,2,1,60,0,0
244536,833.333333333333,4,2,1,40,1,0
245369,821.917808219178,4,2,1,40,1,0
246396,-100,4,2,1,35,0,0
247012,902.255639097744,4,2,2,45,1,0
247914,833.333333333333,4,2,1,40,1,0
247914,-200,4,2,1,40,0,0
254605,833.333333333333,4,2,1,40,1,0
254605,-200,4,2,1,40,0,0
257914,851.063829787234,4,2,1,40,1,0
257914,-250,4,2,1,40,0,0
261318,-200,4,2,1,40,0,0
263445,-200,4,2,1,20,0,0
264722,-200,4,2,1,30,0,0
264775,851.063829787234,4,2,1,30,1,0
264775,-303.030303030303,4,2,1,30,0,0
268179,-303.030303030303,4,2,2,20,0,0
269030,-303.030303030303,4,2,1,15,0,0
269881,-303.030303030303,4,2,2,10,0,0
270679,-200,4,2,1,5,0,0

[Colours]
Combo1 : 116,189,214
Combo2 : 128,128,192
Combo3 : 166,206,236
Combo4 : 182,114,222

[HitObjects]
448,117,1234,5,2,0:0:0:0:
391,67,1442,1,0,0:0:0:0:
459,97,1650,1,0,0:0:0:0:
380,87,1859,1,2,0:0:0:0:
71,205,2900,5,2,0:0:0:0:
128,155,3108,1,0,0:0:0:0:
60,185,3316,1,0,0:0:0:0:
139,175,3525,1,2,0:0:0:0:
412,350,4567,5,2,0:0:0:0:
359,297,4775,1,0,0:0:0:0:
287,277,4983,1,0,0:0:0:0:
214,294,5192,1,2,0:0:0:0:
214,294,6234,5,2,0:0:0:0:
287,311,6443,1,0,0:0:0:0:
359,291,6651,1,0,0:0:0:0:
412,238,6859,1,2,0:0:0:0:
412,238,7900,5,2,0:0:0:0:
391,166,8108,1,0,0:0:0:0:
425,99,8317,1,0,0:0:0:0:
400,28,8525,1,2,0:0:0:0:
141,294,9567,5,2,0:0:0:0:
162,222,9775,1,0,0:0:0:0:
128,155,9984,1,0,0:0:0:0:
153,84,10192,1,2,0:0:0:0:
153,84,11233,5,2,0:0:0:0:
216,122,11442,1,0,0:0:0:0:
163,69,11650,1,0,0:0:0:0:
228,33,11858,1,2,0:0:0:0:
49,307,12900,5,2,0:0:0:0:
53,311,13317,2,0,P|117:317|165:281,1,123.750004720688,2|0,0:3|0:0,0:0:0:0:
237,199,13942,2,0,P|301:193|349:229,1,123.750004720688,2|0,1:3|0:0,0:0:0:0:
419,344,14567,6,0,B|404:275|448:252|421:173,1,165,0|8,3:0|1:3,0:0:0:0:
512,94,15817,1,0,3:0:0:0:
512,94,16025,2,0,P|446:86|381:78,1,123.75,0|0,3:0|3:0,3:0:0:0:
363,63,16858,2,0,L|370:110,1,41.25,2|8,0:0|1:3,0:0:0:0:
246,253,17275,2,0,P|256:211|262:166,1,82.5,2|0,0:0|0:0,0:0:0:0:
233,101,17900,1,0,3:0:0:0:
233,101,18317,6,0,L|275:94,1,41.25,0|2,3:0|0:0,0:0:0:0:
340,204,18733,2,0,P|331:243|323:293,1,82.5,8|0,1:3|3:0,0:0:0:0:
223,356,19358,2,0,P|194:310|213:242,1,123.75,0|2,3:0|0:0,0:0:0:0:
266,191,20192,1,0,0:0:0:0:
266,191,20400,1,8,1:3:0:0:
178,48,20817,1,2,0:0:0:0:
33,111,21233,6,0,P|127:153|199:128,1,173.24999471283,2|0,0:0|0:0,0:0:0:0:
319,72,22067,2,0,B|269:32|269:32|322:121|288:191,1,222.74999320221,2|0,0:0|3:0,0:0:0:0:
195,86,22900,6,0,P|206:113|210:141,1,57.7499982376099,2|4,0:0|3:0,0:0:0:0:
103,335,23317,2,0,P|113:308|118:279,1,57.7499982376099,8|0,0:0|3:0,0:0:0:0:
110,259,23629,1,8,3:0:0:0:
110,259,23733,5,8,0:0:0:0:
180,384,23942,1,4,3:0:0:0:
291,183,24150,1,8,3:0:0:0:
443,358,24567,5,4,0:0:0:0:
447,353,24775,2,0,P|457:322|461:276,1,66,0|0,3:0|0:0,0:0:0:0:
381,151,25192,1,0,3:0:0:0:
425,85,25400,2,0,B|406:145|436:159|418:217,1,132,8|0,0:0|0:0,0:0:0:0:
237,109,26025,6,0,P|269:106|310:93,1,66,2|0,0:0|0:0,0:0:0:0:
236,295,26442,2,0,P|268:298|309:311,1,66,2|4,0:0|3:0,0:0:0:0:
292,203,26858,1,2,0:0:0:0:
292,203,27067,2,0,L|144:220,1,132,8|0,0:0|0:0,0:0:0:0:
47,196,27692,5,0,3:0:0:0:
47,196,27796,1,0,3:0:0:0:
47,196,27900,2,0,P|53:227|55:264,1,66,2|0,0:0|3:0,0:0:0:0:
227,360,28317,2,0,P|228:327|235:294,1,66,2|6,0:0|3:0,0:0:0:0:
149,242,28733,2,0,P|135:307|124:372,1,132,8|2,0:0|3:3,0:0:0:0:
43,258,29358,5,4,3:0:0:0:
147,140,29567,2,0,P|182:134|237:120,1,66,2|2,0:0|3:0,0:0:0:0:
165,51,29983,5,4,3:0:0:0:
270,199,30192,2,0,P|302:204|334:211,1,66,2|8,0:0|0:0,0:0:0:0:
276,287,30608,5,2,3:0:0:0:
416,196,30817,1,2,0:0:0:0:
326,90,31025,5,0,3:0:0:0:
326,90,31129,1,0,3:0:0:0:
326,90,31233,2,0,P|318:55|315:7,1,66,2|0,0:0|3:0,0:0:0:0:
497,210,31650,2,0,P|505:175|508:127,1,66,2|0,0:0|3:0,0:0:0:0:
346,247,32067,2,0,P|354:311|362:386,1,132,8|0,0:0|3:0,0:0:0:0:
442,273,32692,5,2,3:2:0:0:
393,186,32900,1,2,0:0:0:0:
295,169,33108,1,2,0:0:0:0:
221,235,33317,2,0,P|226:267|229:306,1,66,4|0,3:0|0:0,0:0:0:0:
60,203,33733,2,0,P|68:137|80:65,1,132,8|0,0:0|0:0,0:0:0:0:
107,283,34358,5,0,3:0:0:0:
107,283,34463,1,0,3:0:0:0:
107,283,34567,2,0,P|71:291|34:301,1,66,2|0,0:0|3:0,0:0:0:0:
219,147,34983,2,0,P|250:155|283:162,1,66,2|0,0:0|3:0,0:0:0:0:
96,62,35400,2,0,P|148:34|221:33,1,132,8|4,0:0|3:0,0:0:0:0:
315,88,36025,6,0,B|313:47|313:47|334:5,1,82.5,2|8,3:0|0:0,0:0:0:0:
108,171,36442,2,0,B|126:208|126:208|124:249,1,82.5,6|0,3:0|3:0,0:0:0:0:
220,148,36858,1,0,3:0:0:0:
315,330,37067,5,8,0:0:0:0:
228,272,37275,2,0,P|221:311|211:352,1,82.5,2|0,3:0|0:0,0:0:0:0:
415,240,37692,1,0,3:0:0:0:
415,240,37796,1,8,0:0:0:0:
415,240,37900,2,0,P|405:167|397:83,1,148.49999546814,4|0,0:0|0:0,0:0:0:0:
317,169,38525,5,0,3:0:0:0:
512,61,38733,2,0,P|440:50|378:94,1,148.49999546814,8|0,0:0|0:0,0:0:0:0:
246,8,39358,6,0,P|281:19|330:25,1,74.2499977340699,2|0,0:0|0:0,0:0:0:0:
511,148,39775,2,0,P|474:153|438:164,1,74.2499977340699,2|4,0:0|3:0,0:0:0:0:
282,289,40192,1,2,0:0:0:0:
347,370,40400,2,0,P|378:309|363:217,1,148.49999546814,8|2,0:0|0:0,0:0:0:0:
241,145,41025,5,0,3:0:0:0:
241,145,41129,1,0,3:0:0:0:
241,145,41233,2,0,P|206:152|159:158,1,74.2499977340699,4|0,0:0|3:0,0:0:0:0:
332,57,41650,5,2,0:0:0:0:
227,235,41858,1,0,3:0:0:0:
70,105,42067,2,0,P|142:96|208:138,1,148.49999546814,8|0,0:0|0:0,0:0:0:0:
127,313,42692,6,0,P|122:275|109:224,1,74.2499977340699,0|0,3:0|0:0,0:0:0:0:
316,88,43108,2,0,P|321:126|334:177,1,74.2499977340699,0|4,3:0|3:0,0:0:0:0:
241,235,43525,1,0,3:0:0:0:
204,133,43733,5,8,0:0:0:0:
348,238,43942,1,8,3:0:0:0:
217,333,44150,1,0,0:0:0:0:
292,359,44358,1,0,0:0:0:0:
246,371,44567,5,2,0:0:0:0:
246,371,46233,2,0,B|228:294|278:273|242:185,1,173.24999471283,2|0,0:0|0:0,0:0:0:0:
237,186,47067,1,8,3:0:0:0:
142,294,47275,5,0,3:0:0:0:
145,298,47379,1,8,0:0:0:0:
148,302,47483,2,0,P|177:299|216:285,1,57.7499982376099,8|8,0:0|0:0,0:0:0:0:
402,197,47692,2,0,P|373:194|334:180,1,57.7499982376099,8|0,0:0|3:0,0:0:0:0:
183,53,47900,6,0,P|239:91|351:64,1,181.500005538941,4|8,0:0|0:0,0:0:0:0:
166,180,48525,2,0,B|102:198|52:218|52:218|26:194|43:154,1,181.500005538941,4|0,0:0|3:0,0:0:0:0:
248,281,49150,2,0,P|240:326|235:390,1,90.7500027694703,8|0,0:0|3:0,0:0:0:0:
144,298,49567,5,8,0:0:0:0:
369,214,49775,1,4,3:0:0:0:
182,152,49983,5,8,0:0:0:0:
389,296,50192,1,4,3:0:0:0:
294,55,50400,5,8,0:0:0:0:
283,71,50539,2,0,P|282:101|293:138,1,60.5000018463135,8|8,3:0|3:0,0:0:0:0:
467,253,50817,5,8,0:0:0:0:
478,237,50956,2,0,P|479:207|468:170,1,60.5000018463135,8|8,3:0|3:0,0:0:0:0:
393,99,51233,6,0,B|347:182|403:200|357:286,1,181.500005538941,4|0,0:1|0:0,0:0:0:0:
475,151,51858,1,0,3:0:0:0:
304,337,52067,2,0,P|342:358|393:353,1,90.7500027694703,10|0,0:0|0:0,0:0:0:0:
205,224,52483,6,0,B|95:234|133:293|21:304,1,198,4|8,0:0|3:0,0:0:0:0:
92,62,53317,2,0,P|92:106|99:154,1,90.7500027694703,2|0,0:0|3:0,0:0:0:0:
218,311,53733,1,8,0:0:0:0:
310,240,53942,2,0,P|326:167|295:104,1,148.49999546814,2|0,0:0|3:0,0:0:0:0:
218,311,54567,6,0,P|306:374|375:352,1,181.500005538941,4|0,0:0|0:0,0:0:0:0:
471,290,55192,1,0,3:0:0:0:
402,91,55400,2,0,P|407:135|415:183,1,90.7500027694703,8|0,0:0|0:0,0:0:0:0:
293,347,55817,6,0,B|331:267|279:244|324:145,1,198,4|8,0:0|3:0,0:0:0:0:
154,57,56650,2,0,P|199:53|252:38,1,90.7500027694703,2|0,0:0|3:0,0:0:0:0:
87,237,57067,1,8,0:0:0:0:
162,316,57275,2,0,P|195:254|183:175,1,148.49999546814,0|2,3:0|0:0,0:0:0:0:
16,85,57900,6,0,B|78:94|131:115|131:115|161:97|166:63,1,181.500005538941,4|2,0:0|0:0,0:0:0:0:
37,177,58525,1,0,3:0:0:0:
218,252,58733,2,0,P|264:242|312:237,1,90.7500027694703,8|0,0:0|0:0,0:0:0:0:
80,320,59150,6,0,B|153:329|153:329|188:370|188:370|268:381,1,198,4|8,0:0|3:0,0:0:0:0:
354,319,59983,1,2,0:0:0:0:
204,255,60192,1,0,3:0:0:0:
329,138,60400,1,8,0:0:0:0:
275,63,60608,2,0,P|289:149|294:228,1,165,2|8,0:0|3:0,0:0:0:0:
512,280,61233,6,0,P|429:270|368:346,1,181.500005538941,4|0,0:0|0:0,0:0:0:0:
323,154,61858,2,0,P|364:171|413:178,1,90.7500027694703,2|8,0:0|0:0,0:0:0:0:
227,341,62275,2,0,P|220:296|203:254,1,90.7500027694703,2|0,0:0|0:0,0:0:0:0:
306,252,62692,5,0,3:0:0:0:
214,137,62900,1,4,3:0:0:0:
415,11,63108,2,0,P|397:51|388:105,1,90.7500027694703,10|0,0:0|0:0,0:0:0:0:
273,25,63525,1,2,3:2:0:0:
487,89,63733,5,8,0:0:0:0:
301,143,63942,1,8,3:0:0:0:
467,241,64150,1,8,3:0:0:0:
347,362,64358,1,0,3:0:0:0:
384,174,64567,6,0,B|371:241|371:280|354:360,1,181.500005538941,4|0,0:1|0:0,0:0:0:0:
260,225,65192,1,0,3:0:0:0:
460,350,65400,2,0,P|478:308|476:256,1,90.7500027694703,10|0,0:0|0:0,0:0:0:0:
223,125,65817,6,0,P|166:203|175:300,1,198,6|8,0:0|3:0,0:0:0:0:
22,122,66650,2,0,P|35:165|43:209,1,90.7500027694703,0|0,3:0|3:0,0:0:0:0:
217,42,67067,1,8,0:0:0:0:
112,125,67275,1,2,0:0:0:0:
108,24,67483,5,2,0:3:0:0:
283,173,67692,2,0,P|303:168|348:159,1,45.3750013847352,4|2,3:0|0:0,0:0:0:0:
466,103,67900,6,0,B|378:87|390:160|293:144,1,181.500005538941,4|2,0:0|0:0,0:0:0:0:
443,195,68525,1,0,3:0:0:0:
229,82,68733,2,0,P|205:122|210:172,1,90.7500027694703,8|0,0:0|0:0,0:0:0:0:
273,258,69150,5,2,0:0:0:0:
386,84,69358,2,0,P|387:39|364:1,1,90.7500027694703,0|4,3:0|3:0,0:0:0:0:
196,168,69775,2,0,P|265:227|359:212,1,181.500005538941,8|0,0:0|3:0,0:0:0:0:
506,322,70400,2,0,B|439:333|439:333|403:368|403:368|326:384,1,181.500005538941,8|0,0:0|0:0,0:0:0:0:
235,300,71025,1,0,3:0:0:0:
382,120,71233,6,0,B|345:198|394:222|357:303,1,181.500005538941,4|2,0:0|0:0,0:0:0:0:
499,149,71858,2,0,P|491:105|487:45,1,90.7500027694703,0|8,3:0|0:0,0:0:0:0:
408,213,72275,1,0,3:0:0:0:
274,29,72483,2,0,P|270:74|262:118,1,90.7500027694703,2|0,0:0|3:0,0:0:0:0:
371,95,72900,5,4,3:0:0:0:
162,184,73108,2,0,P|142:143|144:98,1,90.7500027694703,8|0,0:0|0:0,0:0:0:0:
271,164,73525,1,0,3:0:0:0:
80,249,73733,1,8,0:0:0:0:
196,308,73942,2,0,B|96:317|125:369|21:375,1,181.500005538941,2|0,0:0|3:0,0:0:0:0:
272,246,74567,6,0,P|288:287|286:332,1,90.7500027694703,4|0,0:0|0:0,0:0:0:0:
188,225,74983,1,0,0:0:0:0:
324,146,75192,1,0,3:0:0:0:
160,32,75400,2,0,P|233:70|340:22,1,181.500005538941,8|2,0:0|0:0,0:0:0:0:
197,159,76025,6,0,P|160:138|103:133,1,90.7500027694703,0|4,3:0|3:0,0:0:0:0:
309,245,76442,2,0,P|353:239|393:217,1,90.7500027694703,10|0,0:0|0:0,0:0:0:0:
183,299,76858,2,0,P|161:338|155:383,1,90.7500027694703,2|8,0:0|0:0,0:0:0:0:
354,350,77275,5,8,3:0:0:0:
354,350,77483,2,0,L|283:362,1,57.7499982376099,8|0,3:0|0:0,0:0:0:0:
157,382,77900,1,2,0:0:0:0:
453,34,79567,6,0,P|442:96|434:159,1,123.75,2|0,0:0|0:0,0:0:0:0:
443,165,80400,1,2,0:0:0:0:
222,124,81025,5,0,0:0:0:0:
207,125,81233,2,0,P|250:156|321:158,1,123.75,2|0,0:0|0:0,0:0:0:0:
250,253,82067,5,8,0:0:0:0:
398,162,82275,2,0,B|309:175|346:224|251:243,1,165,8|0,3:0|0:0,0:0:0:0:
67,287,82900,6,0,P|112:291|223:305,1,148.49999546814,4|0,0:1|0:0,0:0:0:0:
340,227,83525,1,2,0:0:0:0:
225,304,83733,2,0,P|211:278|222:225,1,74.2499977340699,8|0,0:0|0:0,0:0:0:0:
455,339,84150,6,0,B|427:347|347:369|347:369|306:360|310:319,1,173.24999471283,6|8,0:0|0:3,0:0:0:0:
395,194,84983,2,2,P|390:215|373:279,1,74.2499977340699,2|2,0:3|0:3,0:3:0:0:
313,126,85400,5,8,0:0:0:0:
497,226,85608,2,0,P|493:207|487:177,2,37.1249988670349,0|0|4,0:0|0:0|3:0,0:0:0:0:
367,339,86025,5,2,0:0:0:0:
461,313,86233,6,0,P|387:303|311:293,1,148.49999546814,4|0,0:0|0:0,0:0:0:0:
149,146,86858,1,2,0:3:0:0:
252,132,87067,6,0,P|241:167|232:203,1,74.2499977340699,8|0,0:0|0:0,0:0:0:0:
61,336,87483,2,0,P|30:301|41:233,1,115.49999647522,6|0,0:0|0:0,0:0:0:0:
185,205,88108,5,8,0:0:0:0:
113,268,88317,1,2,0:0:0:0:
247,363,88525,5,2,3:0:0:0:
104,171,88733,1,8,0:0:0:0:
209,278,88942,6,0,P|239:273|266:267,1,37.1249988670349,0|0,0:0|3:0,0:0:0:0:
308,320,89150,2,0,P|326:323|344:326,1,37.1249988670349,4|4,3:0|3:0,0:0:0:0:
399,270,89358,2,0,P|417:267|435:263,1,37.1249988670349,8|8,3:0|3:0,0:0:0:0:
512,206,89567,6,0,B|431:201|460:275|362:266,1,148.49999546814,4|0,0:1|0:0,0:0:0:0:
223,188,90192,1,0,3:0:0:0:
344,97,90400,2,2,P|337:127|322:189,1,74.2499977340699,8|2,0:0|0:3,0:3:0:0:
197,27,90817,6,2,B|204:70|226:206,1,173.24999471283,6|8,0:0|3:0,0:3:0:0:
94,360,91650,2,2,P|71:326|79:284,1,74.2499977340699,2|2,0:3|0:3,0:3:0:0:
274,344,92067,5,8,0:0:0:0:
158,270,92275,2,0,P|167:299|176:326,2,37.1249988670349,2|0|4,0:0|0:0|3:0,0:0:0:0:
73,346,92692,5,0,3:0:0:0:
291,205,92900,2,2,B|284:239|266:362,1,148.49999546814,4|2,0:0|0:3,0:3:0:0:
203,171,93525,5,0,3:0:0:0:
375,252,93733,2,0,B|393:217|393:217|376:168,1,74.2499977340699,8|0,0:0|0:0,0:0:0:0:
248,60,94150,5,2,0:0:0:0:
287,151,94358,1,0,3:0:0:0:
350,25,94567,5,4,3:0:0:0:
203,171,94775,1,8,0:0:0:0:
369,259,94983,1,8,0:0:0:0:
218,265,95192,6,8,P|242:260|276:254,1,37.1249988670349,8|8,0:3|0:3,0:3:0:0:
312,200,95400,1,8,0:3:0:0:
425,329,95608,5,2,3:2:0:0:
369,259,95817,1,8,3:0:0:0:
424,189,96025,1,4,3:0:0:0:
379,117,96233,6,0,P|388:160|409:254,1,115.49999647522,4|2,3:2|0:0,0:0:0:0:
206,327,96858,1,0,3:0:0:0:
313,262,97067,6,0,P|307:292|290:387,1,115.49999647522,8|0,0:0|3:0,0:0:0:0:
139,303,97692,1,2,3:0:0:0:
206,327,97900,6,0,P|172:319|136:316,1,57.7499982376099,2|0,3:2|0:0,0:0:0:0:
142,319,98213,1,0,0:0:0:0:
138,323,98317,1,2,3:0:0:0:
70,206,98525,1,0,0:0:0:0:
0,277,98733,5,8,0:0:0:0:
149,156,98942,2,0,P|156:180|166:209,2,41.25,2|4|8,0:0|3:2|3:0,0:0:0:0:
248,266,99567,6,0,P|260:209|274:146,1,115.49999647522,2|0,0:0|0:0,0:0:0:0:
399,17,100192,1,0,3:0:0:0:
325,72,100400,6,0,P|342:91|412:99,1,86.6249973564149,8|2,0:0|0:3,0:0:0:0:
408,97,100817,1,0,3:0:0:0:
257,182,101025,1,0,3:0:0:0:
338,244,101233,6,0,P|346:203|353:161,1,57.7499982376099,4|0,3:0|0:0,0:0:0:0:
352,180,101546,1,0,3:0:0:0:
356,176,101650,1,2,0:0:0:0:
249,273,101858,1,0,3:0:0:0:
374,330,102067,1,8,0:0:0:0:
302,384,102275,6,0,P|347:374|437:353,1,115.49999647522,2|0,0:0|3:0,0:0:0:0:
195,353,102900,6,0,P|162:321|182:243,1,115.49999647522,4|2,0:0|0:0,0:0:0:0:
331,167,103525,1,2,3:2:0:0:
235,143,103733,2,0,P|244:176|253:212,1,57.7499982376099,8|0,0:0|0:0,0:0:0:0:
358,54,104150,6,0,P|350:89|326:181,1,115.49999647522,0|4,3:0|3:0,0:0:0:0:
463,287,104775,5,0,0:0:0:0:
465,281,104879,1,0,3:0:0:0:
464,274,104983,1,2,0:0:0:0:
362,312,105192,2,0,P|369:339|380:381,1,57.7499982376099,0|8,3:0|0:0,0:0:0:0:
278,352,105608,5,2,0:0:0:0:
452,262,105817,1,2,0:0:0:0:
456,268,106025,1,0,3:0:0:0:
295,189,106233,6,0,P|354:156|403:175,1,115.49999647522,4|0,3:0|3:0,0:0:0:0:
270,268,106858,2,0,P|241:261|211:256,1,57.7499982376099,2|8,0:3|0:0,0:0:0:0:
134,174,107275,2,0,P|162:167|199:161,1,57.7499982376099,2|0,0:0|0:0,0:0:0:0:
281,93,107692,1,0,3:0:0:0:
196,48,107900,5,2,3:0:0:0:
325,180,108108,1,2,0:0:0:0:
327,174,108213,1,0,3:0:0:0:
329,168,108317,1,2,0:3:0:0:
237,234,108525,5,8,3:0:0:0:
417,119,108733,1,8,0:0:0:0:
318,0,108942,6,0,P|326:36|340:94,1,86.6249973564149,8|0,0:0|0:0,0:0:0:0:
339,92,109358,6,0,P|347:61|352:38,1,37.1249988670349,8|8,1:3|1:3,0:0:0:0:
264,133,109983,5,2,0:0:0:0:
394,201,110192,1,2,0:0:0:0:
311,252,110400,5,2,3:0:0:0:
467,116,110608,2,0,P|473:136|483:174,1,37.1249988670349,2|0,0:0|0:0,0:0:0:0:
438,212,110817,2,0,P|433:229|427:247,1,37.1249988670349,0|0,3:0|0:0,0:0:0:0:
477,303,111025,2,0,P|481:320|487:338,1,37.1249988670349,4|0,3:0|0:0,0:0:0:0:
320,384,111233,6,0,P|286:354|310:264,1,132,4|0,0:0|0:0,0:0:0:0:
365,232,111858,1,0,3:0:0:0:
161,345,112067,1,8,0:0:0:0:
196,218,112275,6,0,P|202:243|216:295,1,66,2|0,0:3|0:0,0:0:0:0:
248,139,112692,1,0,3:0:0:0:
161,345,112900,6,0,P|64:344|38:307,1,132,4|0,3:0|0:0,0:0:0:0:
197,185,113525,1,2,3:0:0:0:
124,279,113733,6,0,P|114:247|105:215,1,66,8|2,0:0|0:0,0:0:0:0:
41,170,114046,1,8,0:0:0:0:
41,170,114150,2,0,P|33:202|24:233,1,66,8|4,3:3|3:0,0:0:0:0:
229,354,114567,5,4,3:0:0:0:
153,213,114775,1,2,3:0:0:0:
94,292,114983,5,2,0:0:0:0:
236,196,115192,1,2,0:3:0:0:
132,113,115400,1,8,0:0:0:0:
247,285,115608,6,0,P|296:273|378:255,1,132,2|0,0:0|3:0,0:0:0:0:
512,102,116233,6,0,P|431:103|407:133,1,115.49999647522,4|0,0:0|0:0,0:0:0:0:
467,290,116858,1,0,3:0:0:0:
485,187,117067,6,0,P|477:225|464:288,1,98.9999969787599,8|0,0:0|0:0,0:0:0:0:
293,361,117692,1,0,3:0:0:0:
363,268,117900,6,0,P|373:303|381:334,1,57.7499982376099,8|0,3:0|0:0,0:0:0:0:
382,330,118213,1,8,0:0:0:0:
386,334,118317,5,2,0:0:0:0:
259,242,118525,1,0,3:0:0:0:
365,167,118733,5,8,0:0:0:0:
230,334,118942,1,2,0:0:0:0:
141,286,119150,5,8,3:0:0:0:
316,370,119358,2,0,P|320:357|324:343,1,28.874999118805,8|8,3:0|3:0,0:0:0:0:
436,293,119566,6,0,P|388:335|324:330,1,132,4|0,0:0|0:0,0:0:0:0:
205,160,120191,1,0,3:0:0:0:
254,230,120399,2,0,P|248:255|234:307,1,66,8|0,0:0|0:0,0:0:0:0:
180,361,120816,5,2,0:0:0:0:
20,286,121024,1,0,3:0:0:0:
90,357,121233,6,0,P|108:320|104:281,1,66,2|0,0:0|3:0,0:0:0:0:
4,173,121649,2,0,L|15:220,1,33,0|0,0:0|3:0,0:0:0:0:
28,275,121858,1,0,0:0:0:0:
152,106,122066,6,0,P|146:142|128:250,1,132,10|0,0:0|0:0,0:0:0:0:
67,118,122691,5,0,3:0:0:0:
233,249,122899,1,2,3:0:0:0:
268,172,123108,5,2,0:0:0:0:
140,278,123316,1,2,3:0:0:0:
213,344,123524,6,0,P|255:336|353:318,1,132,2|0,3:1|0:0,0:0:0:0:
346,318,124045,1,8,3:0:0:0:
350,316,124149,6,0,P|341:348|331:388,1,66,2|0,0:0|3:0,0:0:0:0:
439,252,124566,2,0,P|448:284|461:328,1,66,2|8,0:0|3:0,0:0:0:0:
357,142,124983,6,0,L|346:189,1,33,0|0,0:0|3:0,0:0:0:0:
286,219,125192,1,2,0:0:0:0:
442,140,125399,1,8,0:0:0:0:
295,45,125608,5,0,3:0:0:0:
302,51,125712,2,0,P|296:71|287:103,1,33,8|0,3:0|3:0,0:0:0:0:
203,144,125920,5,2,0:0:0:0:
210,138,126024,2,0,P|204:117|195:86,1,33,0|0,3:0|3:0,0:0:0:0:
121,63,126233,5,2,3:2:0:0:
284,179,126441,1,2,0:0:0:0:
134,264,126649,6,0,P|118:231|123:193,1,66,2|0,0:3|3:0,0:0:0:0:
250,284,127066,2,0,P|244:309|230:361,1,66,8|0,0:0|0:0,0:0:0:0:
234,357,127378,1,8,0:0:0:0:
238,361,127482,1,0,3:0:0:0:
331,322,127691,5,2,0:3:0:0:
156,257,127899,1,2,0:0:0:0:
331,322,128108,6,0,P|347:289|342:251,1,66,2|0,0:3|0:0,0:0:0:0:
185,170,128524,1,2,0:3:0:0:
301,123,128733,2,0,P|295:148|281:200,1,66,8|0,0:0|0:0,0:0:0:0:
192,24,129149,2,0,P|198:49|212:101,1,66,2|0,0:3|3:0,0:0:0:0:
282,7,129566,5,6,0:0:0:0:
113,93,129774,1,2,0:0:0:0:
189,147,129983,5,2,0:3:0:0:
32,61,130191,1,0,3:0:0:0:
106,0,130399,5,8,0:0:0:0:
0,154,130608,1,8,3:0:0:0:
155,232,130816,1,2,0:3:0:0:
94,354,131024,6,0,P|85:317|61:220,1,132,0|2,3:0|3:0,0:0:0:0:
215,320,131649,2,0,P|219:304|222:288,1,33,8|0,0:0|3:0,0:0:0:0:
155,232,131858,5,2,0:0:0:0:
291,378,132066,1,2,1:2:0:0:
457,282,132274,1,2,0:1:0:0:
462,276,132379,6,0,P|409:252|365:273,1,90.7500027694703,8|0,3:0|3:0,0:0:0:0:
405,379,132691,2,0,P|410:353|413:331,1,45.3750013847352,8|8,0:0|0:0,0:0:0:0:
293,202,132899,6,0,P|299:235|321:340,1,132,4|2,0:0|0:3,0:0:0:0:
161,364,133524,1,0,3:0:0:0:
187,294,133733,2,0,P|180:325|167:375,1,66,8|0,0:0|0:0,0:0:0:0:
60,232,134149,2,0,P|67:263|80:313,1,66,2|0,0:0|3:0,0:0:0:0:
142,197,134566,5,2,0:0:0:0:
9,136,134774,1,2,3:2:0:0:
137,26,134983,6,0,P|132:47|125:74,1,33,0|0,0:0|3:0,0:0:0:0:
93,132,135191,1,2,0:0:0:0:
232,31,135399,6,0,P|238:64|257:154,1,99,8|8,0:0|3:0,0:0:0:0:
325,166,135816,6,0,P|329:150|332:134,1,33,2|2,0:0|0:0,0:0:0:0:
406,100,136024,2,0,P|411:127|418:158,1,33,2|0,3:2|0:0,0:0:0:0:
491,167,136233,6,0,P|514:139|490:68,1,99,2|0,0:3|0:0,0:0:0:0:
498,74,136649,5,2,0:0:0:0:
378,199,136858,1,0,3:0:0:0:
512,306,137066,6,0,P|465:298|392:285,1,99,8|8,0:0|3:0,0:0:0:0:
406,294,137483,2,0,P|392:316|397:357,1,66,2|0,0:0|3:0,0:0:0:0:
288,219,137899,2,0,P|295:250|308:300,1,66,0|0,0:0|3:0,0:0:0:0:
350,151,138316,5,2,0:0:0:0:
208,267,138524,1,0,3:0:0:0:
165,178,138733,5,8,0:0:0:0:
291,272,138941,1,2,3:2:0:0:
149,339,139149,1,8,3:0:0:0:
225,384,139358,6,0,P|229:362|233:346,2,20.625,8|8|2,3:0|3:0|3:2,0:0:0:0:
225,384,141233,5,2,0:3:0:0:
191,215,142066,6,0,P|187:242|181:275,1,41.25,8|8,0:0|0:0,0:0:0:0:
95,158,142274,2,0,P|99:178|106:207,1,41.25,8|0,3:0|3:0,0:0:0:0:
193,89,142483,6,0,P|189:107|182:139,1,41.25,8|8,3:0|3:0,0:0:0:0:
99,24,142691,2,0,P|103:44|111:85,1,41.25,12|12,3:0|3:0,0:0:0:0:
175,0,142899,5,4,0:0:0:0:
16,127,143108,1,8,0:0:0:0:
176,219,143316,1,8,0:0:0:0:
58,285,143524,6,0,B|86:277|162:256|162:256|207:264|201:308,1,165,4|8,0:0|0:3,0:0:0:0:
164,363,144149,5,8,0:0:0:0:
337,254,144358,1,8,3:0:0:0:
258,192,144566,5,8,0:0:0:0:
389,368,144774,1,12,0:0:0:0:
477,308,144983,5,0,3:0:0:0:
474,306,145087,1,0,3:0:0:0:
471,304,145191,6,0,P|476:284|487:241,1,41.25,10|0,3:0|0:0,0:0:0:0:
398,174,145399,2,0,P|403:193|409:213,1,41.25,2|0,3:0|0:0,0:0:0:0:
267,369,145608,1,2,3:0:0:0:
255,351,145712,1,0,3:0:0:0:
255,330,145816,6,0,P|289:319|318:311,1,41.25,2|4,3:2|3:0,0:0:0:0:
254,220,146024,2,0,P|273:226|297:233,1,41.25,2|4,3:2|3:0,0:0:0:0:
133,303,146233,6,0,P|182:294|323:271,1,165,4|0,0:1|0:0,0:0:0:0:
151,184,146858,1,0,3:0:0:0:
258,104,147066,2,0,B|277:141|277:141|265:188,1,82.5,8|0,0:0|0:0,0:0:0:0:
54,271,147483,6,0,P|10:197|66:97,1,198,6|8,0:0|3:0,0:0:0:0:
126,24,148316,2,0,P|165:34|206:41,1,82.5,2|0,0:0|3:0,0:0:0:0:
269,249,148733,1,8,0:0:0:0:
310,127,148941,2,0,P|231:124|166:181,1,165,2|0,0:0|0:0,0:0:0:0:
22,285,149566,6,0,P|101:300|179:332,1,165,4|2,0:0|0:0,0:0:0:0:
71,383,150191,1,0,3:0:0:0:
279,257,150399,2,0,P|269:294|264:337,1,82.5,8|0,0:0|0:0,0:0:0:0:
153,199,150816,6,0,P|227:124|321:143,1,198,4|0,0:0|3:0,0:0:0:0:
442,28,151649,2,0,P|403:41|354:45,1,82.5,2|0,0:0|3:0,0:0:0:0:
372,244,152066,2,0,P|411:231|460:227,1,82.5,8|0,0:0|3:0,0:0:0:0:
306,149,152483,2,0,L|218:167,1,82.5,2|0,0:0|3:0,0:0:0:0:
432,323,152899,6,0,P|343:278|284:297,1,165,4|0,0:0|0:0,0:0:0:0:
408,202,153524,1,0,3:0:0:0:
216,362,153733,2,0,P|256:369|295:382,1,82.5,8|0,0:0|0:0,0:0:0:0:
195,243,154149,6,0,P|115:293|0:271,1,198,4|8,0:0|3:0,0:0:0:0:
127,332,154983,1,2,0:0:0:0:
20,272,155191,1,0,3:0:0:0:
190,162,155399,1,8,0:0:0:0:
18,83,155608,1,0,0:0:0:0:
13,58,155712,1,0,3:0:0:0:
20,34,155816,5,2,0:0:0:0:
93,206,156024,1,2,0:3:0:0:
237,42,156233,6,0,B|149:55|188:100|89:117,1,165,4|2,0:0|0:0,0:0:0:0:
284,190,156858,1,0,3:0:0:0:
109,334,157066,2,0,B|92:296|92:296|104:252,1,82.5,8|0,0:0|0:0,0:0:0:0:
102,256,157378,1,0,3:0:0:0:
102,256,157483,1,2,0:0:0:0:
9,367,157691,5,2,3:0:0:0:
196,282,157899,1,0,3:0:0:0:
23,170,158108,2,0,P|61:183|109:193,1,82.5,10|0,3:0|0:0,0:0:0:0:
205,367,158524,2,0,P|243:354|291:344,1,82.5,10|8,3:0|0:0,0:0:0:0:
455,166,158941,5,0,3:0:0:0:
486,192,159045,1,0,3:0:0:0:
501,230,159149,1,4,3:0:0:0:
494,270,159253,1,4,3:0:0:0:
466,301,159358,1,8,3:0:0:0:
425,307,159462,1,8,3:0:0:0:
399,274,159566,6,0,P|439:278|483:302,1,82.5,4|0,0:1|0:0,0:0:0:0:
329,145,159983,2,0,P|333:105|357:61,1,82.5,2|0,0:0|0:0,0:0:0:0:
214,227,160399,2,0,P|177:245|136:249,1,82.5,10|0,0:0|0:0,0:0:0:0:
287,383,160816,6,0,B|280:313|329:298|312:214,1,165,6|0,0:0|0:0,0:0:0:0:
370,359,161441,1,0,3:0:0:0:
260,154,161649,2,0,P|301:149|346:136,1,82.5,2|0,0:0|0:0,0:0:0:0:
176,345,162066,2,0,P|93:322|2:317,1,165,8|0,0:0|0:0,0:0:0:0:
221,223,162691,2,0,L|157:208,1,41.25,2|2,0:0|0:0,0:0:0:0:
96,114,162899,6,0,P|161:52|239:62,1,165,4|0,0:0|0:0,0:0:0:0:
349,229,163524,1,0,3:0:0:0:
412,110,163733,2,0,B|330:92|337:160|245:139,1,165,8|2,0:0|0:0,0:0:0:0:
385,23,164358,6,0,P|425:25|471:44,1,82.5,2|4,3:0|0:0,0:0:0:0:
271,220,164774,2,0,P|256:181|254:140,1,82.5,8|0,0:0|0:0,0:0:0:0:
419,276,165191,1,0,3:0:0:0:
330,350,165399,2,0,L|163:322,1,165,8|2,0:0|3:0,0:0:0:0:
44,230,166024,1,0,3:0:0:0:
44,230,166128,1,0,3:0:0:0:
44,230,166233,6,0,P|54:271|53:321,1,82.5,4|0,0:0|0:0,0:0:0:0:
173,116,166649,2,0,P|134:132|84:140,1,82.5,2|0,0:0|3:0,0:0:0:0:
284,267,167066,2,0,P|274:191|323:120,1,165,8|2,0:0|0:0,0:0:0:0:
260,40,167691,1,2,0:3:0:0:
363,212,167899,5,0,3:0:0:0:
497,129,168107,2,0,B|479:166|479:166|488:217,1,82.5,8|2,0:0|0:0,0:0:0:0:
356,24,168524,2,0,B|393:42|393:42|444:33,1,82.5,2|8,3:2|0:0,0:0:0:0:
255,170,168941,1,0,0:0:0:0:
255,170,169149,2,0,B|273:133|273:133|264:82,1,82.5,2|0,0:3|3:0,0:0:0:0:
377,298,169566,6,0,P|315:283|228:345,1,165,4|2,0:0|0:0,0:0:0:0:
393,210,170191,1,0,3:0:0:0:
168,114,170399,2,0,L|254:135,1,82.5,8|0,0:0|0:0,0:0:0:0:
181,222,170816,5,2,0:0:0:0:
350,85,171024,1,2,0:0:0:0:
230,22,171232,1,0,3:0:0:0:
418,171,171441,6,0,P|454:100|429:10,1,165,8|8,0:0|3:0,0:0:0:0:
435,19,171962,1,2,0:0:0:0:
435,19,172066,1,0,3:0:0:0:
240,113,172274,5,8,3:0:0:0:
322,174,172482,2,0,P|330:138|345:88,1,66,4|2,3:0|0:0,0:0:0:0:
154,28,172899,6,0,P|149:56|126:175,1,148.49999546814,2|0,0:3|3:0,0:0:0:0:
0,306,173524,1,2,0:0:0:0:
41,182,173732,2,0,P|49:218|62:265,1,74.2499977340699,4|0,3:0|0:0,0:0:0:0:
228,167,174149,2,0,P|221:193|207:250,1,74.2499977340699,4|0,3:0|0:0,0:0:0:0:
339,367,174566,5,8,3:0:0:0:
205,246,174774,1,0,3:0:0:0:
293,284,174982,6,0,P|316:280|346:273,1,37.1249988670349,0|0,3:0|0:0,0:0:0:0:
398,304,175191,2,0,P|416:307|438:313,1,37.1249988670349,8|0,3:0|0:0,0:0:0:0:
506,282,175399,6,8,P|533:185|496:151,1,148.49999546814,4|8,3:0|0:0,0:0:0:0:
373,69,176024,1,0,0:0:0:0:
370,77,176128,1,0,0:0:0:0:
369,86,176232,5,0,3:0:0:0:
456,21,176441,1,4,3:0:0:0:
286,143,176649,1,0,3:0:0:0:
280,147,176753,6,0,P|262:118|271:74,1,74.2499977340699,2|0,0:0|0:0,0:0:0:0:
309,1,177066,6,0,P|303:41|289:159,1,148.49999546814,2|0,3:0|3:0,0:0:0:0:
118,31,177691,1,8,3:0:0:0:
164,104,177899,6,0,P|80:167|27:149,1,148.49999546814,2|0,0:0|3:0,0:0:0:0:
0,92,178524,5,0,0:0:0:0:
159,233,178732,1,2,0:0:0:0:
84,289,178941,5,4,3:0:0:0:
227,161,179149,2,0,P|232:190|238:218,1,37.1249988670349,8|0,3:0|0:0,0:0:0:0:
293,251,179357,2,0,L|280:304,1,37.1249988670349,0|0,3:0|0:0,0:0:0:0:
227,348,179566,5,2,0:0:0:0:
388,252,179774,1,0,3:0:0:0:
474,369,179982,6,0,P|496:330|485:291,1,74.2499977340699,2|0,0:0|0:0,0:0:0:0:
358,115,180399,2,0,P|365:151|388:275,1,148.49999546814,4|0,3:0|3:0,0:0:0:0:
237,348,181024,1,2,0:0:0:0:
317,354,181232,6,0,P|275:345|230:335,1,74.2499977340699,2|0,3:0|3:0,0:0:0:0:
113,179,181649,1,0,0:0:0:0:
229,253,181857,1,2,0:0:0:0:
154,365,182066,6,0,P|145:328|137:292,1,74.2499977340699,4|0,3:0|0:0,0:0:0:0:
223,105,182482,2,0,P|214:141|206:177,1,74.2499977340699,4|0,3:0|0:0,0:0:0:0:
9,26,182899,6,0,B|84:27|59:79|141:87,1,148.49999546814,2|2,3:0|0:0,0:0:0:0:
342,0,183524,1,0,3:0:0:0:
292,66,183732,6,0,P|300:102|308:138,1,74.2499977340699,10|0,0:0|0:0,0:0:0:0:
469,258,184149,2,0,P|495:223|463:146,1,111.374996601105,4|0,0:0|0:0,0:0:0:0:
368,50,184566,6,0,P|377:93|400:214,1,153.450004799996,6|8,0:0|0:0,0:0:0:0:
512,356,185191,6,0,P|438:368|383:319,1,153.450004799996,4|0,0:0|3:0,0:0:0:0:
223,361,185816,6,0,P|265:352|311:341,1,76.7250023999978,8|0,0:0|3:0,0:0:0:0:
426,178,186232,5,4,0:0:0:0:
294,242,186441,2,0,P|335:248|438:263,1,132,4|0,3:0|3:0,0:0:0:0:
509,60,187066,2,0,P|433:51|394:90,1,132,8|0,0:0|0:0,0:0:0:0:
429,161,187691,5,0,3:0:0:0:
264,80,187899,1,2,3:0:0:0:
322,18,188107,6,0,P|316:48|292:161,1,132,8|0,0:0|3:0,0:0:0:0:
138,270,188732,1,8,0:0:0:0:
212,187,188941,6,0,P|218:221|224:251,1,66,8|4,3:0|3:0,0:0:0:0:
298,308,189357,5,2,0:0:0:0:
124,185,189566,1,0,3:0:0:0:
171,114,189774,6,0,P|262:108|298:154,1,132,4|0,3:0|3:0,0:0:0:0:
395,28,190399,2,0,P|389:64|373:175,1,132,8|0,0:0|0:0,0:0:0:0:
305,205,191024,5,0,3:0:0:0:
468,310,191232,1,4,3:0:0:0:
399,273,191441,6,0,P|369:279|253:307,1,132,8|0,3:0|3:0,0:0:0:0:
147,363,192066,5,8,0:0:0:0:
201,258,192274,1,8,3:0:0:0:
17,124,192483,5,4,3:0:0:0:
104,283,192691,1,0,3:0:0:0:
103,286,192795,1,8,3:0:0:0:
101,289,192895,5,4,0:0:0:0:
36,233,193330,5,2,3:0:0:0:
159,384,193535,1,0,3:0:0:0:
237,340,193740,6,0,P|263:251|227:209,1,132,10|0,0:0|3:0,0:0:0:0:
68,137,194357,1,8,3:0:0:0:
160,104,194562,6,0,P|153:138|147:168,1,66,0|2,3:0|3:2,0:0:0:0:
338,229,194973,1,0,3:0:0:0:
259,166,195179,5,8,3:0:0:0:
343,325,195384,1,8,0:0:0:0:
416,270,195590,5,2,3:2:0:0:
267,363,195795,2,0,P|238:358|203:352,1,37.1249988670349,0|0,3:0|0:0,0:0:0:0:
161,321,196001,2,0,P|144:323|112:330,1,37.1249988670349,8|0,0:0|0:0,0:0:0:0:
28,378,196205,6,0,P|-8:315|30:250,1,148.49999546814,4|8,0:0|3:0,0:0:0:0:
171,324,196821,2,0,P|182:279|191:228,1,74.2499977340699,4|0,0:0|0:0,0:0:0:0:
187,244,197129,1,8,0:0:0:0:
184,235,197232,5,12,3:0:0:0:
274,315,197437,1,4,0:0:0:0:
426,213,197643,6,0,P|422:231|414:262,1,37.1249988670349,0|8,3:0|0:0,0:0:0:0:
463,309,197848,5,12,0:0:0:0:
333,216,198054,1,8,3:0:0:0:
469,128,198259,1,8,3:0:0:0:
456,133,198670,5,2,3:0:0:0:
349,206,198876,1,4,3:0:0:0:
427,262,199094,1,8,3:0:0:0:
364,320,199299,1,8,3:0:0:0:
434,371,199504,5,8,0:0:0:0:
243,283,199749,2,0,P|214:314|235:378,1,99,4|0,3:2|0:0,0:0:0:0:
230,369,200154,5,8,0:0:0:0:
30,296,200365,1,8,3:0:0:0:
40,293,200501,6,0,P|35:317|25:361,1,44,4|4,3:0|3:0,0:0:0:0:
130,243,200775,6,0,P|135:267|145:309,1,44,8|0,3:0|0:0,0:0:0:0:
51,189,201228,5,2,0:0:0:0:
127,359,202478,6,0,B|232:384|213:298|316:324,1,197.99999395752,2|0,0:0|0:0,0:0:0:0:
319,333,203728,1,2,0:0:0:0:
319,333,204561,6,0,P|366:338|422:355,1,98.9999969787599,2|0,0:0|0:0,0:0:0:0:
381,241,205186,2,0,P|367:193|361:144,1,98.9999969787599
277,225,205811,2,0,P|190:268|87:253,1,197.99999395752,2|0,0:0|0:0,0:0:0:0:
86,247,207061,1,2,0:0:0:0:
250,134,207686,5,0,0:0:0:0:
263,127,207894,2,0,L|370:146,1,98.9999969787599,2|0,0:0|0:0,0:0:0:0:
485,90,208728,2,0,P|480:63|476:21,1,49.4999984893799
392,131,209144,6,0,B|354:219|413:235|376:328,1,197.99999395752,2|0,0:0|0:0,0:0:0:0:
501,254,210394,2,0,P|459:225|407:229,1,98.9999969787599,2|0,0:0|0:0,0:0:0:0:
277,350,211228,1,2,0:0:0:0:
281,354,212061,6,0,B|247:344|227:332|227:332|191:380|105:392|81:285|146:239|196:268,1,288.75,2|0,0:3|0:0,0:0:0:0:
270,42,213728,6,0,L|284:127,1,74.2499977340699,8|0,1:3|0:0,0:0:0:0:
360,136,214457,1,2,0:0:0:0:
368,127,214561,6,0,B|275:109|290:179|194:157,1,181.500005538941,4|2,0:1|0:0,0:0:0:0:
334,217,215186,1,0,3:0:0:0:
125,91,215394,2,0,P|106:112|114:190,1,90.7500027694703,8|0,0:0|0:0,0:0:0:0:
349,352,215811,6,0,P|229:286|174:316,1,198,4|8,0:0|3:0,0:0:0:0:
112,358,216644,1,0,3:0:0:0:
270,203,216853,1,0,3:0:0:0:
196,303,217061,6,0,P|189:275|170:203,1,90.7500027694703,8|0,0:0|0:0,0:0:0:0:
412,102,217478,1,2,0:0:0:0:
270,203,217686,1,0,3:0:0:0:
332,37,217894,6,0,P|320:80|309:124,1,90.7500027694703,4|0,0:0|0:0,0:0:0:0:
237,0,218311,5,2,0:0:0:0:
345,232,218519,2,0,P|375:236|437:203,1,90.7500027694703,0|8,3:0|0:0,0:0:0:0:
295,139,218936,5,2,0:0:0:0:
474,309,219144,1,4,0:0:0:0:
512,223,219353,5,2,0:0:0:0:
372,346,219561,1,8,0:0:0:0:
376,358,219662,1,8,0:0:0:0:
380,370,219763,1,4,3:0:0:0:
263,270,219966,5,4,3:0:0:0:
259,283,220067,1,0,3:0:0:0:
255,296,220169,1,8,3:0:0:0:
340,188,220371,6,0,P|345:217|350:240,1,45.3750013847352,4|0,3:0|3:0,0:0:0:0:
157,370,220574,1,0,3:0:0:0:
149,359,220675,1,8,3:0:0:0:
148,345,220777,6,0,P|187:337|219:332,1,45.3750013847352,4|0,3:0|3:0,0:0:0:0:
66,240,220979,2,0,P|88:244|126:249,1,45.3750013847352,8|0,3:0|3:0,0:0:0:0:
10,338,221227,6,0,P|44:332|198:307,1,181.500005538941,4|2,0:0|0:0,0:0:0:0:
0,161,221853,1,0,3:0:0:0:
149,67,222061,6,0,P|137:110|126:154,1,90.7500027694703,8|0,0:0|0:0,0:0:0:0:
418,292,222478,6,0,P|298:358|243:328,1,198,4|8,0:0|3:0,0:0:0:0:
200,269,223311,1,2,3:2:0:0:
375,169,223519,1,0,3:0:0:0:
267,145,223728,6,0,P|278:188|289:232,1,90.7500027694703,12|0,0:0|0:0,0:0:0:0:
377,55,224144,1,2,0:0:0:0:
472,172,224353,6,0,P|467:150|462:123,2,30.2500009231568,8|0|8,3:0|3:0|3:0,0:0:0:0:
472,138,224561,6,0,P|457:208|430:324,1,181.500005538941,4|2,0:0|0:0,0:0:0:0:
244,199,225186,1,0,3:0:0:0:
287,277,225394,6,0,P|188:338|125:312,1,181.500005538941,8|0,0:0|0:0,0:0:0:0:
72,152,226019,1,2,3:2:0:0:
166,234,226228,1,2,3:0:0:0:
4,316,226436,5,8,0:0:0:0:
182,77,226644,1,12,0:0:0:0:
80,27,226853,5,0,3:0:0:0:
84,40,226957,1,8,0:0:0:0:
88,53,227060,1,8,3:0:0:0:
273,158,227262,6,0,P|279:127|284:96,1,45.3750013847352,2|8,0:0|3:0,0:0:0:0:
189,222,227465,2,0,P|183:191|178:160,1,45.3750013847352,2|0,0:0|3:0,0:0:0:0:
290,285,227668,2,0,P|296:257|303:220,1,45.3750013847352,2|8,0:0|3:0,0:0:0:0:
170,336,227894,6,0,P|234:317|330:386,1,181.500005538941,4|2,0:1|0:0,0:0:0:0:
466,265,228531,1,0,3:0:0:0:
244,99,228744,2,0,P|287:91|332:73,1,90.7500027694703,8|0,0:0|0:0,0:0:0:0:
501,161,229144,6,0,B|401:138|413:215|302:185,1,198,4|8,0:0|3:0,0:0:0:0:
165,44,229976,2,0,B|142:84|142:84|150:128,1,90.7500027694703,0|0,3:0|3:0,0:0:0:0:
267,282,230393,1,8,0:0:0:0:
409,138,230601,1,2,0:0:0:0:
200,210,230809,1,2,0:3:0:0:
378,384,231018,2,0,L|318:373,1,45.3750013847352,4|2,3:0|0:0,0:0:0:0:
166,316,231226,6,0,L|344:282,1,181.500005538941,4|2,0:0|0:0,0:0:0:0:
89,216,231851,1,0,3:0:0:0:
288,102,232059,2,0,P|309:140|310:189,1,90.7500027694703,8|0,0:0|0:0,0:0:0:0:
100,34,232476,2,0,L|201:49,1,90.7500027694703,2|0,0:3|3:0,0:0:0:0:
236,274,232892,5,4,3:0:0:0:
429,165,233101,2,0,P|442:122|444:63,1,90.7500027694703,8|0,0:0|0:0,0:0:0:0:
232,163,233517,1,2,0:0:0:0:
433,297,233726,2,0,B|330:303|377:366|252:366,1,181.500005538941,8|2,0:0|0:0,0:0:0:0:
77,247,234351,1,4,3:0:0:0:
77,247,234455,1,4,3:0:0:0:
77,247,234559,6,0,B|180:221|180:221|223:243|206:286,1,181.500005538941,4|0,0:0|0:0,0:0:0:0:
76,357,235184,1,0,3:0:0:0:
202,105,235392,2,0,L|184:194,1,90.7500027694703,8|0,0:0|0:0,0:0:0:0:
85,136,235809,5,2,0:0:0:0:
295,263,236017,2,0,P|250:270|206:282,1,90.7500027694703,0|0,0:0|3:0,0:0:0:0:
437,73,236434,2,0,P|392:65|348:53,1,90.7500027694703,8|4,0:0|3:0,0:0:0:0:
205,155,236851,5,2,3:2:0:0:
414,258,237059,1,8,0:0:0:0:
303,190,237267,6,0,L|316:141,2,30.2500009231568,8|0|0,3:0|3:0|3:0,0:0:0:0:
312,226,237476,2,0,L|339:131,1,90.7500027694703,2|0,0:0|3:0,0:0:0:0:
498,325,237892,6,0,P|422:376|335:357,1,181.500005538941,4|0,0:0|0:0,0:0:0:0:
208,243,238517,1,2,3:2:0:0:
34,318,238726,2,0,B|74:337|74:337|126:329,1,90.7500027694703,8|0,0:0|0:0,0:0:0:0:
375,152,239131,2,0,B|329:145|329:145|289:164,1,90.7500027694703,8|0,3:0|3:0,0:0:0:0:
208,243,239536,5,2,0:0:0:0:
91,72,239739,2,0,P|135:83|182:93,1,90.7500027694703,2|0,3:2|0:0,0:0:0:0:
342,233,240144,5,2,3:2:0:0:
119,329,240392,2,0,P|163:337|207:349,1,90.7500027694703,0|8,3:0|3:0,0:0:0:0:
289,163,240808,5,0,3:0:0:0:
342,341,241017,1,2,0:0:0:0:
401,43,241225,5,12,3:2:0:0:
437,164,241639,1,8,0:0:0:0:
401,43,242053,5,10,3:0:0:0:
327,282,242467,1,10,0:0:0:0:
401,43,242881,5,12,3:0:0:0:
165,341,243294,1,8,0:0:0:0:
401,43,243708,5,12,3:0:0:0:
45,310,244122,2,0,L|34:227,1,82.5,12|2,0:0|0:0,0:0:0:0:
256,192,246396,12,2,247914,0:0:0:0:
224,322,248330,5,2,0:0:0:0:
151,350,248747,1,2,0:0:0:0:
76,329,249164,2,0,P|48:256|60:171,1,165,2|0,0:0|0:0,0:0:0:0:
23,87,250414,6,0,L|79:79,1,41.25,2|0,0:0|0:0,0:0:0:0:
126,30,250830,2,0,L|184:36,1,41.25
232,101,251248,5,2,0:0:0:0:
293,148,251664,1,2,0:0:0:0:
229,192,252081,1,2,0:0:0:0:
279,249,252497,2,0,P|216:301|73:246,1,247.5,2|2,0:0|0:0,0:0:0:0:
74,248,254605,6,0,P|113:256|154:277,1,82.5,2|0,0:0|0:0,0:0:0:0:
216,349,255438,1,2,0:0:0:0:
304,304,255855,2,0,P|348:235|342:143,1,165,2|0,0:0|0:0,0:0:0:0:
275,85,257105,2,0,P|250:119|247:167,1,82.5,2|0,0:0|0:0,0:0:0:0:
322,226,257914,6,0,B|387:237|412:186|412:186|389:129|373:61,1,231,2|0,0:0|0:0,0:0:0:0:
450,50,259616,6,0,B|402:25|356:19|341:77|281:95|228:62,1,231,2|0,0:0|0:0,0:0:0:0:
147,19,261318,6,0,B|94:54|88:97|101:144|145:199|172:104|229:213|210:283|150:321|84:279|77:217|125:174,1,412.5,2|0,0:0|0:0,0:0:0:0:
254,315,264775,6,0,B|320:279|389:297|325:366|437:404|521:353|554:260|466:173|419:193|378:208|378:208|342:222|276:158|297:75|380:46|439:67|467:148|427:184,1,762.299997673645,2|0,0:0|0:0,0:0:0:0:
