osu file format v14

[General]
AudioFilename: audio.ogg
AudioLeadIn: 0
PreviewTime: 52145
Countdown: 0
SampleSet: Soft
StackLeniency: 0.5
Mode: 0
LetterboxInBreaks: 0
WidescreenStoryboard: 1

[Editor]
Bookmarks: 2280
DistanceSpacing: 1.5
BeatDivisor: 8
GridSize: 16
TimelineZoom: 2.299999

[Metadata]
Title:Sincerely
TitleUnicode:Sincerely
Artist:TRUE
ArtistUnicode:TRUE
Creator:Aurorance
Version:Meaning of Love
Source:ヴァイオレット・エヴァーガーデン
Tags:violet evergarden opening full size karasawa miho 唐沢美帆 kyoto animation 京都アニメーション kyoani 京アニ jpop j pop j-pop japanese themesong op version ver. Lonely Queen’s Liberation Party limited ltd. edition ed. violet-evergarden 堀江晶太・Evan Call
BeatmapID:3560542
BeatmapSetID:1721048

[Difficulty]
HPDrainRate:4
CircleSize:4.2
OverallDifficulty:7.5
ApproachRate:8.3
SliderMultiplier:2.5
SliderTickRate:1

[Events]
//Background and Video events
0,0,"violet.jpg",0,0
//Break Periods
2,202278,211430
//Storyboard Layer 0 (Background)
//Storyboard Layer 1 (Fail)
//Storyboard Layer 2 (Pass)
//Storyboard Layer 3 (Foreground)
//Storyboard Layer 4 (Overlay)
//Storyboard Sound Samples

[TimingPoints]
2030,1000,4,2,1,40,1,0
2280,833.333333333333,4,2,1,40,1,0
3113,740.740740740741,4,2,1,40,1,0
3483,926.640926640927,4,2,1,40,1,0
3946,833.333333333333,4,2,1,40,1,0
3946,-99.9999999999999,4,2,1,40,0,0
5612,833.333333333333,4,2,1,40,1,0
6862,845.070422535211,4,2,1,40,1,0
7284,845.070422535211,4,2,1,40,1,0
7284,-98.6111111111111,4,2,1,40,0,0
7917,769.230769230769,4,2,1,40,1,0
8493,952.380952380952,4,2,1,40,1,0
8969,800,4,2,1,40,1,0
8969,-104.166666666667,4,2,1,40,0,0
9769,821.917808219178,4,2,1,40,1,0
10179,895.522388059701,4,2,1,40,1,0
10626,833.333333333333,4,2,1,40,1,0
10626,-99.9999999999994,4,2,1,40,0,0
11251,689.655172413793,4,2,1,40,1,0
11768,1043.47826086957,4,2,1,40,1,0
12289,827.586206896552,4,2,1,40,1,0
12909,800,4,2,1,40,1,0
13509,902.255639097744,4,2,1,40,1,0
13960,826.161790017212,4,2,1,40,1,0
13960,-100.868055555556,4,2,1,40,0,0
15612,834.492350486787,4,2,1,40,1,0
15612,-99.8611111111125,4,2,1,40,0,0
16446,-99.861111111111,4,2,1,40,0,0
17280,-99.8611111111116,4,2,1,40,0,0
18115,800,4,2,1,40,1,0
18115,-104.349289772728,4,2,1,40,0,0
18715,909.090909090909,4,2,1,40,1,0
18942,836.820083682008,4,2,1,40,1,0
18942,-99.5833333333328,4,2,1,40,0,0
19778,-99.5833333333334,4,2,1,40,0,0
20615,-99.5833333333328,4,2,1,40,0,0
21034,-79.6666666666662,4,2,1,40,0,0
21452,819.112627986348,4,2,1,40,1,0
21452,-81.3888888888879,4,2,1,40,0,0
21861,-81.3888888888894,4,2,1,40,0,0
22271,816.326530612245,4,2,1,40,1,0
22271,-68.0555555555562,4,2,1,40,0,0
22883,909.090909090909,4,2,1,40,1,0
23110,827.586206896552,4,2,1,40,1,0
23110,-62.9340277777776,4,2,1,40,0,0
23937,816.326530612245,4,2,1,40,1,0
23937,-60.0490196078428,4,2,1,40,0,0
24345,833.333333333333,4,2,1,40,1,0
24761,810.810810810811,4,2,1,40,1,0
25166,839.160839160839,4,2,1,40,1,0
25585,854.092526690391,4,2,1,60,1,0
25585,-65.0462962962965,4,2,1,60,0,0
26439,831.024930747922,4,2,1,60,1,0
26439,-66.8518518518518,4,2,1,60,0,0
27062,-74.2798353909439,4,2,1,60,0,0
27165,-74.2798353909439,4,2,1,5,0,0
27270,857.142857142857,4,2,1,60,1,0
27270,-72.0164609053499,4,2,1,60,0,0
27377,-72.0164609053499,4,2,1,5,0,0
27484,-72.0164609053499,4,2,1,60,0,0
27591,-72.0164609053499,4,2,1,5,0,0
27698,-72.0164609053499,4,2,1,60,0,0
27805,-72.0164609053499,4,2,1,5,0,0
27912,-72.0164609053523,4,2,1,60,0,0
28019,-72.0164609053523,4,2,1,5,0,0
28127,819.672131147541,4,2,1,60,1,0
28536,-67.7777777777785,4,2,1,60,0,0
28946,839.160839160839,4,2,1,60,1,0
28946,-73.5596707818924,4,2,1,60,0,0
29050,-73.5596707818924,4,2,1,5,0,0
29155,-73.5596707818924,4,2,1,60,0,0
29259,-73.5596707818924,4,2,1,5,0,0
29365,-73.5596707818899,4,2,1,60,0,0
29469,-73.5596707818899,4,2,1,5,0,0
29575,-73.5596707818924,4,2,1,60,0,0
29679,-73.5596707818924,4,2,1,5,0,0
29785,830.449826989619,4,2,1,60,1,0
29785,-66.8981481481482,4,2,1,60,0,0
30615,846.859562455893,4,2,1,60,1,0
30615,-72.8909465020526,4,2,1,60,0,0
30720,-72.8909465020526,4,2,1,5,0,0
30826,-72.8909465020576,4,2,1,60,0,0
30931,-72.8909465020576,4,2,1,5,0,0
31038,-72.8909465020601,4,2,1,60,0,0
31143,-72.8909465020601,4,2,1,5,0,0
31250,-72.8909465020551,4,2,1,60,0,0
31355,-72.8909465020551,4,2,1,5,0,0
31461,825.877494838266,4,2,1,60,1,0
31873,-67.2685185185178,4,2,1,60,0,0
32286,836.236933797909,4,2,1,60,1,0
32286,-73.8168724279838,4,2,1,60,0,0
32390,-73.8168724279838,4,2,1,5,0,0
32495,-73.8168724279786,4,2,1,60,0,0
32599,-73.8168724279786,4,2,1,5,0,0
32704,-73.8168724279812,4,2,1,60,0,0
32808,-73.8168724279812,4,2,1,5,0,0
32913,-73.8168724279889,4,2,1,60,0,0
33017,-73.8168724279889,4,2,1,5,0,0
33122,821.917808219178,4,2,1,60,1,0
33738,-75.102880658438,4,2,1,60,0,0
33840,-75.102880658438,4,2,1,5,0,0
33943,845.070422535211,4,2,1,60,1,0
33943,-73.0452674897117,4,2,1,60,0,0
34048,-73.0452674897117,4,2,1,5,0,0
34154,-73.0452674897117,4,2,1,60,0,0
34259,-73.0452674897117,4,2,1,5,0,0
34365,867.052023121387,4,2,1,60,1,0
34365,-71.1934156378597,4,2,1,60,0,0
34473,-71.1934156378597,4,2,1,5,0,0
34581,-71.1934156378645,4,2,1,60,0,0
34689,-71.1934156378645,4,2,1,5,0,0
34798,808.080808080808,4,2,1,60,1,0
35202,-68.7499999999993,4,2,1,60,0,0
35606,839.160839160839,4,2,1,60,1,0
35606,-73.5596707818924,4,2,1,60,0,0
35710,-73.5596707818924,4,2,1,5,0,0
35815,-73.5596707818924,4,2,1,60,0,0
35919,-73.5596707818924,4,2,1,5,0,0
36025,-73.5596707818924,4,2,1,60,0,0
36129,-73.5596707818924,4,2,1,5,0,0
36235,-73.5596707818924,4,2,1,60,0,0
36339,-73.5596707818924,4,2,1,5,0,0
36445,833.333333333333,4,2,1,60,1,0
36445,-66.6666666666658,4,2,1,60,0,0
37486,-66.666666666667,4,2,1,60,0,0
38111,813.008130081301,4,2,1,60,1,0
38314,-68.3333333333321,4,2,1,60,0,0
38924,847.457627118644,4,2,1,60,1,0
38924,-65.5555555555567,4,2,1,60,0,0
39771,833.333333333333,4,2,1,60,1,0
39771,-66.6666666666669,4,2,1,60,0,0
40396,-74.0740740740759,4,2,1,60,0,0
40500,-74.0740740740759,4,2,1,5,0,0
40604,846.262341325811,4,2,1,60,1,0
40604,-72.9423868312826,4,2,1,60,0,0
40709,-72.9423868312826,4,2,1,5,0,0
40815,-72.9423868312776,4,2,1,60,0,0
40920,-72.9423868312776,4,2,1,5,0,0
41027,-72.9423868312726,4,2,1,60,0,0
41132,-72.9423868312726,4,2,1,5,0,0
41238,-72.9423868312826,4,2,1,60,0,0
41343,-72.9423868312826,4,2,1,5,0,0
41450,810.810810810811,4,2,1,60,1,0
41450,-68.5185185185186,4,2,1,60,0,0
42260,847.158489234027,4,2,1,60,1,0
42260,-57.863562091503,4,2,1,60,0,0
43107,829.30200414651,4,2,1,60,1,0
43107,-59.109477124184,4,2,1,60,0,0
44350,895.522388059701,4,2,1,60,1,0
44350,-54.7385620915042,4,2,1,60,0,0
44797,810.810810810811,4,2,1,60,1,0
45607,875.912408759124,4,2,1,60,1,0
45607,-133.333333333333,4,2,1,60,0,0
46263,759.493670886076,4,2,1,35,1,0
46832,895.522388059701,4,2,1,60,1,0
47279,789.473684210526,4,2,1,60,1,0
47279,-133.333333333333,4,2,1,60,0,0
47871,979.591836734694,4,2,1,60,1,0
48115,794.701986754967,4,2,1,70,1,0
48909,840.925017519271,4,2,1,70,1,0
48909,-58.2924836601308,4,2,1,70,0,0
49539,863.309352517986,4,2,1,70,1,0
49539,-64.3518518518526,4,2,1,70,0,0
49970,830.449826989619,4,2,1,70,1,0
50592,821.917808219178,4,2,1,70,1,0
51002,833.333333333333,4,2,1,70,1,0
51418,-66.6666666666664,4,2,1,70,0,0
51835,800,4,2,1,70,1,0
51835,-69.4444444444449,4,2,1,70,0,0
52235,854.700854700855,4,2,65,80,1,1
52235,-42.3913043478272,4,2,65,80,0,1
52662,-42.3913043478244,4,2,75,80,0,1
53089,821.917808219178,4,2,15,80,1,1
53089,-81.1111111111112,4,2,15,80,0,1
53499,-40.5555555555556,4,2,36,80,0,1
54321,902.255639097744,4,2,75,80,1,1
54546,-52.0917214546221,4,2,65,80,0,1
54772,821.917808219178,4,2,65,80,1,1
54977,-57.9365079365061,4,2,65,80,0,1
55388,-57.9365079365061,4,2,45,80,0,1
55593,839.160839160839,4,2,65,80,1,1
55593,-49.6527777777799,4,2,65,80,0,1
56012,-49.6527777777799,4,2,45,80,0,1
56222,-49.3964257421477,4,2,65,80,0,1
56432,810.810810810811,4,2,65,80,1,1
56634,-100,4,2,75,80,0,1
56837,857.142857142857,4,2,15,80,1,1
56837,-50,4,2,15,80,0,1
57694,827.586206896552,4,2,15,80,1,1
58107,-57.5396825396837,4,2,75,80,0,1
58728,-57.5396825396837,4,2,35,80,0,1
58935,862.068965517241,4,2,65,80,1,1
58935,-42.0289855072444,4,2,65,80,0,1
59366,-42.0289855072472,4,2,75,80,0,1
59510,-42.0289855072472,4,2,1,80,0,1
59797,810.810810810811,4,2,15,80,1,1
59797,-82.222222222221,4,2,15,80,0,1
60202,-41.111111111111,4,2,36,80,0,1
61013,845.070422535211,4,2,75,80,1,1
61224,-56.2667807210325,4,2,65,80,0,1
61435,837.404047452896,4,2,65,80,1,1
61644,-56.8650793650789,4,2,65,80,0,1
62063,-56.8650793650789,4,2,35,80,0,1
62272,842.105263157895,4,2,65,80,1,1
62272,-49.4791666666682,4,2,65,80,0,1
62693,-49.4791666666682,4,2,15,80,0,1
62903,-49.4791666666682,4,2,75,80,0,1
63114,826.161790017212,4,2,75,80,1,1
63527,-100,4,2,65,80,0,1
63733,-57.5901953755429,4,2,65,80,0,1
63940,821.917808219178,4,2,65,80,1,1
64145,-57.9365079365081,4,2,65,80,0,1
65378,-57.9365079365081,4,2,35,80,0,1
65583,848.056537102474,4,2,65,80,1,1
65583,-42.7234299516915,4,2,65,80,0,1
66007,-42.7234299516886,4,2,75,80,0,1
66431,833.333333333333,4,2,15,80,1,1
66847,-40,4,2,36,80,0,1
67681,-40,4,2,75,80,0,1
67889,-57.1428571428586,4,2,65,80,0,1
68931,851.063829787234,4,2,75,80,1,1
68931,-48.9583333333309,4,2,75,80,0,1
69356,-48.9583333333309,4,2,65,80,0,1
69569,-48.7514213649019,4,2,75,80,0,1
69782,829.588662288282,4,2,75,80,1,1
70196,-100,4,2,91,80,0,1
70404,-40.1805555555563,4,2,15,80,0,1
71026,845.070422535211,4,2,15,80,1,1
71237,-100,4,2,75,80,0,1
71448,836.236933797909,4,2,75,80,1,1
71448,-49.8263888888894,4,2,75,80,0,1
72075,-49.8263888888894,4,2,65,80,0,1
72284,831.024930747922,4,2,65,80,1,1
72284,-50.138888888889,4,2,65,80,0,1
72699,-50.138888888889,4,2,55,80,0,1
72907,-50.1388888888908,4,2,65,80,0,1
73530,-50.1388888888908,4,2,46,80,0,1
73738,-50.138888888889,4,2,36,80,0,1
74361,-50.138888888889,4,2,65,80,0,1
75400,-50.138888888889,4,2,35,80,0,1
75608,852.878464818763,4,2,75,80,1,1
75608,-42.48188405797,4,2,75,80,0,1
76034,-42.48188405797,4,2,15,80,0,1
76247,-42.48188405797,4,2,75,80,0,1
76460,821.917808219178,4,2,75,80,1,1
76460,-50.6944444444463,4,2,75,80,0,1
76870,-50.6944444444463,4,2,65,80,0,1
77076,-46.0858585858582,4,2,65,80,0,1
78103,851.063829787234,4,2,65,80,1,1
78528,-100,4,2,1,60,0,1
78954,833.333333333333,4,2,1,50,1,0
79579,855.920114122682,4,2,1,50,1,0
80220,784.313725490196,4,2,1,50,1,0
80612,833.333333333333,4,2,1,50,1,0
80612,-83.3333333333337,4,2,1,50,0,0
81862,846.262341325811,4,2,1,50,1,0
82285,841.514726507714,4,2,1,50,1,0
82916,810.810810810811,4,2,1,50,1,0
83118,827.586206896552,4,2,1,50,1,0
83324,-83.9120370370342,4,2,1,50,0,0
83945,859.598853868195,4,2,65,70,1,1
83945,-42.1497584541054,4,2,65,70,0,1
84374,-42.1497584541054,4,2,75,70,0,1
84804,832.755031228314,4,2,15,70,1,1
85220,-40.0277777777779,4,2,36,70,0,1
86053,-40.0277777777779,4,2,75,70,0,1
86261,-57.0014618286661,4,2,65,70,0,1
86469,819.672131147541,4,2,65,70,1,1
86673,-58.095238095241,4,2,65,70,0,1
87083,-58.095238095241,4,2,35,70,0,1
87288,833.333333333333,4,2,65,70,1,1
87288,-50.0000000000023,4,2,65,70,0,1
87704,-50.0000000000023,4,2,35,70,0,1
87913,-50.0000000000023,4,2,65,70,0,1
88329,-50.0000000000023,4,2,75,70,0,1
88538,-43.4782608695668,4,2,15,70,0,1
89788,816.326530612245,4,2,75,70,1,1
89788,-58.333333333334,4,2,75,70,0,1
90604,835.073068893528,4,2,65,70,1,1
90604,-43.3876811594203,4,2,65,70,0,1
91021,-43.3876811594203,4,2,75,70,0,1
91176,-43.3876811594203,4,2,1,70,0,1
91439,-79.833333333332,4,2,15,70,0,1
91856,-39.916666666666,4,2,36,70,0,1
92691,-39.916666666666,4,2,75,70,0,1
92900,-57.0238095238113,4,2,65,70,0,1
93735,-57.0238095238113,4,2,35,70,0,1
93944,833.333333333333,4,2,65,70,1,1
93944,-40.0000000000019,4,2,65,70,0,1
94301,-40.0000000000019,4,2,15,70,0,1
94569,-40.0000000000019,4,2,75,70,0,1
94777,-57.1428571428564,4,2,75,70,0,1
95135,-57.1428571428564,4,2,65,70,0,1
97277,836.820083682008,4,2,1,60,1,0
97277,-71.1309523809518,4,2,1,60,0,0
98950,827.586206896552,4,2,1,60,1,0
98950,-71.924603174603,4,2,1,60,0,0
99777,842.696629213483,4,2,1,60,1,0
99777,-82.4074074074038,4,2,1,60,0,0
100619,827.015851137147,4,2,1,60,1,0
100619,-71.9742063492056,4,2,1,60,0,0
101446,841.514726507714,4,2,1,60,1,0
101446,-82.5231481481455,4,2,1,60,0,0
102287,828.729281767956,4,2,1,60,1,0
102287,-71.8253968253953,4,2,1,60,0,0
103322,-71.825396825397,4,2,1,60,0,0
103944,839.160839160839,4,2,1,60,1,0
103944,-70.93253968254,4,2,1,60,0,0
104783,-82.7546296296273,4,2,1,60,0,0
105622,824.742268041237,4,2,1,60,1,0
105622,-72.1726190476184,4,2,1,60,0,0
106446,833.333333333333,4,2,1,60,1,0
106446,-83.3333333333296,4,2,1,60,0,0
107279,835.363731291333,4,2,1,60,1,0
107279,-71.25496031746,4,2,1,60,0,0
108114,-99.7569444444475,4,2,1,60,0,0
108949,830.449826989619,4,2,1,60,1,0
108949,-71.6765873015862,4,2,1,60,0,0
109779,-100.347222222215,4,2,1,60,0,0
109882,-100.347222222215,4,2,1,5,0,0
109987,-100.347222222257,4,2,1,60,0,0
110090,-100.347222222257,4,2,1,5,0,0
110402,-100.347222222257,4,2,1,60,0,0
110609,834.492350486787,4,2,1,60,1,0
110609,-99.8611111111116,4,2,1,60,0,0
111860,847.457627118644,4,2,1,60,1,0
111860,-98.3333333333309,4,2,1,60,0,0
112283,824.175824175824,4,2,1,60,1,0
112283,-72.2222222222219,4,2,1,60,0,0
113107,835.654596100279,4,2,1,60,1,0
113107,-83.1018518518492,4,2,1,60,0,0
113942,835.654596100279,4,2,1,60,1,0
113942,-71.2301587301596,4,2,1,60,0,0
114777,-71.2301587301612,4,2,1,60,0,0
115613,829.875518672199,4,2,1,60,1,0
115613,-71.72619047619,4,2,1,60,0,0
116442,-71.7261904761916,4,2,1,60,0,0
117272,836.236933797909,4,2,1,60,1,0
117272,-71.1805555555562,4,2,1,60,0,0
118108,-64.2921146953379,4,2,1,60,0,0
118944,833.333333333333,4,2,1,60,1,0
118944,-71.4285714285731,4,2,1,60,0,0
120610,833.333333333333,4,2,1,60,1,0
120610,-66.6666666666634,4,2,1,60,0,0
122068,-62.5000000000029,4,2,1,60,0,0
122172,-62.5000000000029,4,2,1,5,0,0
122276,-62.4999999999942,4,2,1,60,0,0
122380,-62.4999999999942,4,2,1,5,0,0
122485,-62.5000000000029,4,2,1,60,0,0
122589,-62.5000000000029,4,2,1,5,0,0
122693,-62.5000000000029,4,2,1,60,0,0
122797,-62.5000000000029,4,2,1,5,0,0
122901,-62.4999999999942,4,2,1,60,0,0
123005,-62.4999999999942,4,2,1,5,0,0
123110,-62.4999999999942,4,2,1,60,0,0
123526,-66.6666666666728,4,2,1,60,0,0
123943,869.565217391304,4,2,1,60,1,0
123943,-59.8958333333288,4,2,1,60,0,0
124051,-59.8958333333288,4,2,1,5,0,0
124160,-59.8958333333288,4,2,1,60,0,0
124268,-59.8958333333288,4,2,1,5,0,0
124377,810.810810810811,4,2,1,60,1,0
124377,-64.2361111111078,4,2,1,60,0,0
124478,-64.2361111111078,4,2,1,5,0,0
124579,-64.2361111111078,4,2,1,60,0,0
124680,-64.2361111111078,4,2,1,5,0,0
124782,827.586206896552,4,2,1,60,1,0
124782,-67.1296296296297,4,2,1,60,0,0
125609,833.333333333333,4,2,1,60,1,0
125609,-62.5000000000029,4,2,1,60,0,0
125713,-62.5000000000029,4,2,1,5,0,0
125817,-62.5000000000029,4,2,1,60,0,0
125921,-62.5000000000029,4,2,1,5,0,0
126025,-62.5000000000029,4,2,1,60,0,0
126129,-62.5000000000029,4,2,1,5,0,0
126234,-62.5000000000029,4,2,1,60,0,0
126338,-62.5000000000029,4,2,1,5,0,0
126442,-62.5000000000029,4,2,1,60,0,0
126859,-66.6666666666635,4,2,1,60,0,0
127275,837.988826815642,4,2,1,60,1,0
127275,-62.1527777777762,4,2,1,60,0,0
127379,-62.1527777777762,4,2,1,5,0,0
127484,-62.1527777777762,4,2,1,60,0,0
127588,-62.1527777777762,4,2,1,5,0,0
127693,-62.1527777777848,4,2,1,60,0,0
127797,-62.1527777777848,4,2,1,5,0,0
127903,-62.1527777777762,4,2,1,60,0,0
128007,-62.1527777777762,4,2,1,5,0,0
128112,827.586206896552,4,2,1,60,1,0
128732,-62.9340277777798,4,2,1,60,0,0
128835,-62.9340277777798,4,2,1,5,0,0
128939,845.070422535211,4,2,1,60,1,0
128939,-61.6319444444422,4,2,1,60,0,0
129044,-61.6319444444422,4,2,1,5,0,0
129150,-61.6319444444422,4,2,1,60,0,0
129255,-61.6319444444422,4,2,1,5,0,0
129361,-61.6319444444507,4,2,1,60,0,0
129466,-61.6319444444507,4,2,1,5,0,0
129572,-61.6319444444422,4,2,1,60,0,0
129677,-61.6319444444422,4,2,1,5,0,0
129784,824.742268041237,4,2,1,60,1,0
130196,-67.3611111111157,4,2,1,60,0,0
130608,842.105263157895,4,2,1,60,1,0
130608,-61.848958333331,4,2,1,60,0,0
130713,-61.848958333331,4,2,1,5,0,0
130818,-61.848958333331,4,2,1,60,0,0
130923,-61.848958333331,4,2,1,5,0,0
131029,-61.8489583333396,4,2,1,60,0,0
131134,-61.8489583333396,4,2,1,5,0,0
131239,-61.8489583333225,4,2,1,60,0,0
131344,-61.8489583333225,4,2,1,5,0,0
131450,833.333333333333,4,2,1,60,1,0
131866,-66.6666666666682,4,2,1,60,0,0
132700,839.160839160839,4,2,1,60,1,0
133119,816.326530612245,4,2,1,60,1,0
133935,851.66784953868,4,2,1,60,1,0
133935,-65.231481481485,4,2,1,60,0,0
134786,828.729281767956,4,2,1,60,1,0
134786,-67.0370370370378,4,2,1,60,0,0
135510,-67.0370370370378,4,2,1,5,0,0
135614,833.333333333333,4,2,1,60,1,0
135614,-62.4999999999942,4,2,1,60,0,0
135718,-62.4999999999942,4,2,1,5,0,0
135822,-62.4999999999942,4,2,1,60,0,0
135926,-62.4999999999942,4,2,1,5,0,0
136030,-62.4999999999942,4,2,1,60,0,0
136134,-62.4999999999942,4,2,1,5,0,0
136239,-62.4999999999942,4,2,1,60,0,0
136343,-62.4999999999942,4,2,1,5,0,0
136447,810.810810810811,4,2,1,60,1,0
136447,-76.1316872427874,4,2,1,60,0,0
136751,-76.1316872427908,4,2,1,60,0,0
137257,854.700854700855,4,2,1,60,1,0
137257,-65.0000000000023,4,2,1,60,0,0
138111,833.333333333333,4,2,1,60,1,0
138111,-74.0740740740739,4,2,1,60,0,0
139361,-74.0740740740759,4,2,1,60,0,0
139777,845.070422535211,4,2,1,60,1,0
140199,810.810810810811,4,2,1,60,1,0
140604,854.092526690391,4,2,1,60,1,0
140604,-133.333333333333,4,2,1,60,0,0
141244,821.917808219178,4,2,1,35,1,0
141860,824.742268041237,4,2,1,60,1,0
142272,834.492350486787,4,2,1,60,1,0
142272,-133.333333333333,4,2,1,60,0,0
143106,833.333333333333,4,2,1,70,1,0
143939,835.654596100279,4,2,1,70,1,0
143939,-58.660130718955,4,2,1,70,0,0
145610,829.30200414651,4,2,1,70,1,0
147268,833.912439193885,4,2,65,70,1,1
147268,-43.4480676328509,4,2,65,70,0,1
147684,-43.4480676328509,4,2,75,70,0,1
148101,-79.9444444444371,4,2,15,70,0,1
148518,837.404047452896,4,2,36,70,1,1
148518,-39.8055555555568,4,2,36,70,0,1
149355,-39.8055555555568,4,2,75,70,0,1
149564,-56.7219781669281,4,2,65,70,0,1
149774,831.024930747922,4,2,65,70,1,1
149981,-57.3015873015911,4,2,65,70,0,1
150397,-57.3015873015911,4,2,35,70,0,1
150605,839.160839160839,4,2,65,70,1,1
150605,-56.746031746028,4,2,65,70,0,1
151024,-56.746031746028,4,2,35,70,0,1
151234,-56.746031746028,4,2,65,70,0,1
151653,-56.746031746028,4,2,75,70,0,1
151863,-42.9330228179354,4,2,15,70,0,1
152283,810.810810810811,4,2,15,70,1,1
153093,845.070422535211,4,2,75,70,1,1
153093,-56.3492063492031,4,2,75,70,0,1
153938,857.142857142857,4,2,65,70,1,1
153938,-42.2705314009636,4,2,65,70,0,1
154366,-42.2705314009636,4,2,75,70,0,1
154509,-42.2705314009636,4,2,1,70,0,1
154795,833.333333333333,4,2,15,70,1,1
154795,-80.0000000000038,4,2,15,70,0,1
155211,-40,4,2,36,70,0,1
156045,-40,4,2,75,70,0,1
156253,-56.7442546088106,4,2,65,70,0,1
156461,816.326530612245,4,2,65,70,1,1
156665,-58.333333333334,4,2,65,70,0,1
157073,-58.333333333334,4,2,35,70,0,1
157277,836.820083682008,4,2,65,70,1,1
157277,-56.9047619047643,4,2,65,70,0,1
157695,-56.9047619047643,4,2,15,70,0,1
157904,-56.9047619047643,4,2,75,70,0,1
158532,-56.9047619047643,4,2,65,70,0,1
158741,-45.1242570233804,4,2,65,70,0,1
158950,829.30200414651,4,2,65,70,1,1
159157,-45.6755050505013,4,2,65,70,0,1
159779,832.177531206657,4,2,65,70,1,1
160611,825.309491059147,4,2,96,70,1,1
160611,-43.9009661835773,4,2,96,70,0,1
161023,-43.9009661835773,4,2,75,70,0,1
161436,-80.7777777777905,4,2,15,70,0,1
161848,-40.3888888888895,4,2,46,70,0,1
162674,833.333333333333,4,2,15,70,1,1
162882,-100,4,2,96,70,0,1
163090,-66.6666666666667,4,2,96,70,0,1
163715,909.090909090909,4,2,46,70,1,1
163942,848.056537102474,4,2,56,70,1,1
163942,-56.1507936507933,4,2,56,70,0,1
164366,-56.1507936507933,4,2,46,70,0,1
164578,-55.6587896301881,4,2,56,70,0,1
164790,827.015851137147,4,2,56,70,1,1
165203,-100,4,2,76,70,0,1
165410,-40.3055555555567,4,2,86,70,0,1
165823,-40.3055555555567,4,2,1,70,0,1
166030,-40.3055555555567,4,2,86,70,0,1
166237,-40.3055555555567,4,2,56,70,0,1
166444,833.333333333333,4,2,56,70,1,1
166444,-50.0000000000023,4,2,56,70,0,1
167069,-50.0000000000023,4,2,46,70,0,1
167277,839.454354669465,4,2,46,70,1,1
167277,-49.6354166666682,4,2,46,70,0,1
167634,-49.6354166666682,4,2,81,70,0,1
167906,-49.6354166666682,4,2,46,70,0,1
168116,-66.1805555555492,4,2,46,70,0,1
168536,-66.1805555555492,4,2,26,70,0,1
168746,-49.0540099325446,4,2,16,70,0,1
169165,-49.0540099325446,4,2,1,70,0,1
169367,825.003093761602,4,2,46,70,1,1
169779,-67.3398148148164,4,2,46,70,0,1
170398,-67.3398148148164,4,2,15,70,0,1
170605,848.656294200849,4,2,56,70,1,1
170605,-49.0972222222228,4,2,56,70,0,1
170968,-49.0972222222228,4,2,86,70,0,1
171241,-49.0972222222228,4,2,56,70,0,1
171453,830.449826989619,4,2,56,70,1,1
171453,-66.6666666666667,4,2,56,70,0,1
171868,-100,4,2,46,70,0,1
172283,800,4,2,46,70,1,1
172883,869.565217391304,4,2,46,70,1,1
173535,779.220779220779,4,2,46,70,1,1
173924,860.215053763441,4,2,46,70,1,0
173924,-64.5833333333375,4,2,46,70,0,0
174784,839.160839160839,4,2,46,70,1,0
174784,-66.2037037037067,4,2,46,70,0,0
175623,847.457627118644,4,2,46,70,1,0
175623,-65.5555555555501,4,2,46,70,0,0
176470,819.112627986348,4,2,46,70,1,0
176879,-67.8240740740664,4,2,46,70,0,0
177289,851.063829787234,4,2,46,70,1,0
178140,820.512820512821,4,2,46,70,1,0
178140,-67.7083333333406,4,2,46,70,0,0
179781,821.917808219178,4,2,46,70,1,0
179781,-67.5925925925947,4,2,46,70,0,0
180191,874.63556851312,4,2,46,70,1,0
180628,827.586206896552,4,2,46,70,1,0
180628,-67.1296296296321,4,2,46,70,0,0
181455,-67.1296296296275,4,2,46,70,0,0
181869,849.85835694051,4,2,46,70,1,0
182293,810.810810810811,4,2,46,70,1,0
182293,-68.51851851852,4,2,46,70,0,0
182698,869.565217391304,4,2,46,70,1,0
183132,829.875518672199,4,2,46,70,1,0
183132,-66.9444444444362,4,2,46,70,0,0
183961,837.696335078534,4,2,46,70,1,0
183961,-71.4285714285714,4,2,46,70,0,0
184798,750,4,2,46,70,1,0
184798,-74.0740740740741,4,2,46,70,0,0
185173,833.333333333333,4,2,46,70,1,0
185589,857.142857142857,4,2,1,70,1,0
185589,-48.6111111111102,4,2,1,70,0,0
186017,828.729281767956,4,2,1,70,1,0
186224,-57.4603174603183,4,2,1,70,0,0
186845,-67.0370370370285,4,2,1,70,0,0
187260,845.070422535211,4,2,1,70,1,0
187471,-65.7407407407456,4,2,1,70,0,0
188105,-65.7407407407412,4,2,1,70,0,0
188950,827.586206896552,4,2,1,70,1,0
189570,-67.1296296296275,4,2,1,70,0,0
190605,845.070422535211,4,2,1,70,1,0
190605,-65.7407407407412,4,2,1,70,0,0
191450,827.586206896552,4,2,1,70,1,0
191450,-67.1296296296321,4,2,1,70,0,0
192277,831.024930747922,4,2,1,70,1,0
193108,805.369127516779,4,2,1,70,1,0
193913,855.614973262032,4,2,1,50,1,0
193913,-55.654761904757,4,2,1,50,0,0
194768,821.917808219178,4,2,1,50,1,0
194768,-57.9365079365143,4,2,1,50,0,0
195589,842.696629213483,4,2,1,60,1,0
195589,-53.4534534534443,4,2,1,60,0,0
196010,-53.4534534534517,4,2,1,60,0,0
196431,833.333333333333,4,2,1,60,1,0
196431,-54.0540540540539,4,2,1,60,0,0
197264,842.105263157895,4,2,1,70,1,0
197895,797.34219269103,4,2,1,70,1,0
198493,829.588662288282,4,2,1,70,1,0
199322,816.326530612245,4,2,1,70,1,0
199322,-51.6332982086418,4,2,1,70,0,0
200138,836.236933797909,4,2,1,70,1,0
200138,-50.4039339655745,4,2,1,70,0,0
200556,983.606557377049,4,2,1,70,1,0
200801,821.917808219178,4,2,1,70,1,0
200801,-61.1817264899918,4,2,1,70,0,0
201211,1142.85714285714,4,2,1,70,1,0
201401,833.333333333333,4,2,1,70,1,0
201401,-105.610830470157,4,2,1,70,0,0
201817,923.076923076923,4,2,1,70,1,0
202278,800,4,2,1,70,1,0
203078,875.912408759124,4,2,1,70,1,0
203515,794.701986754967,4,2,1,70,1,0
204309,937.5,4,2,1,70,1,0
204777,834.492350486787,4,2,1,70,1,0
205611,836.820083682008,4,2,1,70,1,0
207284,810.810810810811,4,2,1,70,1,0
207689,857.142857142857,4,2,1,70,1,0
208117,839.160839160839,4,2,1,70,1,0
208956,833.333333333333,4,2,1,70,1,0
209789,769.230769230769,4,2,1,70,1,0
210173,827.586206896552,4,2,1,70,1,0
211000,860.832137733142,4,2,1,70,1,0
211430,824.742268041237,4,2,1,70,1,0
212254,851.063829787234,4,2,1,70,1,0
213105,769.230769230769,4,2,1,70,1,0
213489,882.352941176471,4,2,1,70,1,0
213930,841.219768664564,4,2,1,70,1,0
214771,833.333333333333,4,2,1,70,1,0
215604,851.063829787234,4,2,96,90,1,1
215604,-40.0000000000035,4,2,96,90,0,1
216029,-39.999999999998,4,2,97,90,0,1
216455,774.193548387097,4,2,91,90,1,1
216455,-58.8235294117609,4,2,91,90,0,1
216842,835.073068893528,4,2,81,90,1,1
216842,-39.9999999999994,4,2,81,90,0,1
217677,-39.9999999999994,4,2,97,90,0,1
217885,-45.4545454545422,4,2,96,90,0,1
218303,-45.4545454545486,4,2,96,90,0,1
218720,-45.4545454545486,4,2,94,90,0,1
218929,821.917808219178,4,2,96,90,1,1
218929,-45.4545454545483,4,2,96,90,0,1
219339,903.614457831325,4,2,94,90,1,1
219564,-39.1068742003176,4,2,96,90,0,1
219790,750,4,2,96,90,1,1
219977,-100,4,2,97,90,0,1
220165,909.090909090909,4,2,91,90,1,1
220165,-40.0000000000014,4,2,91,90,0,1
220619,810.810810810811,4,2,91,90,1,1
221429,816.326530612245,4,2,97,90,1,1
222041,-100,4,2,93,90,0,1
222245,851.063829787234,4,2,96,90,1,1
222245,-39.999999999998,4,2,96,90,0,1
222670,-40.000000000009,4,2,97,90,0,1
223096,810.810810810811,4,2,91,90,1,1
223096,-58.8235294117596,4,2,91,90,0,1
223501,-37.037037037037,4,2,81,90,0,1
224312,872.093023255814,4,2,97,90,1,1
224530,-43.5375588173884,4,2,96,90,0,1
224748,827.586206896552,4,2,96,90,1,1
224954,-45.4545454545485,4,2,96,90,0,1
225368,-45.4545454545485,4,2,93,90,0,1
225575,845.070422535211,4,2,96,90,1,1
225575,-45.4545454545492,4,2,96,90,0,1
225997,-45.4545454545492,4,2,91,90,0,1
226208,-45.4545454545492,4,2,97,90,0,1
226842,-45.4545454545492,4,2,96,90,0,1
227053,-44.9306334142343,4,2,96,90,0,1
227265,833.333333333333,4,2,96,90,1,1
228098,805.369127516779,4,2,96,90,1,1
228702,-100,4,2,93,90,0,1
228903,866.425992779783,4,2,96,90,1,1
228903,-40,4,2,96,90,0,1
229336,-40,4,2,97,90,0,1
229769,821.917808219178,4,2,91,90,1,1
229769,-58.8235294117584,4,2,91,90,0,1
230179,840.336134453781,4,2,81,90,1,1
230179,-37.0370370370375,4,2,81,90,0,1
231019,-37.0370370370375,4,2,97,90,0,1
231229,-45.1377487354833,4,2,96,90,0,1
231439,833.333333333333,4,2,96,90,1,1
231647,-45.4545454545518,4,2,96,90,0,1
232272,847.457627118644,4,2,97,90,1,1
232272,-45.4545454545479,4,2,97,90,0,1
232695,-45.4545454545479,4,2,96,90,0,1
232907,-45.4545454545479,4,2,97,90,0,1
233119,821.917808219178,4,2,97,90,1,1
233119,-45.4545454545483,4,2,97,90,0,1
233529,-45.4545454545483,4,2,25,90,0,1
233735,-45.4545454545483,4,2,91,90,0,1
233940,835.654596100279,4,2,91,90,1,1
233940,-45.4545454545492,4,2,91,90,0,1
234566,-45.4545454545492,4,2,97,90,0,1
234775,-42.5531914893607,4,2,97,90,0,1
235402,-42.5531914893607,4,2,96,90,0,1
235611,827.586206896552,4,2,96,90,1,1
235611,-40.0000000000014,4,2,96,90,0,1
236024,-40.0000000000014,4,2,65,90,0,1
236231,-40.0000000000014,4,2,96,90,0,1
236379,-40.0000000000014,4,2,1,90,0,1
236852,-40.0000000000014,4,2,82,90,0,1
237059,-39.9999999999985,4,2,81,90,0,1
237679,-39.9999999999985,4,2,96,90,0,1
238093,-43.4782608695621,4,2,96,90,0,1
238714,-43.4782608695621,4,2,93,90,0,1
238921,848.356309650053,4,2,97,90,1,1
238921,-43.4782608695644,4,2,97,90,0,1
239296,-43.4782608695644,4,2,91,90,0,1
239557,-43.4782608695644,4,2,97,90,0,1
239769,833.333333333333,4,2,97,90,1,1
239769,-54.0540540540539,4,2,97,90,0,1
240185,-54.0540540540539,4,2,96,90,0,1
240394,759.493670886076,4,2,96,90,1,1
240394,-45.4545454545449,4,2,96,90,0,1
240773,845.070422535211,4,2,96,90,1,1
240773,-45.4545454545492,4,2,96,90,0,1
241195,810.810810810811,4,2,96,90,1,1
241397,872.727272727273,4,2,96,90,1,1
241833,833.333333333333,4,2,97,90,1,1
242041,-100,4,2,96,90,0,1
242249,836.236933797909,4,2,96,70,1,1
242667,-71.4285714285795,4,2,65,70,0,1
242833,-71.4285714285795,4,2,96,70,0,1
243085,-66.6666666666685,4,2,96,70,0,1
243503,-62.5000000000028,4,2,82,70,0,1
243661,-62.5000000000028,4,2,81,70,0,1
243921,816.326530612245,4,2,81,80,1,1
243921,-58.8235294117696,4,2,81,80,0,1
244329,-55.5555555555524,4,2,96,80,0,1
244737,863.309352517986,4,2,96,80,1,1
244737,-52.631578947376,4,2,96,80,0,1
245168,-49.9999999999975,4,2,96,80,0,1
245329,-49.9999999999975,4,2,93,80,0,1
245600,789.473684210526,4,2,97,50,1,0
245994,882.352941176471,4,2,97,50,1,0
246214,819.112627986348,4,2,97,50,1,0
248057,869.565217391304,4,2,97,50,1,0
248709,1034.48275862069,4,2,97,50,1,0
248967,827.586206896552,4,2,1,30,1,0
248967,-100.000000000003,4,2,1,30,0,0
250208,839.160839160839,4,2,1,30,1,0
251466,845.070422535211,4,2,1,30,1,0
251466,-133.333333333343,4,2,1,30,0,0
252311,821.917808219178,4,2,1,30,1,0
252311,-99.9999999999966,4,2,1,30,0,0
253132,882.352941176471,4,2,1,30,1,0
253573,810.810810810811,4,2,1,30,1,0
253573,-100.000000000002,4,2,1,30,0,0
254789,863.309352517986,4,2,1,30,1,0
254789,-133.333333333341,4,2,1,30,0,0
255652,827.586206896552,4,2,1,30,1,0
255652,-99.9999999999963,4,2,1,30,0,0
256893,833.333333333333,4,2,1,30,1,0
256893,-80.000000000001,4,2,1,30,0,0
258143,-80.0000000000038,4,2,1,30,0,0
258976,845.070422535211,4,2,1,30,1,0
260560,-100,4,2,1,5,0,0
260666,869.565217391304,4,2,1,30,1,0
262296,-100,4,2,1,5,0,0
262405,856.745082640203,4,2,1,30,1,0
262405,-86.9565217391306,4,2,1,30,0,0
265403,-86.9565217391306,4,2,1,5,0,0
265831,857.142857142857,4,2,1,20,1,0
265831,-200.000000000001,4,2,1,20,0,0
270973,-200.000000000001,4,2,1,5,0,0

[Colours]
Combo1 : 175,104,253
Combo2 : 68,166,255
Combo3 : 51,153,26
Combo4 : 78,254,219

[HitObjects]
192,200,2280,6,0,P|158:194|130:199,2,62.5,2|2|2,2:2|2:2|2:2,2:2:0:0:
247,251,2905,1,2,2:2:0:0:
376,147,3946,6,0,L|385:83,2,62.5000000000001,2|2|2,2:2|2:2|2:2,2:2:0:0:
328,205,4571,1,2,2:2:0:0:
183,278,5612,5,2,2:2:0:0:
202,351,5820,1,2,2:2:0:0:
275,333,6028,1,2,2:2:0:0:
257,260,6237,1,2,2:2:0:0:
168,186,7284,6,0,L|96:175,2,63.3802816901409,2|2|2,2:2|2:2|2:2,2:2:0:0:
237,156,7917,1,2,2:2:0:0:
323,201,8969,6,0,P|359:194|399:205,2,59.9999999999998,2|2|2,2:2|2:2|2:2,2:2:0:0:
261,244,9569,1,2,2:2:0:0:
133,157,10626,6,0,L|141:83,2,62.5000000000004,2|2|2,2:2|2:2|2:2,2:2:0:0:
85,215,11251,1,2,2:2:0:0:
183,321,12289,5,2,2:2:0:0:
258,331,12495,1,2,2:2:0:0:
268,257,12702,1,2,2:2:0:0:
194,247,12909,1,2,2:2:0:0:
71,222,13960,6,0,L|62:150,1,61.9621342512906,2|2,2:2|2:2,2:2:0:0:
79,86,14373,2,0,P|122:73|184:89,1,92.9432013769359,2|0,2:2|2:2,2:2:0:0:
204,94,14786,2,0,B|275:138|309:64|385:99,1,185.886402753872,2|0,2:2|2:2,2:2:0:0:
466,130,15612,6,0,L|470:209,1,62.5869262865082,0|2,3:2|2:2,2:2:0:0:
399,257,16029,1,2,2:2:0:0:
362,181,16237,1,2,2:2:0:0:
384,98,16446,2,0,P|346:72|213:119,1,187.760778859527,0|2,3:2|2:2,2:2:0:0:
177,180,17280,6,0,L|180:257,1,62.5869262865087,0|2,3:2|2:2,2:2:0:0:
107,305,17698,1,2,2:2:0:0:
55,240,17906,1,2,2:2:0:0:
41,159,18115,2,0,P|58:84|158:45,1,179.684980994014,0|2,3:2|2:2,2:2:0:0:
222,87,18942,6,0,L|301:83,1,62.761506276151,0|2,3:2|2:2,2:2:0:0:
363,119,19360,1,2,2:2:0:0:
410,45,19569,1,2,2:2:0:0:
472,103,19778,2,0,P|499:170|432:254,1,188.284518828452,0|2,3:2|2:2,2:2:0:0:
363,295,20615,6,0,L|284:291,1,62.761506276151,0|2,3:2|2:2,2:2:0:0:
232,225,21034,2,0,P|193:218|157:232,1,78.4518828451887,2|0,2:2|2:2,2:2:0:0:
63,357,21452,2,0,P|87:326|93:288,1,76.7918088737211,2|2,3:2|2:2,2:2:0:0:
33,144,21861,2,0,P|46:180|77:204,1,76.7918088737196,0|2,3:2|2:2,2:2:0:0:
208,84,22271,6,0,B|257:115|313:96|292:85|347:63|394:100,1,183.673469387753,0|2,3:2|2:2,2:2:0:0:
460,158,22883,1,2,2:2:0:0:
403,236,23110,2,0,P|322:258|338:176,1,198.620689655173,0|2,3:2|2:2,2:2:0:0:
476,64,23730,1,2,2:2:0:0:
292,20,23937,6,0,B|240:21|240:21|192:49,1,104.081632653062,0|0,3:2|3:2,2:2:0:0:
76,121,24345,1,8,2:2:0:0:
268,170,24553,1,0,3:2:0:0:
266,156,24657,1,0,3:2:0:0:
265,141,24761,1,8,2:2:0:0:
89,20,24963,1,0,3:2:0:0:
63,222,25166,1,0,3:2:0:0:
265,141,25585,6,0,B|358:91|366:187|450:135,1,192.170818505337,4|0,3:2|2:2,2:2:0:0:
404,51,26225,1,0,3:2:0:0:
483,225,26439,2,0,P|434:315|352:308,1,186.980609418283,8|0,2:2|2:2,2:2:0:0:
146,249,27062,6,0,B|128:231|108:239,1,42.070637119115,2|0,0:2|2:2,2:2:0:0:
174,327,27270,2,0,B|149:340|151:361,1,43.3928571428571,2|0,3:2|2:2,2:2:0:0:
257,321,27484,2,0,B|261:347|282:352,1,43.3928571428571,2|0,2:2|2:2,2:2:0:0:
278,240,27698,2,0,B|304:244|315:225,1,43.3928571428571,2|0,0:2|2:2,2:2:0:0:
208,194,27912,2,0,B|220:171|206:154,1,43.3928571428556,2|0,2:2|2:2,2:2:0:0:
146,249,28127,5,8,2:2:0:0:
57,218,28331,1,0,2:2:0:0:
24,130,28536,2,0,P|40:77|81:61,1,92.2131147540974,0|0,2:2|2:2,2:2:0:0:
226,150,28946,38,0,B|245:169|264:162,1,42.4825174825178,2|0,3:2|2:2,2:2:0:0:
260,65,29155,2,0,B|279:46|272:27,1,42.4825174825178,2|0,2:2|2:2,2:2:0:0:
178,28,29365,2,0,B|158:7|139:13,1,42.4825174825193,2|0,2:2|2:2,2:2:0:0:
140,111,29575,2,0,B|118:127|124:148,1,42.4825174825178,2|0,2:2|2:2,2:2:0:0:
226,150,29785,6,0,P|256:238|353:271,1,186.851211072664,8|0,2:2|2:2,2:2:0:0:
327,175,30407,1,0,2:2:0:0:
82,205,30615,38,0,B|64:190|71:166,1,42.8722653493325,2|0,3:2|2:2,2:2:0:0:
34,86,30826,2,0,B|48:68|72:75,1,42.8722653493296,2|0,2:2|2:2,2:2:0:0:
153,38,31038,2,0,B|170:52|163:76,1,42.8722653493281,2|0,0:2|2:2,2:2:0:0:
200,157,31250,2,0,B|185:174|161:167,1,42.872265349331,2|0,2:2|2:2,2:2:0:0:
82,205,31461,5,8,2:2:0:0:
158,258,31667,1,0,2:2:0:0:
251,264,31873,2,0,P|298:265|358:249,1,92.9112181693059,0|0,2:2|2:2,2:2:0:0:
386,104,32286,38,0,B|390:78|372:67,1,42.334494773519,2|0,3:2|2:2,2:2:0:0:
300,132,32495,2,0,B|274:129|263:147,1,42.334494773522,2|0,2:2|2:2,2:2:0:0:
327,218,32704,2,0,B|324:245|342:255,1,42.3344947735205,2|0,2:2|2:2,2:2:0:0:
414,191,32913,2,0,B|441:195|452:177,1,42.3344947735161,2|0,2:2|2:2,2:2:0:0:
386,104,33122,5,8,2:2:0:0:
315,43,33327,1,0,2:2:0:0:
222,57,33532,1,0,2:2:0:0:
104,181,33738,38,0,B|90:160|69:164,1,41.6095890410949,2|0,0:2|2:2,2:2:0:0:
120,263,33943,2,0,B|96:270|93:292,1,42.7816901408452,2|0,3:2|2:2,2:2:0:0:
202,270,34154,2,0,B|202:296|221:305,1,42.7816901408452,2|0,2:2|2:2,2:2:0:0:
236,194,34365,2,0,B|262:203|275:186,1,43.8945086705205,2|0,2:2|2:2,2:2:0:0:
175,138,34581,2,0,B|192:117|183:98,1,43.8945086705175,2|0,2:2|2:2,2:2:0:0:
104,181,34798,5,8,2:2:0:0:
34,118,35000,1,0,2:2:0:0:
41,24,35202,2,0,P|87:11|137:16,1,90.9090909090918,0|0,2:2|2:2,2:2:0:0:
234,170,35606,38,0,B|230:196|209:201,1,42.4825174825178,2|0,3:2|2:2,2:2:0:0:
159,118,35815,2,0,B|132:114|128:93,1,42.4825174825178,2|0,2:2|2:2,2:2:0:0:
211,43,36025,2,0,B|215:16|236:12,1,42.4825174825178,2|0,2:2|2:2,2:2:0:0:
286,95,36235,2,0,B|313:99|317:120,1,42.4825174825178,2|0,2:2|2:2,2:2:0:0:
234,170,36445,6,0,B|221:280,1,93.7500000000012,8|0,2:2|2:2,2:2:0:0:
139,294,36861,1,0,2:2:0:0:
51,212,37070,2,0,B|94:202|94:202|142:210,1,93.7500000000012,0|8,2:2|2:2,2:2:0:0:
222,263,37486,6,0,B|270:271|270:271|313:261,2,93.7499999999995,0|0|0,3:2|2:2|3:2,2:2:0:0:
142,210,38111,1,8,2:2:0:0:
225,76,38314,2,0,B|234:178,1,91.463414634148,0|0,2:2|2:2,2:2:0:0:
222,263,38720,1,0,3:2:0:0:
216,286,38822,1,0,3:2:0:0:
207,307,38924,6,0,B|127:328|137:239|27:272,1,190.677966101692,4|0,3:2|2:2,2:2:0:0:
71,361,39559,1,0,2:2:0:0:
29,170,39771,2,0,P|81:96|171:99,1,187.499999999999,8|0,2:2|2:2,2:2:0:0:
345,150,40396,6,0,B|371:148|378:127,1,42.187499999999,2|0,0:2|2:2,2:2:0:0:
267,123,40604,2,0,B|274:97|257:84,1,42.8420310296151,2|0,3:2|2:2,2:2:0:0:
216,190,40815,2,0,B|194:176|176:188,1,42.8420310296181,2|0,2:2|2:2,2:2:0:0:
268,255,41027,2,0,B|247:271|253:292,1,42.842031029621,2|0,0:2|2:2,2:2:0:0:
348,234,41238,2,0,B|358:258|379:258,1,42.8420310296151,2|0,2:2|2:2,2:2:0:0:
345,150,41450,6,0,P|395:100|358:1,1,182.432432432432,8|0,2:2|2:2,2:2:0:0:
212,84,42058,5,0,2:2:0:0:
212,84,42159,1,0,2:2:0:0:
212,84,42260,2,0,B|222:203,1,108.012707377339,0|0,3:2|2:2,2:2:0:0:
253,321,42683,1,0,2:2:0:0:
344,229,42895,1,0,2:2:0:0:
129,281,43107,2,0,B|11:274,1,105.736005528678,8|0,2:2|2:2,2:2:0:0:
134,166,43521,1,0,2:2:0:0:
256,319,43728,6,0,B|310:336|310:336|358:327,1,105.736005528678,0|0,3:2|2:2,2:2:0:0:
462,244,44143,1,0,2:2:0:0:
336,214,44350,2,0,B|361:343,1,114.17910447761,0|0,3:2|2:2,2:2:0:0:
419,137,44797,1,8,2:2:0:0:
227,211,44999,1,0,2:2:0:0:
145,143,45202,5,0,2:2:0:0:
71,185,45405,1,0,2:2:0:0:
25,165,45607,2,0,P|36:94|101:71,1,140.625005364418,2|0,2:2|2:2,2:2:0:0:
263,209,47279,6,0,P|275:264|362:285,1,140.625005364418,2|0,2:2|2:2,2:2:0:0:
443,208,48115,6,0,L|449:177,1,31.25,0|0,3:2|3:2,3:2:0:0:
437,159,48313,1,8,2:2:0:0:
414,149,48413,1,8,2:2:0:0:
389,146,48512,1,8,2:2:0:0:
360,151,48611,1,8,2:2:0:0:
330,165,48711,1,8,2:2:0:0:
301,181,48810,1,8,2:2:0:0:
263,209,48909,6,0,P|191:243|110:221,1,160.82690960056,6|2,3:2|2:2,2:2:0:0:
98,212,49329,1,10,2:2:0:0:
186,3,49539,6,0,P|210:45|190:142,1,145.683453237408,6|2,3:2|2:2,2:2:0:0:
183,153,49970,1,2,3:2:0:0:
18,82,50177,5,8,2:2:0:0:
186,3,50385,1,0,3:2:0:0:
100,191,50592,5,10,2:2:0:0:
90,12,50797,1,0,3:2:0:0:
13,263,51002,5,8,2:2:0:0:
144,88,51210,1,2,3:2:0:0:
143,329,51418,6,0,L|214:334,2,62.5000000000002,2|0|0,3:2|3:2|3:2,2:2:0:0:
97,226,51835,2,0,L|34:221,2,59.9999999999996,0|0|0,3:2|3:2|3:2,2:2:0:0:
312,294,52235,6,0,P|382:297|440:245,1,147.435897435894,6|0,3:2|2:2,2:2:0:0:
376,64,52662,2,0,P|337:124|349:195,1,147.435897435903,2|0,2:2|3:2,2:2:0:0:
511,174,53089,2,0,P|484:147|446:143,1,77.0547945205479,10|0,2:2|2:2,2:2:0:0:
226,347,53499,2,0,P|180:137|389:69,1,462.328767123287,6|0,3:2|3:2,2:2:0:0:
497,216,54321,5,2,2:2:0:0:
293,265,54546,2,0,P|263:212|286:162,1,120.512593226799,2|8,3:2|2:2,2:2:0:0:
456,294,54977,2,0,P|408:327|352:318,1,107.876712328771,0|0,2:2|2:2,2:2:0:0:
285,162,55388,5,2,3:2:0:0:
67,227,55593,2,0,P|40:303|45:354,1,125.87412587412,6|0,3:2|2:2,2:2:0:0:
180,313,56012,1,2,2:2:0:0:
140,120,56222,2,0,P|73:100|12:111,1,127.130483503829,2|8,3:2|2:2,2:2:0:0:
67,227,56634,1,2,2:2:0:0:
253,176,56837,2,0,P|350:145|523:137,1,250,6|0,3:2|3:2,2:2:0:0:
386,34,57479,5,0,3:2:0:0:
253,176,57694,1,0,2:2:0:0:
400,222,57900,1,0,3:2:0:0:
267,52,58107,6,0,P|211:61|159:65,1,108.62068965517,10|0,2:2|3:2,2:2:0:0:
24,143,58521,1,0,2:2:0:0:
142,292,58728,1,2,3:2:0:0:
142,292,58935,6,0,P|116:228|145:155,1,148.706896551731,6|0,3:2|2:2,2:2:0:0:
337,154,59366,2,0,P|293:212|220:225,1,148.706896551721,2|0,2:2|3:2,2:2:0:0:
187,64,59797,2,0,P|222:81|239:115,1,76.0135135135146,10|0,2:2|2:2,2:2:0:0:
33,256,60202,2,0,P|234:331|334:141,1,456.081081081082,6|0,3:2|3:2,2:2:0:0:
205,42,61013,5,2,2:2:0:0:
129,217,61224,2,0,P|179:234|242:192,1,111.077973632405,2|8,3:2|2:2,2:2:0:0:
118,55,61644,2,0,P|81:92|80:152,1,109.909281228194,0|0,2:2|2:2,2:2:0:0:
233,204,62063,5,2,3:2:0:0:
371,28,62272,2,0,P|433:24|500:49,1,126.31578947368,6|0,3:2|2:2,2:2:0:0:
416,157,62693,1,2,2:2:0:0:
216,37,62903,2,0,P|146:39|93:75,1,126.915786227493,2|8,3:2|2:2,2:2:0:0:
186,159,63320,1,0,2:2:0:0:
306,128,63527,1,2,2:2:0:0:
328,249,63733,6,0,P|324:311|294:368,1,109.050862717062,2|0,3:2|2:2,2:2:0:0:
234,283,64145,2,0,P|178:310|113:313,1,107.876712328767,0|0,3:2|2:2,2:2:0:0:
47,271,64556,1,0,3:2:0:0:
113,145,64761,5,8,2:2:0:0:
234,283,64967,1,0,3:2:0:0:
47,271,65172,1,0,3:2:0:0:
247,168,65378,1,2,3:2:0:0:
247,168,65583,6,0,P|230:98|164:58,1,146.289752650174,6|0,3:2|2:2,2:2:0:0:
8,168,66007,2,0,P|75:187|141:155,1,146.289752650184,2|0,2:2|3:2,2:2:0:0:
76,11,66431,2,0,P|66:41|68:74,1,62.5,10|0,2:2|2:2,2:2:0:0:
334,171,66847,2,0,P|167:309|6:163,1,468.75,6|0,3:2|3:2,2:2:0:0:
147,12,67681,5,2,2:2:0:0:
221,187,67889,2,0,P|166:196|108:167,1,109.374999999997,2|8,3:2|2:2,2:2:0:0:
232,27,68306,2,0,P|269:64|270:124,1,109.374999999997,0|0,2:2|2:2,2:2:0:0:
117,175,68722,5,2,3:2:0:0:
350,238,68931,2,0,P|342:301|312:356,1,127.659574468091,6|0,3:2|2:2,2:2:0:0:
217,262,69356,1,2,2:2:0:0:
321,128,69569,2,0,P|382:130|440:166,1,128.80393288423,2|8,3:2|2:2,2:2:0:0:
350,238,69989,1,0,2:2:0:0:
204,132,70196,1,2,2:2:0:0:
145,356,70404,6,0,P|23:290|79:146,1,311.0957483581,2|8,3:2|2:2,2:2:0:0:
228,212,71026,1,0,3:2:0:0:
125,247,71237,1,2,3:2:0:0:
151,56,71448,2,0,B|280:29|270:117|394:92,1,250.87108013937,10|0,2:2|2:2,2:2:0:0:
488,20,72075,1,2,3:2:0:0:
498,246,72284,6,0,P|430:235|383:178,1,124.653739612188,6|0,3:2|2:2,2:2:0:0:
483,139,72699,1,2,2:2:0:0:
379,331,72907,2,0,B|269:348|276:233|145:261,1,249.307479224367,2|0,3:2|2:2,2:2:0:0:
45,350,73530,1,2,2:2:0:0:
150,259,73738,6,0,P|136:124|18:87,1,249.307479224376,2|8,3:2|2:2,2:2:0:0:
40,204,74361,1,2,2:2:0:0:
149,259,74569,1,2,3:2:0:0:
209,50,74777,6,0,P|147:56|98:93,1,124.653739612188,8|0,2:2|2:2,2:2:0:0:
149,259,75192,1,0,2:2:0:0:
184,142,75400,1,2,3:2:0:0:
248,340,75608,6,0,P|318:323|367:269,1,147.12153518124,6|0,3:2|2:2,2:2:0:0:
343,136,76034,1,2,2:2:0:0:
264,225,76247,1,2,3:2:0:0:
435,85,76460,6,0,P|383:38|309:38,1,123.287671232872,8|0,2:2|2:2,2:2:0:0:
181,83,76870,1,2,2:2:0:0:
264,225,77076,6,0,P|323:201|341:127,1,135.616438356166,2|0,3:2|2:2,2:2:0:0:
176,195,77487,2,0,P|174:261|221:310,1,135.616438356166,0|0,3:2|2:2,2:2:0:0:
263,104,77898,1,0,3:2:0:0:
60,72,78103,5,8,2:2:0:0:
72,167,78315,1,0,3:2:0:0:
103,242,78528,1,2,3:2:0:0:
148,292,78741,1,2,2:2:0:0:
185,308,78954,1,2,2:2:0:0:
146,149,80612,6,0,B|140:124|94:85|46:128|51:173|51:173|53:217|90:263|140:290,1,299.999999999999,2|2,2:2|2:2,2:2:0:0:
271,253,82285,6,0,P|198:246|139:289,1,125,2|2,2:2|2:2,2:2:0:0:
226,347,82916,5,2,3:2:0:0:
313,161,83118,1,8,2:2:0:0:
137,289,83324,2,0,B|104:261|104:261|92:151,1,148.965517241384,0|2,3:2|2:2,2:2:0:0:
348,29,83945,6,0,P|419:47|464:108,1,148.280802292267,6|0,3:2|2:2,2:2:0:0:
263,206,84374,2,0,P|243:135|273:66,1,148.280802292267,2|0,2:2|3:2,2:2:0:0:
414,179,84804,2,0,P|389:200|341:215,1,62.5,10|0,2:2|2:2,2:2:0:0:
160,102,85220,6,0,P|92:274|263:201,1,468.424705065925,6|0,3:2|3:2,2:2:0:0:
318,46,86053,5,2,2:2:0:0:
385,155,86261,2,0,P|399:207|384:259,1,109.64631234302,2|8,3:2|2:2,2:2:0:0:
262,308,86673,2,0,P|248:256|263:204,1,107.581967213109,0|0,2:2|2:2,2:2:0:0:
384,260,87083,5,2,3:2:0:0:
136,148,87288,2,0,P|135:110|166:23,1,124.999999999994,6|0,3:2|2:2,2:2:0:0:
259,111,87704,1,2,2:2:0:0:
40,218,87913,2,0,P|20:185|3:94,1,124.999999999994,2|8,3:2|2:2,2:2:0:0:
136,148,88329,1,2,2:2:0:0:
17,361,88538,2,0,B|110:378|241:354|271:270,1,287.499999999989,6|0,3:2|3:2,2:2:0:0:
301,106,89163,5,8,2:2:0:0:
398,296,89371,1,0,2:2:0:0:
414,128,89579,1,0,3:2:0:0:
270,272,89788,2,0,P|209:268|148:247,1,107.142857142856,10|0,2:2|3:2,2:2:0:0:
33,113,90196,1,0,3:2:0:0:
77,104,90298,1,0,3:2:0:0:
122,96,90400,1,0,3:2:0:0:
167,89,90502,1,0,3:2:0:0:
211,82,90604,6,0,P|273:120|297:192,1,144.050104384134,6|0,3:2|2:2,2:2:0:0:
77,223,91021,2,0,P|80:149|129:91,1,144.050104384134,2|0,2:2|3:2,2:2:0:0:
232,243,91439,2,0,P|199:259|151:260,1,78.2881002087695,10|0,2:2|2:2,2:2:0:0:
425,204,91856,2,0,P|386:26|297:185,1,469.728601252617,6|8,3:2|2:2,2:2:0:0:
382,282,92691,5,2,2:2:0:0:
252,339,92900,2,0,P|220:353|139:344,1,109.603340292272,2|8,3:2|2:2,2:2:0:0:
84,225,93317,2,0,P|136:209|189:220,1,109.603340292272,0|0,2:2|2:2,2:2:0:0:
35,330,93735,1,2,3:2:0:0:
41,92,93944,6,0,B|202:19|250:150|359:104,1,312.499999999985,6|2,3:2|2:2,2:2:0:0:
466,41,94569,1,2,3:2:0:0:
498,273,94777,2,0,P|395:295|350:187,1,218.750000000003,8|2,2:2|2:2,2:2:0:0:
385,34,95402,1,2,3:2:0:0:
435,209,95610,5,0,3:2:0:0:
274,95,95819,1,8,2:2:0:0:
319,249,96027,1,8,2:2:0:0:
438,109,96235,1,0,3:2:0:0:
439,93,96339,1,8,2:2:0:0:
440,77,96444,5,0,3:2:0:0:
302,15,96652,1,8,2:2:0:0:
244,177,96860,1,8,2:2:0:0:
341,120,97069,1,0,2:2:0:0:
404,304,97277,6,0,P|319:319|247:274,1,175.732217573223,2|2,3:2|2:2,2:2:0:0:
176,188,97904,1,2,3:2:0:0:
295,70,98113,2,0,P|349:135|341:225,1,175.732217573223,8|2,2:2|2:2,2:2:0:0:
246,273,98741,1,2,3:2:0:0:
44,196,98950,6,0,P|109:159|183:173,1,130.344827586207,0|0,3:2|3:2,2:2:0:0:
188,174,99363,1,2,3:2:0:0:
128,270,99570,1,2,3:2:0:0:
96,63,99777,2,0,P|193:58|253:83,1,151.685393258434,8|2,2:2|2:2,2:2:0:0:
345,122,100409,1,2,2:2:0:0:
253,200,100619,6,0,P|272:281|352:324,1,173.673328738803,2|2,3:2|2:2,2:2:0:0:
430,276,101239,1,2,3:2:0:0:
395,94,101446,2,0,P|348:151|350:225,1,151.472650771393,8|2,2:2|3:2,2:2:0:0:
439,181,102077,1,2,3:2:0:0:
282,77,102287,6,0,P|208:59|147:89,2,130.524861878456,0|0|2,3:2|3:2|3:2,2:2:0:0:
367,148,103115,1,8,2:2:0:0:
297,298,103322,2,0,P|229:245|221:160,1,174.03314917127,0|2,3:2|3:2,2:2:0:0:
128,19,103944,6,0,P|148:103|91:180,1,176.223776223775,2|2,3:2|2:2,2:2:0:0:
46,83,104573,1,0,3:2:0:0:
240,49,104783,2,0,B|312:35|319:103|381:91,1,151.048951048955,10|2,2:2|2:2,2:2:0:0:
429,177,105412,1,0,3:2:0:0:
309,247,105622,6,0,P|261:204|253:141,2,129.896907216496,0|0|2,3:2|3:2|3:2,3:2:0:0:
464,100,106446,2,0,P|391:104|346:160,1,150.000000000007,8|0,2:2|2:2,2:2:0:0:
400,294,107071,5,2,3:2:0:0:
265,205,107279,2,0,P|194:201|133:238,2,131.569787678386,2|0|2,3:2|3:2|3:2,3:2:0:0:
289,345,108114,2,0,P|242:327|217:269,2,93.9784197702721,8|8|0,2:2|2:2|3:2,3:2:0:0:
388,172,108949,6,0,B|328:158|318:214|258:203,2,130.795847750867,0|0|0,3:2|3:2|3:2,3:2:0:0:
454,263,109779,6,0,L|460:311,1,31.141868512113,8|0,2:2|2:2,2:2:0:0:
476,293,109987,2,0,L|472:261,1,31.1418685120999,8|0,2:2|2:2,2:2:0:0:
410,83,110402,5,10,2:2:0:0:
410,83,110506,1,8,2:2:0:0:
410,83,110609,6,0,B|343:77|293:133|293:133|249:184|175:172,1,250.347705146035,2|0,3:2|3:2,2:2:0:0:
164,81,111652,1,2,2:2:0:0:
164,81,111756,1,2,2:2:0:0:
164,81,111860,2,2,L|206:81,2,31.7796610169499,2|2|2,2:2|2:2|2:2,2:2:0:0:
50,174,112283,6,0,P|66:258|136:307,1,173.076923076924,0|2,3:2|2:2,2:2:0:0:
230,272,112901,1,2,3:2:0:0:
211,92,113107,2,0,P|157:141|151:214,1,150.417827298055,8|0,2:2|2:2,2:2:0:0:
243,185,113733,1,2,3:2:0:0:
139,26,113942,6,0,P|66:30|5:70,2,131.615598885792,2|0|2,3:2|3:2|3:2,3:2:0:0:
202,190,114777,2,0,P|149:179|122:150,1,87.7437325905262,8|0,2:2|2:2,2:2:0:0:
112,140,115091,1,8,2:2:0:0:
101,122,115195,1,2,3:2:0:0:
202,80,115404,1,2,3:2:0:0:
277,254,115613,6,0,P|210:291|137:269,2,130.705394190872,0|0|2,3:2|3:2|3:2,3:2:0:0:
341,183,116442,2,0,P|408:146|481:168,2,130.705394190869,8|8|2,2:2|2:2|3:2,2:2:0:0:
277,254,117272,6,0,P|205:212|120:235,1,175.609756097559,2|0,3:2|2:2,2:2:0:0:
190,306,117899,1,2,3:2:0:0:
120,133,118108,6,0,P|47:174|29:280,1,194.425087108022,8|0,2:2|2:2,2:2:0:0:
120,234,118735,1,2,3:2:0:0:
222,89,118944,6,0,P|179:42|105:27,2,131.249999999997,0|8|2,3:2|2:2|3:2,2:2:0:0:
161,215,119777,1,2,3:2:0:0:
54,140,119985,1,2,3:2:0:0:
56,348,120194,1,0,3:2:0:0:
29,247,120402,1,0,3:2:0:0:
42,246,120506,1,0,3:2:0:0:
56,244,120610,22,0,B|124:235|165:298|238:260,1,187.500000000009,4|0,3:2|2:2,2:2:0:0:
189,178,121235,1,0,3:2:0:0:
289,342,121443,2,0,P|377:336|412:254,1,187.500000000009,8|0,2:2|2:2,2:2:0:0:
246,114,122068,38,0,B|216:104|211:94|227:84,1,49.9999999999977,2|0,0:2|2:2,2:2:0:0:
318,78,122276,2,0,B|317:47|325:39|340:50,1,50.0000000000046,2|0,3:2|2:2,2:2:0:0:
374,135,122485,2,0,B|403:124|413:129|407:147,1,49.9999999999977,2|0,2:2|2:2,2:2:0:0:
337,205,122693,2,0,B|356:229|354:240|335:240,1,49.9999999999977,2|0,2:2|0:2,2:2:0:0:
258,193,122901,2,0,B|239:216|228:219|223:201,1,50.0000000000046,2|0,2:2|2:2,2:2:0:0:
246,114,123110,5,8,2:2:0:0:
152,110,123318,1,0,2:2:0:0:
75,164,123526,2,0,P|66:218|86:258,1,93.7499999999914,0|0,2:2|2:2,2:2:0:0:
260,235,123943,38,0,B|276:217|291:217|295:248,1,52.1739130434822,2|0,3:2|2:2,2:2:0:0:
265,325,124160,2,0,B|282:341|282:356|251:360,1,52.1739130434822,2|0,2:2|2:2,2:2:0:0:
174,328,124377,2,0,B|157:345|142:345|138:314,1,48.6486486486512,2|0,2:2|2:2,2:2:0:0:
169,237,124579,2,0,B|151:220|151:205|182:201,1,48.6486486486512,2|0,2:2|2:2,2:2:0:0:
260,235,124782,22,0,P|354:224|394:149,1,186.206896551724,8|0,2:2|2:2,2:2:0:0:
328,80,125402,1,0,2:2:0:0:
118,40,125609,22,0,B|124:15|139:17|153:37,1,49.9999999999977,2|0,3:2|2:2,2:2:0:0:
136,159,125817,2,0,B|111:152|113:137|133:123,1,49.9999999999977,2|0,2:2|2:2,2:2:0:0:
260,136,126025,2,0,B|253:160|238:158|224:138,1,49.9999999999977,2|0,2:2|2:2,2:2:0:0:
237,14,126234,2,0,B|261:20|259:35|239:49,1,49.9999999999977,2|0,2:2|2:2,2:2:0:0:
118,40,126442,37,8,2:2:0:0:
38,90,126650,1,2,2:2:0:0:
33,108,126754,1,2,2:2:0:0:
30,126,126859,2,0,P|38:187|58:223,1,93.7500000000045,2|0,2:2|2:2,2:2:0:0:
229,307,127275,6,0,B|244:325|243:340|212:341,1,50.2793296089398,2|0,3:2|2:2,2:2:0:0:
138,304,127484,2,0,B|119:319|104:318|103:287,1,50.2793296089398,2|0,2:2|2:2,2:2:0:0:
143,213,127693,2,0,B|127:194|128:179|159:178,1,50.2793296089329,2|0,2:2|2:2,2:2:0:0:
234,216,127903,2,0,B|252:200|267:201|268:232,1,50.2793296089398,2|0,2:2|2:2,2:2:0:0:
229,307,128112,5,8,2:2:0:0:
306,340,128318,1,0,2:2:0:0:
383,306,128525,1,0,2:2:0:0:
311,105,128732,38,0,B|294:78|295:68|315:69,1,49.6551724137915,2|0,0:2|2:2,2:2:0:0:
389,122,128939,2,0,B|407:97|419:95|423:114,1,50.7042253521145,2|0,3:2|2:2,2:2:0:0:
396,201,129150,2,0,B|425:210|430:221|414:230,1,50.7042253521145,2|0,2:2|2:2,2:2:0:0:
323,232,129361,2,0,B|323:262|314:271|300:258,1,50.7042253521075,2|0,2:2|2:2,2:2:0:0:
270,173,129572,2,0,B|240:180|230:175|238:157,1,50.7042253521145,2|0,2:2|2:2,2:2:0:0:
311,105,129784,21,8,2:2:0:0:
257,33,129990,1,2,2:2:0:0:
239,34,130093,1,2,2:2:0:0:
220,38,130196,2,0,P|176:52|143:92,1,92.7835051546328,2|0,2:2|2:2,2:2:0:0:
138,275,130608,22,0,B|147:297|161:303|176:276,1,50.5263157894756,2|0,3:2|2:2,2:2:0:0:
178,194,130818,2,0,B|200:185|205:171|178:155,1,50.5263157894756,2|0,2:2|2:2,2:2:0:0:
95,155,131029,2,0,B|86:133|71:126|57:154,1,50.5263157894686,2|0,2:2|2:2,2:2:0:0:
56,237,131239,2,0,B|33:246|27:260|54:275,1,50.5263157894825,2|0,2:2|2:2,2:2:0:0:
138,275,131450,37,8,2:2:0:0:
227,300,131658,1,0,2:2:0:0:
317,275,131866,2,0,P|369:268|418:284,2,93.7499999999978,0|0|0,2:2|2:2|3:2,2:2:0:0:
227,300,132491,5,2,2:2:0:0:
143,261,132700,1,10,2:2:0:0:
134,168,132909,1,2,2:2:0:0:
209,114,133119,1,2,2:2:0:0:
294,153,133323,1,2,2:2:0:0:
302,246,133527,1,2,2:2:0:0:
227,300,133731,1,2,3:2:0:0:
207,307,133833,1,0,3:2:0:0:
184,315,133935,6,0,B|113:336|110:239|8:267,1,191.625266146193,4|0,3:2|2:2,2:2:0:0:
41,357,134573,1,0,2:2:0:0:
21,166,134786,2,0,P|71:81|162:84,1,186.464088397788,8|0,2:2|2:2,2:2:0:0:
343,174,135407,38,0,B|365:195|376:195|377:176,1,46.616022099447,2|0,2:2|2:2,2:2:0:0:
337,93,135614,2,0,B|363:78|367:67|349:60,1,50.0000000000046,2|0,3:2|2:2,2:2:0:0:
259,73,135822,2,0,B|253:42|244:35|232:50,1,50.0000000000046,2|0,2:2|2:2,2:2:0:0:
215,143,136030,2,0,B|184:138|175:145|185:161,1,50.0000000000046,2|0,2:2|2:2,2:2:0:0:
267,205,136239,2,0,B|253:232|256:243|275:238,1,50.0000000000046,2|0,2:2|2:2,2:2:0:0:
343,174,136447,38,0,P|377:207|420:212,1,82.0945945946064,8|0,2:2|2:2,2:2:0:0:
446,207,136751,2,0,L|428:72,1,123.141891891904,8|0,2:2|2:2,2:2:0:0:
319,11,137257,22,0,B|248:17|248:17|204:40|204:40|124:44,1,192.307692307686,0|0,3:2|2:2,2:2:0:0:
33,6,137898,1,0,2:2:0:0:
0,156,138111,2,0,B|39:180|39:180|123:156,1,126.5625,8|0,2:2|2:2,2:2:0:0:
144,148,138527,1,0,2:2:0:0:
239,355,138736,6,0,B|193:319|193:319|215:207,1,168.75,0|0,3:2|2:2,2:2:0:0:
374,275,139361,2,0,L|277:284,1,84.3749999999979,0|0,3:2|2:2,3:2:0:0:
128,227,139777,1,8,2:2:0:0:
294,182,139988,1,0,3:2:0:0:
164,130,140199,5,0,3:2:0:0:
228,273,140401,1,0,3:2:0:0:
250,275,140503,1,0,3:2:0:0:
276,278,140604,2,0,P|327:265|420:249,1,140.625005364418,2|0,2:2|2:2,2:2:0:0:
278,366,142272,6,0,P|227:353|139:339,1,140.625,2|0,2:2|2:2,2:2:0:0:
92,218,143106,6,8,L|87:187,1,31.25,0|0,2:2|2:2,2:2:0:0:
101,170,143314,1,0,3:2:0:0:
124,160,143418,1,0,3:2:0:0:
149,157,143522,1,0,3:2:0:0:
178,162,143626,1,0,3:2:0:0:
208,176,143731,1,0,3:2:0:0:
237,192,143835,1,0,3:2:0:0:
274,221,143939,6,0,P|346:255|425:235,1,159.818941504176,6|2,3:2|2:2,2:2:0:0:
437,224,144356,1,10,2:2:0:0:
352,17,144565,6,0,P|307:84|354:156,1,159.818941504176,6|2,3:2|2:2,2:2:0:0:
356,162,144983,1,2,3:2:0:0:
503,101,145192,5,8,2:2:0:0:
352,18,145401,1,0,3:2:0:0:
253,171,145610,5,10,2:2:0:0:
411,87,145817,1,0,3:2:0:0:
471,315,146024,5,8,2:2:0:0:
341,144,146231,1,2,3:2:0:0:
306,358,146439,5,2,3:2:0:0:
436,175,146646,1,0,3:2:0:0:
434,128,146750,1,0,3:2:0:0:
411,87,146853,1,0,3:2:0:0:
369,64,146957,1,0,3:2:0:0:
321,63,147061,1,0,3:2:0:0:
278,82,147164,1,0,3:2:0:0:
251,120,147268,6,0,P|235:199|266:251,1,143.849895760943,6|0,3:2|2:2,2:2:0:0:
471,315,147684,2,0,P|410:261|350:262,1,143.849895760943,2|0,2:2|3:2,2:2:0:0:
241,375,148101,2,0,P|279:362|299:328,1,78.1792911744339,10|0,2:2|2:2,2:2:0:0:
251,120,148518,2,0,B|257:82|300:59|338:59|377:89|396:151|380:201|344:266|192:269|131:163,1,471.039776692239,6|0,3:2|3:2,2:2:0:0:
51,44,149355,5,2,2:2:0:0:
134,168,149564,2,0,P|187:178|240:164,1,110.712892469903,2|8,3:2|2:2,2:2:0:0:
294,46,149981,2,0,P|241:35|189:49,1,109.072022160658,0|0,2:2|2:2,2:2:0:0:
24,154,150397,5,2,3:2:0:0:
231,240,150605,2,0,P|246:187|242:132,1,110.139860139867,6|0,3:2|2:2,2:2:0:0:
104,254,151024,1,2,2:2:0:0:
291,353,151234,2,0,P|330:317|351:262,1,110.139860139867,2|8,3:2|2:2,2:2:0:0:
231,240,151653,1,2,2:2:0:0:
477,250,151863,2,0,P|427:118|292:83,1,291.845093002152,6|0,3:2|3:2,2:2:0:0:
153,127,152485,5,0,3:2:0:0:
326,175,152688,1,0,2:2:0:0:
200,42,152891,1,0,3:2:0:0:
165,228,153093,2,0,P|110:223|68:189,1,110.915492957753,10|0,2:2|3:2,2:2:0:0:
235,163,153515,1,0,2:2:0:0:
165,326,153726,1,0,3:2:0:0:
79,84,153938,6,0,P|155:54|212:76,1,147.857142857152,6|0,3:2|2:2,2:2:0:0:
309,275,154366,2,0,P|243:222|234:162,1,147.857142857152,2|0,2:2|3:2,2:2:0:0:
332,36,154795,2,0,P|326:75|296:101,1,78.1249999999963,10|0,2:2|2:2,2:2:0:0:
96,213,155211,2,0,B|65:207|19:234|-7:288|2:351|56:399|152:407|170:369|204:302|160:300|239:246|319:278,1,468.75,6|0,3:2|3:2,2:2:0:0:
408,342,156045,5,2,2:2:0:0:
308,274,156253,2,0,P|297:219|311:166,1,110.143308652824,2|8,3:2|2:2,2:2:0:0:
425,112,156665,2,0,P|436:165|422:217,1,107.142857142856,0|0,2:2|2:2,2:2:0:0:
323,41,157073,5,2,3:2:0:0:
173,176,157277,2,0,P|183:230|211:276,1,109.832635983259,6|0,3:2|2:2,2:2:0:0:
197,53,157695,1,2,2:2:0:0:
63,82,157904,2,0,P|48:138|52:190,1,109.832635983259,2|8,3:2|2:2,2:2:0:0:
128,312,158323,1,0,2:2:0:0:
246,210,158532,1,2,2:2:0:0:
63,82,158741,6,0,P|118:44|189:49,1,138.506438342951,2|0,3:2|2:2,2:2:0:0:
81,246,159157,2,0,P|95:179|146:135,1,136.834830684185,0|0,3:2|2:2,2:2:0:0:
273,223,159571,1,0,3:2:0:0:
142,333,159779,5,8,2:2:0:0:
235,146,159987,1,0,3:2:0:0:
332,351,160195,1,0,3:2:0:0:
361,340,160299,1,0,3:2:0:0:
386,322,160403,1,0,3:2:0:0:
406,298,160507,1,0,3:2:0:0:
418,272,160611,6,0,P|412:192|357:138,1,142.365887207695,6|0,3:2|2:2,2:2:0:0:
427,44,161023,2,0,P|358:27|293:55,1,142.365887207695,2|0,2:2|3:2,2:2:0:0:
174,41,161436,2,0,P|167:79|182:114,1,77.3727647867829,10|0,2:2|2:2,2:2:0:0:
418,272,161848,2,0,B|346:334|232:356|170:330|143:283|162:212|233:173|284:216|302:265|283:320,1,464.236588720763,6|0,3:2|3:2,2:2:0:0:
104,354,162674,5,2,2:2:0:0:
127,159,162882,1,2,3:2:0:0:
340,181,163090,2,0,P|280:250|190:264,1,187.5,8|0,2:2|2:2,2:2:0:0:
0,191,163715,5,2,3:2:0:0:
190,38,163942,2,0,P|213:87|214:143,1,111.3074204947,6|0,3:2|2:2,2:2:0:0:
99,118,164366,1,2,2:2:0:0:
325,193,164578,2,0,P|333:137|328:72,1,112.366699482795,2|8,3:2|2:2,2:2:0:0:
216,147,164996,1,0,3:2:0:0:
325,193,165203,1,2,2:2:0:0:
169,358,165410,6,0,P|35:301|55:146,1,310.130944176421,6|8,3:2|2:2,2:2:0:0:
146,57,166030,1,0,3:2:0:0:
216,147,166237,1,2,3:2:0:0:
345,21,166444,2,0,P|469:105|461:195,1,249.999999999988,10|0,2:2|2:2,2:2:0:0:
405,307,167069,1,2,3:2:0:0:
335,152,167277,6,0,B|232:92|183:205|89:156,1,251.836306400832,6|2,3:2|2:2,2:2:0:0:
141,57,167906,1,2,3:2:0:0:
270,243,168116,2,0,P|278:304|263:353,1,94.4386149003239,8|0,2:2|2:2,2:2:0:0:
142,289,168536,1,2,2:2:0:0:
294,84,168746,6,0,P|389:122|425:267,1,254.821165837188,6|8,3:2|3:2,2:2:0:0:
254,326,169367,1,2,2:2:0:0:
321,209,169573,1,2,3:2:0:0:
482,340,169779,2,0,P|428:357|373:346,1,92.812848048178,8|0,2:2|2:2,2:2:0:0:
324,287,170192,1,0,2:2:0:0:
421,260,170398,1,2,3:2:0:0:
239,46,170605,6,0,P|155:76|165:227,1,254.596888260252,6|2,3:2|2:2,2:2:0:0:
242,290,171241,1,2,3:2:0:0:
328,131,171453,2,0,P|282:134|231:148,1,93.7500035762788,8|0,2:2|2:2,2:2:0:0:
342,238,171868,1,2,2:2:0:0:
437,116,172075,1,2,3:2:0:0:
314,24,172283,5,0,3:2:0:0:
392,178,172483,1,8,2:2:0:0:
389,52,172683,1,0,2:2:0:0:
276,196,172883,1,0,3:2:0:0:
201,101,173100,1,0,3:2:0:0:
360,154,173317,1,0,3:2:0:0:
157,271,173535,1,0,3:2:0:0:
157,271,173924,6,8,B|238:283|238:283|277:268|277:268|348:279,1,193.548387096762,8|8,2:2|2:2,2:2:0:0:
422,210,174569,1,8,2:2:0:0:
320,95,174784,2,8,L|212:103,1,94.4055944055902,8|8,2:2|2:2,2:2:0:0:
136,37,175203,1,8,2:2:0:0:
115,26,175308,1,8,2:2:0:0:
92,20,175413,1,8,2:2:0:0:
69,19,175518,1,8,2:2:0:0:
46,24,175623,6,8,L|37:132,1,95.3389830508554,8|8,2:2|2:2,2:2:0:0:
36,230,176046,1,8,2:2:0:0:
53,246,176152,1,8,2:2:0:0:
72,259,176258,1,8,2:2:0:0:
95,267,176364,1,8,2:2:0:0:
118,272,176470,1,8,2:2:0:0:
217,264,176674,1,8,2:2:0:0:
310,181,176879,2,8,L|318:76,1,92.1501706484746,8|8,2:2|2:2,2:2:0:0:
494,20,177289,5,8,2:2:0:0:
427,110,177501,1,8,2:2:0:0:
317,87,177714,1,8,2:2:0:0:
293,86,177820,1,8,2:2:0:0:
270,89,177927,1,8,2:2:0:0:
248,97,178033,1,8,2:2:0:0:
228,109,178140,2,8,B|222:194|222:194|248:213|248:213|244:290,1,184.615384615365,8|8,2:2|2:2,2:2:0:0:
330,349,178755,1,8,2:2:0:0:
483,199,178960,5,8,2:2:0:0:
410,277,179165,1,8,2:2:0:0:
324,203,179370,1,8,2:2:0:0:
306,190,179473,1,8,2:2:0:0:
284,179,179575,1,8,2:2:0:0:
261,174,179678,1,8,2:2:0:0:
237,174,179781,6,8,L|129:184,1,92.4657534246547,8|8,2:2|2:2,2:2:0:0:
80,274,180191,1,8,2:2:0:0:
93,292,180300,1,8,2:2:0:0:
111,306,180409,1,8,2:2:0:0:
131,317,180518,1,8,2:2:0:0:
152,325,180628,6,8,B|208:335|208:335|281:313|281:313|338:323,1,186.206896551717,8|8,2:2|2:2,2:2:0:0:
444,346,181248,1,8,2:2:0:0:
382,209,181455,2,8,L|391:108,1,93.103448275865,8|8,2:2|2:2,2:2:0:0:
323,24,181869,1,8,2:2:0:0:
302,16,181975,1,8,2:2:0:0:
279,12,182081,1,8,2:2:0:0:
255,11,182187,1,8,2:2:0:0:
232,13,182293,6,8,L|223:121,1,91.2162162162143,8|8,2:2|2:2,2:2:0:0:
174,207,182698,1,8,2:2:0:0:
152,212,182806,1,8,2:2:0:0:
128,212,182915,1,8,2:2:0:0:
105,207,183024,1,8,2:2:0:0:
83,199,183132,2,8,L|72:92,1,93.3609958506339,8|8,2:2|2:2,2:2:0:0:
118,2,183546,1,8,2:2:0:0:
184,107,183754,1,8,2:2:0:0:
342,63,183961,6,0,L|433:69,1,87.5,8|8,2:2|2:2,2:2:0:0:
461,170,184379,1,8,2:2:0:0:
437,177,184484,1,8,2:2:0:0:
415,181,184589,1,8,2:2:0:0:
391,179,184693,1,8,2:2:0:0:
368,174,184798,2,8,P|291:162|201:191,1,168.75000064373,8|8,2:2|2:2,2:2:0:0:
108,246,185381,1,8,2:2:0:0:
232,334,185589,6,0,P|294:347|361:305,1,128.571428571431,6|0,3:2|2:2,2:2:0:0:
512,192,186017,1,10,2:2:0:0:
238,46,186224,2,0,P|235:154|278:254,1,217.541436464085,6|0,3:2|3:2,2:2:0:0:
408,98,186845,2,0,P|361:92|315:100,1,93.2320441989069,10|0,2:2|2:2,2:2:0:0:
141,156,187260,5,6,3:2:0:0:
277,253,187471,2,0,P|370:265|460:238,1,190.140845070408,0|0,3:2|2:2,2:2:0:0:
315,99,188105,2,0,P|268:124|241:181,1,95.0704225352106,10|0,2:2|2:2,2:2:0:0:
194,308,188527,1,2,2:2:0:0:
293,249,188738,1,2,2:2:0:0:
147,143,188950,5,0,3:2:0:0:
213,234,189156,1,8,2:2:0:0:
69,269,189363,1,2,2:2:0:0:
179,345,189570,2,0,L|271:331,1,93.103448275865,2|8,3:2|2:2,2:2:0:0:
365,209,189984,2,0,P|319:213|292:249,1,93.103448275865,2|0,3:2|2:2,2:2:0:0:
422,297,190398,1,2,2:2:0:0:
436,151,190605,6,0,B|452:121|452:121|439:43,1,95.0704225352106,2|0,3:2|3:2,2:2:0:0:
267,105,191027,1,2,2:2:0:0:
327,199,191238,1,2,3:2:0:0:
338,41,191450,2,0,B|292:3|292:3|163:36,1,186.206896551717,8|2,2:2|2:2,2:2:0:0:
76,135,192070,1,2,3:2:0:0:
103,297,192277,5,0,3:2:0:0:
164,124,192484,1,8,2:2:0:0:
184,285,192692,1,0,2:2:0:0:
51,227,192900,1,0,3:2:0:0:
270,181,193108,1,8,2:2:0:0:
184,285,193309,1,0,3:2:0:0:
70,217,193510,1,2,3:2:0:0:
180,161,193712,1,2,3:2:0:0:
189,150,193812,1,0,3:2:0:0:
198,139,193913,6,0,L|210:25,1,112.299465240652,6|0,3:2|2:2,3:2:0:0:
314,8,194340,2,0,L|334:132,1,112.299465240652,2|2,3:2|2:2,2:2:0:0:
437,145,194768,2,0,L|447:31,1,107.876712328755,8|0,2:2|2:2,2:2:0:0:
331,115,195178,1,2,3:2:0:0:
414,253,195384,1,2,3:2:0:0:
281,341,195589,6,0,L|293:224,1,116.924157303391,0|2,3:2|2:2,2:2:0:0:
155,150,196010,2,0,L|171:270,1,116.924157303375,2|0,3:2|2:2,2:2:0:0:
24,353,196431,2,0,L|35:230,1,115.625,8|0,2:2|2:2,2:2:0:0:
68,86,196847,1,2,3:2:0:0:
83,63,196951,1,0,3:2:0:0:
104,48,197056,1,0,3:2:0:0:
130,40,197160,1,0,3:2:0:0:
157,41,197264,5,2,2:2:0:0:
311,144,197474,1,0,3:2:0:0:
341,147,197579,1,8,2:2:0:0:
371,150,197685,1,2,3:2:0:0:
236,89,197895,5,2,3:2:0:0:
81,196,198094,1,0,3:2:0:0:
44,201,198194,1,8,2:2:0:0:
8,209,198293,1,0,3:2:0:0:
160,142,198493,5,2,3:2:0:0:
314,245,198700,1,2,3:2:0:0:
356,249,198804,1,8,2:2:0:0:
398,253,198907,5,8,2:2:0:0:
239,190,199115,1,0,3:2:0:0:
126,356,199322,2,0,P|59:352|18:305,1,121.045918367344,0|0,3:2|2:2,2:2:0:0:
180,272,199730,1,2,3:2:0:0:
280,369,199934,1,0,3:2:0:0:
387,170,200138,2,0,P|322:168|263:208,1,123.998257839729,0|0,3:2|3:2,2:2:0:0:
445,278,200556,5,8,2:2:0:0:
385,38,200801,2,0,P|267:51|181:114,1,204.309363832092,0|8,3:2|2:2,2:2:0:0:
98,200,201401,6,0,L|107:255,3,39.4530237031907,8|8|0|0,2:2|3:2|3:2|3:2,2:2:0:0:
256,192,212254,12,0,214771,3:2:0:0:
301,168,215604,6,0,P|273:220|178:251,1,156.249999999986,6|0,3:2|2:2,2:2:0:0:
51,61,216029,2,0,P|121:61|183:116,1,156.250000000008,2|0,2:2|3:2,2:2:0:0:
59,290,216455,2,0,P|51:238|71:189,1,106.250000000007,10|0,2:2|2:2,2:2:0:0:
403,281,216842,2,0,B|446:273|485:235|494:175|493:119|380:-2|198:110,1,468.750000000007,6|0,3:2|3:2,2:2:0:0:
70,244,217677,5,2,3:2:0:0:
313,153,217885,2,0,B|291:124|265:101|265:101|215:100|181:115,1,137.50000000001,2|8,3:2|2:2,2:2:0:0:
194,291,218303,2,0,B|228:299|263:300|263:300|302:270|314:234,1,137.49999999999,0|0,2:2|2:2,2:2:0:0:
244,76,218720,5,2,3:2:0:0:
43,229,218929,2,0,P|33:293|54:364,1,137.499999999991,6|0,3:2|2:2,2:2:0:0:
194,291,219339,1,2,2:2:0:0:
147,118,219564,2,0,P|78:80|0:84,1,160.525919225563,2|8,3:2|2:2,2:2:0:0:
43,229,219977,1,2,2:2:0:0:
290,82,220165,2,0,P|358:120|378:203,1,156.249999999995,6|0,3:2|2:2,2:2:0:0:
217,326,220619,5,8,2:2:0:0:
180,322,220720,1,8,2:2:0:0:
143,318,220821,1,0,3:2:0:0:
77,187,221024,5,8,2:2:0:0:
114,191,221125,1,8,2:2:0:0:
151,194,221227,1,0,3:2:0:0:
330,351,221429,5,10,2:2:0:0:
366,351,221531,1,8,2:2:0:0:
402,342,221633,1,0,3:2:0:0:
434,324,221735,1,0,3:2:0:0:
462,298,221837,5,8,2:2:0:0:
480,272,221939,1,8,2:2:0:0:
492,242,222041,1,2,3:2:0:0:
493,214,222143,1,0,3:2:0:0:
490,185,222245,6,0,P|464:116|393:71,1,156.250000000008,6|0,3:2|2:2,2:2:0:0:
292,351,222670,2,0,P|364:363|435:322,1,156.249999999965,2|0,2:2|3:2,2:2:0:0:
275,136,223096,2,0,P|247:190|246:245,1,106.250000000009,10|0,2:2|2:2,2:2:0:0:
30,352,223501,2,0,B|14:285|-23:137|44:61|150:27|208:54|267:105|276:139,1,506.25,6|0,3:2|3:2,2:2:0:0:
348,343,224312,5,2,3:2:0:0:
117,289,224530,2,0,B|103:233|116:196|116:196|131:172|153:167,1,143.554210903076,2|8,3:2|2:2,2:2:0:0:
233,250,224954,2,0,B|247:306|234:343|234:343|219:367|197:372,1,137.499999999991,0|0,2:2|2:2,2:2:0:0:
4,223,225368,5,2,3:2:0:0:
260,105,225575,2,0,P|327:103|398:147,1,137.499999999989,6|0,3:2|2:2,2:2:0:0:
293,257,225997,1,2,2:2:0:0:
122,139,226208,1,2,3:2:0:0:
345,15,226420,2,0,P|387:67|387:135,1,137.499999999989,8|0,2:2|2:2,2:2:0:0:
260,105,226842,1,2,2:2:0:0:
216,284,227053,6,0,B|183:293|148:285|148:285|110:264|99:225,1,139.76173576856,2|0,3:2|3:2,2:2:0:0:
153,50,227473,1,8,2:2:0:0:
197,163,227681,1,8,2:2:0:0:
299,95,227890,1,0,3:2:0:0:
336,78,227994,1,0,3:2:0:0:
377,81,228098,5,8,2:2:0:0:
425,104,228198,1,8,2:2:0:0:
448,152,228299,1,0,3:2:0:0:
440,206,228400,1,0,3:2:0:0:
398,246,228500,5,8,2:2:0:0:
345,253,228601,1,8,2:2:0:0:
297,227,228702,1,2,3:2:0:0:
272,179,228802,1,0,3:2:0:0:
265,128,228903,6,0,P|228:63|152:40,1,156.25,6|0,3:2|2:2,2:2:0:0:
53,281,229336,2,0,P|119:243|140:169,1,156.25,2|0,2:2|3:2,2:2:0:0:
0,16,229769,2,0,P|10:66|55:90,1,106.250000000011,10|0,2:2|2:2,2:2:0:0:
353,62,230179,2,0,B|402:76|472:107|480:218|422:311|235:291|241:239|187:210|128:159,1,506.249999999994,6|0,3:2|3:2,2:2:0:0:
50,44,231019,5,2,3:2:0:0:
246,106,231229,2,0,B|235:143|206:164|206:164|168:174|135:169,1,138.465035972682,2|8,3:2|2:2,2:2:0:0:
235,6,231647,2,0,B|272:-2|304:14|304:14|331:42|342:74,1,137.499999999981,0|0,2:2|2:2,2:2:0:0:
310,228,232064,5,2,3:2:0:0:
132,18,232272,2,0,P|57:23|6:80,1,137.499999999993,6|0,3:2|2:2,2:2:0:0:
122,166,232695,1,2,2:2:0:0:
241,92,232907,1,2,3:2:0:0:
11,172,233119,2,0,B|8:212|19:239|19:239|55:267|91:272,1,137.499999999991,8|0,2:2|2:2,2:2:0:0:
258,202,233529,1,2,2:2:0:0:
153,85,233735,1,2,3:2:0:0:
169,313,233940,6,0,B|147:344|114:360|114:360|73:366|33:354,1,137.499999999989,0|8,3:2|2:2,2:2:0:0:
160,210,234357,1,0,3:2:0:0:
318,341,234566,1,2,3:2:0:0:
501,174,234775,2,0,B|465:90|320:104|385:235|240:213,1,293.750000000007,10|0,2:2|2:2,2:2:0:0:
74,163,235402,1,2,3:2:0:0:
194,3,235611,6,0,P|264:31|273:105,1,156.249999999995,6|0,3:2|2:2,2:2:0:0:
150,241,236024,1,2,2:2:0:0:
48,61,236231,2,0,B|193:33|154:221|307:191,1,312.499999999989,2|0,3:2|2:2,2:2:0:0:
293,57,236852,1,2,2:2:0:0:
61,184,237059,6,0,P|110:329|257:350,1,312.500000000012,2|8,3:2|2:2,2:2:0:0:
348,224,237679,1,2,2:2:0:0:
196,219,237886,1,2,3:2:0:0:
385,333,238093,2,0,B|426:321|451:292|451:292|465:259|460:218,1,143.75000000001,8|0,2:2|2:2,2:2:0:0:
400,98,238507,1,0,2:2:0:0:
348,224,238714,1,2,3:2:0:0:
210,34,238921,6,0,P|42:61|14:173,1,287.500000000005,6|2,3:2|2:2,2:2:0:0:
104,312,239557,1,2,3:2:0:0:
240,173,239769,2,0,B|226:152|197:138|197:138|169:133|139:143,1,115.625,8|0,2:2|2:2,2:2:0:0:
230,300,240185,1,2,2:2:0:0:
348,170,240394,6,0,B|351:133|331:99|331:99|300:72|253:68,1,137.500000000002,2|0,3:2|2:2,2:2:0:0:
122,215,240773,2,0,B|156:224|194:217|194:217|229:196|246:162,1,137.499999999989,0|0,3:2|2:2,2:2:0:0:
139,48,241195,1,0,3:2:0:0:
142,73,241296,1,0,3:2:0:0:
145,98,241397,5,0,3:2:0:0:
225,256,241615,1,0,3:2:0:0:
279,105,241833,1,2,3:2:0:0:
131,198,242041,1,2,3:2:0:0:
308,274,242249,6,0,P|350:272|387:258,1,62.5,8|0,2:2|2:2,2:2:0:0:
229,94,242667,2,0,P|173:88|126:105,1,87.4999999999901,10|2,2:2|2:2,2:2:0:0:
444,225,243085,2,0,P|470:165|472:121,1,93.7499999999974,8|0,2:2|2:2,2:2:0:0:
79,150,243503,2,0,P|55:199|55:252,1,99.9999999999955,10|2,2:2|2:2,2:2:0:0:
321,203,243921,6,0,L|331:91,1,106.249999999991,8|0,2:2|2:2,2:2:0:0:
186,227,244329,2,0,L|161:104,1,112.500000000006,10|2,2:2|2:2,2:2:0:0:
444,306,244737,2,0,L|467:190,1,118.749999999983,8|0,2:2|2:2,2:2:0:0:
50,309,245168,2,0,L|33:186,1,125.000000000006,8|2,2:2|2:2,2:2:0:0:
256,48,245600,5,2,2:2:0:0:
291,137,248967,6,0,P|308:203|301:268,1,124.999999999996,2|2,2:2|2:2,2:2:0:0:
214,347,249794,1,2,2:2:0:0:
65,259,250208,2,0,B|125:218|193:253|193:253|264:289|325:246,1,250,2|2,2:2|2:2,2:2:0:0:
460,178,251466,6,0,P|415:165|370:177,1,93.7499999999932,2|2,2:2|2:2,2:2:0:0:
260,58,252311,6,0,P|243:124|256:189,1,125.000000000004,2|2,2:2|2:2,2:2:0:0:
334,273,253132,1,2,2:2:0:0:
490,179,253573,2,0,B|430:138|362:173|362:173|291:209|230:166,1,249.999999999995,2|2,2:2|2:2,2:2:0:0:
79,130,254789,6,0,P|95:187|89:226,1,93.7499999999946,2|2,2:2|2:2,2:2:0:0:
183,351,255652,6,0,P|169:285|178:226,1,125.000000000005,2|2,2:2|2:2,2:2:0:0:
243,164,256479,1,2,2:2:0:0:
350,72,256893,6,0,B|352:47|392:1|445:37|448:82|448:82|451:126|424:179|371:223,1,312.499999999996,2|2,2:2|2:2,2:2:0:0:
250,164,258143,2,0,P|172:189|99:198,1,156.249999999993,2|2,2:2|2:2,2:2:0:0:
1,318,258976,6,0,B|34:345|84:353|117:331|139:296|139:296|153:324|181:331|181:331|227:280|296:262|354:269|415:307,1,468.75,2|0,2:2|2:2,2:2:0:0:
411,304,260666,6,0,B|362:304|313:341|313:341|369:303|408:236|416:170|387:110|387:110|329:120|304:163,1,468.75,2|0,2:2|2:2,2:2:0:0:
305,160,262405,6,0,B|300:231|241:280|154:285|102:245|102:245|154:256|199:225|206:175|206:175|183:135|144:113|89:123|53:156|29:205|29:205|12:152|24:93|52:46|99:19|147:11|183:34|167:42|209:77|233:85|265:87,1,1006.25,2|0,2:2|2:2,2:2:0:0:
265,87,265831,6,0,B|289:44|347:19|394:63|399:106|399:106|403:133|394:159|367:205|301:266|301:266|233:231|188:187|171:161|169:132|169:132|163:90|200:36|251:46|298:82,1,749.999999999996,2|0,2:2|2:2,2:2:0:0:
