osu file format v14

[General]
AudioFilename: audio.mp3
AudioLeadIn: 0
PreviewTime: 224102
Countdown: 0
SampleSet: Soft
StackLeniency: 0.3
Mode: 0
LetterboxInBreaks: 0
WidescreenStoryboard: 1

[Editor]
DistanceSpacing: 2.5
BeatDivisor: 8
GridSize: 8
TimelineZoom: 2.6

[Metadata]
Title:Kinema
TitleUnicode:キネマ
Artist:TRUE
ArtistUnicode:TRUE
Creator:Time Capsule
Version:As this Feelings with no Regret
Source:終末なにしてますか?忙しいですか?救ってもらっていいですか?
Tags:Shuumatsu Nani Shitemasu ka? Isogashii Desu ka? Sukutte Moratte Ii Desu ka? SukaSuka From h-wonder 唐沢美帆 eclipselotus
BeatmapID:1985580
BeatmapSetID:950779

[Difficulty]
HPDrainRate:6
CircleSize:4
OverallDifficulty:7
ApproachRate:9
SliderMultiplier:1.7
SliderTickRate:1

[Events]
//Background and Video events
0,0,"71870849_p0.jpg",0,0
//Break Periods
//Storyboard Layer 0 (Background)
//Storyboard Layer 1 (Fail)
//Storyboard Layer 2 (Pass)
//Storyboard Layer 3 (Foreground)
//Storyboard Sound Samples

[TimingPoints]
740,588.235294117647,4,2,0,40,1,0
19563,-100,4,2,0,40,0,0
38387,-83.3333333333333,4,2,0,40,0,0
56034,-83.3333333333333,4,2,0,10,0,0
56475,-83.3333333333333,4,2,0,40,0,0
57210,-66.6666666666667,4,2,0,40,0,1
75445,-66.6666666666667,4,2,0,40,0,0
76034,-66.6666666666667,4,2,0,40,0,1
90739,-125,4,2,0,40,0,1
91254,-76.9230769230769,4,2,0,40,0,1
91916,-125,4,2,0,40,0,1
92431,-83.3333333333333,4,2,0,40,0,1
94269,-66.6666666666667,4,2,0,40,0,1
94857,-83.3333333333333,4,2,0,40,0,0
104269,-100,4,2,0,40,0,0

[Colours]
Combo1 : 0,128,255
Combo2 : 255,0,128
Combo3 : 255,255,0

[HitObjects]
191,289,666,5,0,0:0:0:0:
191,289,740,2,0,P|175:249|183:193,1,85
329,181,1181,2,0,P|345:222|341:266,1,85
95,193,1622,2,0,P|111:153|157:119,1,85
259,235,2063,1,0,0:0:0:0:
191,289,2210,1,0,0:0:0:0:
133,115,2504,2,0,L|243:101,1,85
293,29,2945,1,0,0:0:0:0:
401,126,3092,6,0,P|417:166|409:222,1,85
454,306,3534,2,0,L|344:291,1,85
264,277,3975,2,0,L|258:234,1,42.5
134,182,4269,2,0,P|94:198|23:184,2,106.25
276,351,5372,5,0,0:0:0:0:
276,351,5445,2,0,P|292:311|284:255,1,85
125,193,5887,2,0,P|122:235|138:274,1,85
374,257,6328,2,0,P|358:217|312:183,1,85
209,219,6769,1,0,0:0:0:0:
290,270,6916,1,0,0:0:0:0:
339,106,7210,2,0,L|328:190,1,85
389,254,7651,1,0,0:0:0:0:
457,87,7798,6,0,L|447:172,1,85
389,254,8239,2,0,P|431:251|470:267,1,85
348,384,8681,2,0,P|376:352|415:337,1,85
429,339,9269,1,0,0:0:0:0:
383,315,9489,1,0,0:0:0:0:
312,315,9710,1,0,0:0:0:0:
234,270,9931,1,0,0:0:0:0:
126,256,10151,6,0,P|110:216|118:160,1,85
54,85,10592,2,0,L|164:70,1,85
234,27,11034,2,0,B|277:49|277:49|374:50,1,127.5
445,107,11622,2,0,B|457:132|459:152|459:152,1,42.5
289,167,11916,2,0,P|328:151|371:154,1,85
341,238,12357,1,0,0:0:0:0:
445,107,12504,6,0,L|456:22,1,85
506,236,12945,2,0,P|466:220|424:222,1,85
412,355,13387,2,0,P|469:363|410:323,1,170
184,342,14269,1,0,0:0:0:0:
211,266,14489,1,0,0:0:0:0:
196,351,14710,1,0,0:0:0:0:
98,256,14857,6,0,P|95:213|111:174,1,85
303,201,15298,2,0,P|267:224|225:229,1,85,0|0,0:3|0:3,0:3:0:0:
153,51,15739,2,0,P|190:70|216:103,2,85
27,186,16475,1,0,0:0:0:0:
98,256,16622,2,0,L|182:244,1,85
15,101,17210,6,0,L|26:185,1,85
268,271,17651,2,0,P|270:228|254:189,1,85
182,244,18092,1,0,0:0:0:0:
278,282,18239,1,0,0:0:0:0:
282,107,18387,2,0,P|239:104|200:120,1,85
87,300,18975,1,0,0:0:0:0:
87,300,19563,6,0,P|130:297|169:313,1,85
264,358,20004,2,0,P|303:342|345:345,1,85
438,294,20445,1,0,0:0:0:0:
499,380,20592,1,0,0:0:0:0:
427,301,20739,2,0,L|416:217,1,85
488,138,21181,1,0,0:0:0:0:
512,284,21328,2,0,L|506:242,1,42.5
414,167,21622,2,0,L|407:209,1,42.5
303,229,21916,6,0,P|299:186|315:147,1,85
359,50,22357,2,0,P|319:65|277:62,1,85
188,119,22798,2,0,L|104:108,1,85
13,52,23239,1,0,0:0:0:0:
0,161,23387,2,0,L|41:155,1,42.5
25,50,23681,1,0,0:0:0:0:
2,261,23975,1,0,0:0:0:0:
92,237,24122,1,0,0:0:0:0:
122,142,24269,6,0,P|79:138|40:154,1,85
201,65,24710,2,0,P|166:41|124:35,1,85
225,229,25151,2,0,L|236:145,2,85
201,65,26034,1,0,0:0:0:0:
302,33,26181,2,0,L|344:26,1,42.5
389,122,26475,1,0,0:0:0:0:
493,150,26622,6,0,P|496:108|481:69,1,85
377,203,27063,2,0,P|373:160|389:121,1,85
481,283,27504,2,0,L|438:276,1,42.5
353,339,27798,2,0,P|313:323|271:326,1,85
175,371,28239,1,0,0:0:0:0:
121,278,28387,2,0,P|163:281|202:265,1,85
133,90,28975,6,0,L|144:174,1,85
35,209,29416,2,0,L|24:125,1,85
214,102,29857,2,0,P|171:105|132:89,1,85
56,15,30298,1,0,0:0:0:0:
18,135,30445,2,0,L|60:128,1,42.5
149,181,30739,1,0,0:0:0:0:
214,102,30887,1,0,0:0:0:0:
140,178,31034,1,0,0:0:0:0:
207,96,31181,1,0,0:0:0:0:
291,159,31328,6,0,P|306:198|303:240,1,85
134,264,31769,2,0,P|161:230|199:212,1,85
305,345,32210,2,0,P|263:339|229:316,1,85
303,240,32651,1,0,0:0:0:0:
316,345,32798,1,0,0:0:0:0:
128,262,33092,2,0,L|139:178,1,85
214,102,33534,1,0,0:0:0:0:
243,0,33681,6,0,P|200:-3|161:12,1,85
109,104,34122,2,0,P|151:100|190:116,1,85
291,159,34563,2,0,L|297:116,1,42.5
399,90,34857,2,0,L|410:174,1,85
342,255,35298,1,0,0:0:0:0:
291,159,35445,2,0,L|248:153,1,42.5
160,94,35739,2,0,L|117:100,1,42.5
62,212,36034,6,0,P|115:276|66:208,1,255
51,353,37210,2,0,B|100:372|136:356|136:356|172:338|227:357,1,170
434,259,38387,6,0,P|450:220|439:157,1,101.999996887207
498,85,38828,1,0,0:0:0:0:
412,24,38975,1,0,0:0:0:0:
491,96,39122,1,0,0:0:0:0:
405,37,39269,2,0,L|286:21,1,101.999996887207
198,95,39710,1,0,0:0:0:0:
198,95,39857,2,0,L|207:15,1,50.9999984436036
92,155,40151,2,0,L|108:36,1,101.999996887207
105,53,40592,1,0,0:0:0:0:
253,166,40739,6,0,P|226:179|185:182,1,50.9999984436036
60,348,41034,1,0,0:0:0:0:
7,278,41181,2,0,P|46:262|109:273,1,101.999996887207
205,182,41622,2,0,P|222:229|212:278,1,101.999996887207
92,155,42063,1,0,0:0:0:0:
198,95,42210,2,0,L|317:79,2,101.999996887207
369,29,43092,6,0,P|385:68|374:131,1,101.999996887207
325,215,43534,1,0,0:0:0:0:
387,134,43681,1,0,0:0:0:0:
337,222,43828,1,0,0:0:0:0:
483,141,43975,2,0,P|444:125|381:136,1,101.999996887207
351,322,44416,1,0,0:0:0:0:
435,261,44563,2,0,L|426:181,1,50.9999984436036
498,98,44857,2,0,L|492:148,1,50.9999984436036
337,222,45151,6,0,L|235:208,1,101.999996887207
149,262,45592,1,0,0:0:0:0:
76,189,45739,1,0,0:0:0:0:
116,94,45887,1,0,0:0:0:0:
216,111,46034,2,0,B|195:115|184:123|184:123|241:82|300:127|300:127|321:102|321:102|373:147|425:117,1,305.999990661621
348,361,47210,1,0,0:0:0:0:
227,304,47357,2,0,P|217:255|235:208,1,101.999996887207
348,361,47798,6,0,P|321:348|280:345,1,50.9999984436036
218,299,48092,2,0,P|191:312|150:315,1,50.9999984436036
81,356,48387,2,0,L|31:351,1,50.9999984436036
0,253,48681,1,0,0:0:0:0:
19,353,48828,1,0,0:0:0:0:
95,250,48975,2,0,P|104:200|87:153,1,101.999996887207
87,153,49563,1,0,0:0:0:0:
3,207,49857,5,0,0:0:0:0:
3,207,50004,1,0,0:0:0:0:
63,16,50151,2,0,P|112:6|159:23,1,101.999996887207
205,115,50592,1,0,0:0:0:0:
105,94,50739,1,0,0:0:0:0:
173,17,50887,1,0,0:0:0:0:
235,207,51034,2,0,L|133:193,1,101.999996887207
219,111,51475,1,0,0:0:0:0:
338,169,51622,2,0,P|348:218|331:266,2,101.999996887207
473,99,52504,6,0,L|467:149,1,50.9999984436036
483,103,52798,2,0,L|477:153,1,50.9999984436036
352,211,53092,2,0,P|304:193|255:203,1,101.999996887207
166,296,53534,1,0,0:0:0:0:
298,356,53681,2,0,L|292:305,1,50.9999984436036
308,352,53975,2,0,L|302:301,1,50.9999984436036
169,103,54269,2,0,P|151:150|161:199,1,101.999996887207
299,81,54710,1,0,0:0:0:0:
179,90,54857,1,0,0:0:0:0:
256,192,55004,12,0,56034,0:0:0:0:
352,211,56475,5,0,0:0:0:0:
352,211,56548,1,0,0:0:0:0:
352,211,56622,1,0,0:0:0:0:
342,280,57210,6,0,P|356:251|360:220,1,63.7500024318696
300,107,57504,1,0,0:0:0:0:
472,230,57651,2,0,P|469:198|458:168,1,63.7500024318696
251,214,57945,1,0,0:0:0:0:
342,280,58092,1,0,0:0:0:0:
432,49,58239,1,0,0:0:0:0:
432,49,58313,1,0,0:0:0:0:
432,49,58387,6,0,L|368:39,1,63.7500024318696
458,168,58681,1,0,0:0:0:0:
449,40,58828,1,0,0:0:0:0:
269,154,58975,2,0,P|254:182|250:213,1,63.7500024318696
147,379,59269,2,0,L|210:369,1,63.7500024318696
148,170,59563,6,0,P|141:233|170:289,1,127.500004863739
360,220,60004,1,0,0:0:0:0:
406,351,60151,2,0,L|263:329,1,127.500004863739
147,379,60592,1,0,0:0:0:0:
283,343,60739,5,0,0:0:0:0:
70,311,60887,1,0,0:0:0:0:
70,311,60960,1,0,0:0:0:0:
70,311,61034,1,0,0:0:0:0:
262,212,61181,2,0,L|253:149,1,63.7500024318696
87,153,61475,1,0,0:0:0:0:
170,289,61622,2,0,L|179:225,1,63.7500024318696
105,53,61916,6,0,P|160:81|223:74,1,127.500004863739
333,10,62357,1,0,0:0:0:0:
428,94,62504,2,0,P|442:122|446:153,1,63.7500024318696
315,282,62798,2,0,L|325:219,1,63.7500024318696
512,249,63092,2,0,P|449:270|398:256,1,95.6250036478044
407,258,63387,1,0,0:0:0:0:
316,203,63534,1,0,0:0:0:0:
407,258,63681,2,0,P|431:238|449:211,1,63.7500024318696
227,279,63975,2,0,P|231:310|245:338,1,63.7500024318696
350,85,64269,6,0,L|286:75,1,63.7500024318696
325,220,64563,1,0,0:0:0:0:
477,82,64710,2,0,L|455:225,1,127.500004863739
460,348,65151,1,0,0:0:0:0:
379,232,65298,1,0,0:0:0:0:
511,277,65445,5,0,0:0:0:0:
377,320,65592,1,0,0:0:0:0:
377,320,65666,1,0,0:0:0:0:
377,320,65739,2,0,P|348:305|317:301,1,63.7500024318696
144,234,66034,2,0,P|206:241|262:212,1,127.500004863739
350,85,66475,1,0,0:0:0:0:
232,9,66622,6,0,L|222:72,1,63.7500024318696
262,211,66916,1,0,0:0:0:0:
125,134,67063,2,0,L|105:7,1,127.500004863739
0,222,67504,2,0,L|63:212,1,63.7500024318696
187,143,67798,2,0,L|124:133,1,63.7500024318696
170,289,68092,1,0,0:0:0:0:
334,157,68239,2,0,P|363:101|356:38,1,127.500004863739
356,38,68681,1,0,0:0:0:0:
253,79,68828,5,0,0:0:0:0:
253,79,68901,1,0,0:0:0:0:
253,79,68975,1,0,0:0:0:0:
334,157,69122,1,0,0:0:0:0:
413,26,69269,2,0,L|350:16,1,63.7500024318696
491,118,69563,2,0,P|506:89|510:58,1,63.7500024318696
379,232,69857,2,0,P|434:202|497:209,2,127.500004863739
315,342,70592,1,0,0:0:0:0:
452,330,70739,2,0,P|467:290|444:328,1,127.500004863739
262,211,71328,6,0,L|252:148,1,63.7500024318696
351,67,71622,1,0,0:0:0:0:
243,136,71769,1,0,0:0:0:0:
379,232,71916,2,0,L|389:169,1,63.7500024318696
507,216,72210,1,0,0:0:0:0:
468,90,72357,2,0,P|412:59|350:66,1,127.500004863739
243,136,72798,2,0,P|214:121|183:117,1,63.7500024318696
145,238,73092,2,0,P|185:253|147:230,1,127.500004863739
254,340,73681,6,0,L|317:330,1,63.7500024318696
430,262,73975,2,0,L|440:325,1,63.7500024318696
330,192,74269,2,0,L|350:65,1,127.500004863739
232,42,74710,2,0,P|287:72|349:65,1,127.500004863739
462,5,75151,1,0,0:0:0:0:
341,57,75298,1,0,0:0:0:0:
310,250,75445,6,0,L|320:187,1,63.7500024318696
391,375,75739,1,0,0:0:0:0:
219,315,75887,1,0,0:0:0:0:
219,315,75960,1,0,0:0:0:0:
219,315,76034,6,0,P|204:286|199:255,1,63.7500024318696
300,107,76328,1,0,0:0:0:0:
429,272,76475,2,0,P|366:279|310:250,1,127.500004863739
183,117,76916,1,0,0:0:0:0:
309,44,77063,2,0,L|299:107,1,63.7500024318696
103,74,77357,1,0,0:0:0:0:
143,256,77504,6,0,L|133:193,1,63.7500024318696
30,101,77798,2,0,P|58:86|89:81,1,63.7500024318696
222,27,78092,2,0,P|190:23|162:8,1,63.7500024318696
133,193,78387,2,0,L|258:173,1,127.500004863739
150,381,78828,1,0,0:0:0:0:
30,350,78975,2,0,L|40:287,1,63.7500024318696
173,263,79269,6,0,P|144:318|150:381,1,127.500004863739
271,240,79710,1,0,0:0:0:0:
271,240,79784,1,0,0:0:0:0:
271,240,79857,1,0,0:0:0:0:
376,116,80004,2,0,L|386:179,1,63.7500024318696
183,117,80298,1,0,0:0:0:0:
271,240,80445,2,0,L|280:176,1,63.7500024318696
495,297,80739,6,0,P|432:290|376:319,1,127.500004863739
279,176,81181,1,0,0:0:0:0:
468,90,81328,2,0,P|483:118|488:149,1,63.7500024318696
376,318,81622,2,0,L|367:254,1,63.7500024318696
230,79,81916,6,0,P|167:58|116:72,1,95.6250036478044
125,70,82211,1,0,0:0:0:0:
21,176,82358,1,0,0:0:0:0:
125,70,82505,2,0,P|149:90|167:117,1,63.7500024318696
2,235,82798,2,0,P|7:204|21:175,1,63.7500024318696
207,260,83092,2,0,P|177:270|145:272,1,63.7500024318696
48,74,83387,1,0,0:0:0:0:
231,108,83534,6,0,L|356:127,1,127.500004863739
438,205,83975,2,0,P|466:149|459:86,1,127.500004863739
345,143,84416,1,0,0:0:0:0:
452,74,84563,1,0,0:0:0:0:
326,50,84710,1,0,0:0:0:0:
438,205,84857,2,0,L|502:196,1,63.7500024318696
454,332,85151,1,0,0:0:0:0:
512,207,85298,1,0,0:0:0:0:
463,344,85445,6,0,L|337:324,1,127.500004863739
234,364,85887,2,0,P|227:301|256:245,1,127.500004863739
433,145,86328,2,0,P|428:177|414:205,1,63.7500024318696
167,117,86622,2,0,L|231:108,1,63.7500024318696
256,245,86916,1,0,0:0:0:0:
150,215,87063,1,0,0:0:0:0:
335,153,87210,2,0,P|342:90|313:34,1,127.500004863739
313,34,87798,6,0,P|368:62|431:55,1,127.500004863739
512,8,88239,1,0,0:0:0:0:
414,204,88387,2,0,P|358:175|295:182,1,127.500004863739
220,241,88828,1,0,0:0:0:0:
298,342,88975,2,0,P|343:356|286:315,1,255.000009727478
512,207,90078,5,0,0:0:0:0:
512,207,90151,2,0,P|429:162|482:140,1,191.250007295609
250,164,90739,6,0,L|334:153,1,85
443,318,91254,5,0,0:0:0:0:
443,318,91328,2,0,P|468:237|505:287,1,165.749992412568
421,60,91916,6,0,L|432:144,1,85
327,253,92431,5,0,0:0:0:0:
327,253,92504,2,0,B|282:276|235:260|235:260|175:234|129:265,1,203.999993774414
130,263,93387,1,0,0:0:0:0:
199,335,93607,1,0,0:0:0:0:
199,335,93681,2,0,P|227:236|199:191,1,152.999995330811
149,84,94269,6,0,P|179:94|211:96,1,63.7500024318696
284,136,94489,1,0,0:0:0:0:
284,136,94563,2,0,L|293:90,1,31.8750012159348
366,56,94710,2,0,L|372:87,1,31.8750012159348
444,131,94857,5,0,0:0:0:0:
256,192,94931,12,0,97210,0:0:0:0:
