osu file format v14

[General]
AudioFilename: audio.mp3
AudioLeadIn: 0
PreviewTime: 81144
Countdown: 0
SampleSet: Soft
StackLeniency: 0.2
Mode: 0
LetterboxInBreaks: 0
WidescreenStoryboard: 0

[Editor]
Bookmarks: 1363,10603,23576,36549,62495,81954,107900,114387,120873,146819,167900,193846,206819,232765,245738,258711,274927,310603
DistanceSpacing: 1.1
BeatDivisor: 8
GridSize: 4
TimelineZoom: 4.899998

[Metadata]
Title:Hiryuu no Kishi
TitleUnicode:飛竜の騎士
Artist:TRUE
ArtistUnicode:TRUE
Creator:Atalanta
Version:Beyond the Sky
Source:最弱無敗の神装機竜
Tags:Undefeated Saijaku Muhai no Bahamut chronicle opening OP full ver BLUE MOON CHILD
BeatmapID:1549194
BeatmapSetID:734191

[Difficulty]
HPDrainRate:5
CircleSize:4
OverallDifficulty:9
ApproachRate:9.6
SliderMultiplier:2.7
SliderTickRate:1

[Events]
//Background and Video events
0,0,"Edgy BG.png",0,0
//Break Periods
2,121684,125738
2,197495,198711
//Storyboard Layer 0 (Background)
//Storyboard Layer 1 (Fail)
//Storyboard Layer 2 (Pass)
//Storyboard Layer 3 (Foreground)
//Storyboard Sound Samples

[TimingPoints]
1363,476.190476190476,4,2,22,40,1,0
1363,-200,4,2,22,40,0,0
8982,405.405405405405,4,2,1,50,1,0
10096,-133.333333333333,4,2,1,50,0,0
10400,-200,4,2,1,50,0,0
10603,-80,4,2,1,50,0,1
11414,-200,4,2,1,50,0,0
11819,-100,4,2,2,50,0,0
12225,-80,4,2,2,50,0,1
12833,-133.333333333333,4,2,1,50,0,1
13036,-80,4,2,2,50,0,1
13846,-80,4,2,1,50,0,1
14657,-200,4,2,1,50,0,0
15063,-100,4,2,2,50,0,0
15468,-80,4,2,1,50,0,1
15873,-133.333333333333,4,2,1,50,0,1
16279,-80,4,2,1,50,0,1
16583,-66.6666666666667,4,2,1,50,0,1
17090,-80,4,2,5,50,0,1
17900,-133.333333333333,4,2,1,50,0,0
18711,-133.333333333333,4,2,2,50,0,0
19421,-400,4,2,1,50,0,0
19522,-66.6666666666667,4,2,1,50,0,1
19826,-133.333333333333,4,2,1,50,0,0
20130,-200,4,2,1,50,0,0
20333,-80,4,2,1,50,0,1
21144,-200,4,2,1,50,0,0
21549,-100,4,2,2,50,0,0
21954,-80,4,2,1,50,0,1
23576,-80,4,2,5,50,0,0
35231,-80,4,2,1,50,0,0
35536,-80,4,2,5,50,0,0
36549,-100,4,2,5,50,0,0
42022,-100,4,2,2,50,0,0
42225,-80,4,2,1,50,0,0
43441,-80,4,2,5,50,0,0
44454,-80,4,2,1,50,0,0
45873,-100,4,2,1,50,0,0
46279,-80,4,2,5,50,0,0
47900,-66.6666666666667,4,2,1,50,0,0
48914,-200,4,2,1,50,0,0
49522,-100,4,2,1,50,0,0
50738,-200,4,2,1,50,0,0
51144,-100,4,2,1,50,0,0
52360,-200,4,2,1,50,0,0
52765,-100,4,2,1,50,0,0
53981,-200,4,2,1,50,0,0
54387,-100,4,2,1,50,0,0
54995,-100,4,2,2,50,0,0
55198,-80,4,2,1,50,0,0
55806,-80,4,2,5,50,0,0
56617,-80,4,2,2,50,0,0
57427,-80,4,2,5,50,0,0
61076,-66.6666666666667,4,2,1,50,0,0
62090,-100,4,2,1,50,0,0
62495,-80,4,2,5,50,0,0
63711,-100,4,2,1,50,0,0
64117,-80,4,2,1,50,0,0
65333,-100,4,2,1,50,0,0
65738,-80,4,2,1,50,0,0
66954,-100,4,2,1,50,0,0
67360,-80,4,2,1,50,0,0
68069,-80,4,2,5,50,0,0
68373,-200,4,2,1,50,0,0
68981,-80,4,2,1,50,0,0
69792,-80,4,2,2,50,0,0
72022,-133.333333333333,4,2,1,50,0,0
72427,-80,4,2,1,50,0,0
73644,-100,4,2,5,50,0,0
74454,-100,4,2,2,50,0,0
75063,-200,4,2,1,50,0,0
75468,-80,4,2,1,50,0,0
76684,-200,4,2,1,50,0,0
77090,-80,4,2,1,50,0,0
78306,-200,4,2,1,50,0,0
78711,-80,4,2,1,50,0,0
80333,-66.6666666666667,4,2,1,50,0,0
80941,-66.6666666666667,4,2,5,50,0,0
81549,-100,4,2,1,50,0,0
81954,-66.6666666666667,4,2,1,70,0,1
88846,-66.6666666666667,4,2,5,70,0,1
93103,-66.6666666666667,4,2,1,70,0,1
93914,-100,4,2,1,70,0,0
94522,-200,4,2,1,70,0,0
94927,-66.6666666666667,4,2,1,70,0,1
100400,-66.6666666666667,4,2,5,70,0,1
100603,-100,4,2,1,70,0,1
101009,-200,4,2,1,70,0,0
101414,-66.6666666666667,4,2,1,70,0,1
106076,-133.333333333333,4,2,1,50,0,0
106481,-133.333333333333,4,2,22,50,0,0
106684,-133.333333333333,4,2,2,50,0,0
107495,-200,4,2,1,50,0,0
107900,-80,4,2,1,50,0,0
108711,-200,4,2,1,50,0,0
109522,-80,4,2,5,50,0,0
110333,-200,4,2,1,50,0,0
111144,-80,4,2,1,50,0,0
111448,-80,4,2,5,50,0,0
111954,-200,4,2,1,50,0,0
113576,-80,4,2,1,50,0,0
119860,-80,4,2,5,50,0,0
120873,-80,4,2,1,50,0,0
126346,-80,4,2,2,50,0,0
126549,-80,4,2,1,50,0,0
127157,-80,4,2,5,50,0,0
127765,-80,4,2,2,50,0,0
128779,-80,4,2,1,50,0,0
130198,-100,4,2,1,50,0,0
130603,-80,4,2,1,50,0,0
132225,-66.6666666666667,4,2,1,50,0,0
133238,-200,4,2,1,50,0,0
133846,-100,4,2,1,50,0,0
135063,-200,4,2,1,50,0,0
135468,-100,4,2,1,50,0,0
136684,-200,4,2,1,50,0,0
137090,-100,4,2,1,50,0,0
138306,-200,4,2,1,50,0,0
138711,-100,4,2,1,50,0,0
139319,-100,4,2,2,50,0,0
139522,-80,4,2,1,50,0,0
140941,-80,4,2,2,50,0,0
141752,-80,4,2,1,50,0,0
145400,-66.6666666666667,4,2,1,50,0,0
146414,-100,4,2,1,50,0,0
146819,-80,4,2,1,50,0,0
148036,-100,4,2,1,50,0,0
148441,-86.9565217391304,4,2,1,50,0,0
149657,-100,4,2,1,50,0,0
150063,-80,4,2,1,50,0,0
151279,-100,4,2,1,50,0,0
151684,-80,4,2,1,50,0,0
152698,-200,4,2,1,50,0,0
153306,-80,4,2,1,50,0,0
154117,-80,4,2,2,50,0,0
156346,-400,4,2,1,50,0,0
156752,-80,4,2,1,50,0,0
157968,-80,4,2,5,50,0,0
158779,-80,4,2,2,50,0,0
159387,-200,4,2,1,50,0,0
159792,-80,4,2,1,50,0,0
161009,-200,4,2,1,50,0,0
161414,-80,4,2,5,50,0,0
162630,-200,4,2,1,50,0,0
163036,-80,4,2,1,50,0,0
164657,-66.6666666666667,4,2,1,50,0,0
165873,-100,4,2,1,50,0,0
166279,-66.6666666666667,4,2,5,50,0,0
166583,-66.6666666666667,4,2,1,50,0,0
167292,-133.333333333333,4,2,1,50,0,0
167495,-100,4,2,1,50,0,0
167900,-66.6666666666667,4,2,1,70,0,1
177630,-66.6666666666667,4,2,5,70,0,1
179860,-100,4,2,1,70,0,0
180468,-200,4,2,1,70,0,0
180873,-66.6666666666667,4,2,1,70,0,1
186549,-100,4,2,1,70,0,1
186954,-200,4,2,1,70,0,0
187360,-66.6666666666667,4,2,1,70,0,1
192022,-133.333333333333,4,2,1,50,0,0
192427,-133.333333333333,4,2,22,50,0,0
192630,-133.333333333333,4,2,2,50,0,0
192833,-133.333333333333,4,2,1,50,0,0
193441,-200,4,2,1,50,0,0
193846,-100,4,2,1,50,0,0
194049,-100,4,2,2,5,0,0
199725,-100,4,2,1,50,0,0
199927,-200,4,2,1,50,0,0
200333,-80,4,2,1,50,0,0
202968,-100,4,2,1,50,0,0
203373,-100,4,2,2,50,0,0
203576,-80,4,2,5,50,0,0
204995,-133.333333333333,4,2,1,50,0,0
205400,-133.333333333333,4,2,22,50,0,0
205603,-133.333333333333,4,2,2,50,0,0
205806,-133.333333333333,4,2,1,50,0,0
206414,-200,4,2,1,50,0,0
206819,-80,4,2,5,50,0,0
216549,-80,4,2,1,50,0,0
218880,-80,4,2,5,50,0,0
219387,-200,4,2,1,50,0,0
219792,-80,4,2,1,50,0,0
225265,-80,4,2,5,50,0,0
225873,-200,4,2,1,50,0,0
226279,-80,4,2,1,50,0,0
231346,-80,4,2,22,50,0,0
231549,-133.333333333333,4,2,1,50,0,0
232360,-200,4,2,1,50,0,0
232765,-80,4,2,1,50,0,0
244421,-80,4,2,5,50,0,0
245738,-200,4,2,1,50,0,0
245840,-200,4,2,22,40,0,0
257698,-133.333333333333,4,2,1,50,0,0
257900,-100,4,2,1,50,0,0
258204,-133.333333333333,4,2,1,50,0,0
258509,-200,4,2,1,50,0,0
258711,-80,4,2,1,50,0,0
258813,-80,4,2,2,50,0,0
261954,-133.333333333333,4,2,1,50,0,0
262157,-133.333333333333,4,2,2,50,0,0
263981,-200,4,2,1,50,0,0
264184,-200,4,2,2,50,0,0
264387,-100,4,2,1,50,0,0
264691,-133.333333333333,4,2,1,50,0,0
264995,-200,4,2,1,50,0,0
265198,-80,4,2,1,50,0,1
269252,-66.6666666666667,4,2,1,50,0,0
269860,-133.333333333333,4,2,5,50,0,0
269961,-133.333333333333,4,2,5,5,0,0
271076,-133.333333333333,4,2,2,50,0,0
271481,-1000,4,2,1,50,0,0
271583,-1000,4,2,2,5,0,0
274319,-1000,4,2,2,60,0,0
274522,-100,4,2,1,60,0,0
274927,-66.6666666666667,4,2,1,70,0,1
284657,-66.6666666666667,4,2,5,70,0,1
286887,-100,4,2,1,70,0,0
287495,-200,4,2,1,70,0,0
287900,-66.6666666666667,4,2,1,70,0,1
293576,-100,4,2,1,70,0,1
293981,-200,4,2,1,70,0,0
294387,-66.6666666666667,4,2,5,70,0,1
299049,-133.333333333333,4,2,1,70,0,0
299454,-133.333333333333,4,2,22,50,0,0
299657,-133.333333333333,4,2,2,50,0,0
300468,-200,4,2,1,50,0,0
300873,-80,4,2,1,70,0,1
301481,-80,4,2,5,70,0,1
302495,-80,4,2,1,70,0,1
303103,-80,4,2,5,70,0,1
304117,-66.6666666666667,4,2,1,70,0,1
305536,-80,4,2,1,50,0,0
309184,-133.333333333333,4,2,22,50,0,0
309387,-133.333333333333,4,2,2,50,0,0
310198,-200,4,2,1,50,0,0
310603,-79.9999999999999,4,2,5,50,0,0
316076,-79.9999999999999,4,2,1,50,0,0
316481,-200,4,2,1,50,0,0
317090,-80,4,2,1,50,0,0
322461,-80,4,2,5,50,0,0
322765,-80,4,2,1,50,0,0
323069,-200,4,2,5,50,0,0
323779,-200,4,2,22,50,0,0
323981,-200,4,2,1,50,0,0
324387,-133.333333333333,4,2,1,50,0,0
324792,-200,4,2,1,50,0,0
325198,-80,4,2,1,50,0,0
325806,-200,4,2,1,50,0,0
325907,-200,4,2,1,5,0,0

[Colours]
Combo1 : 255,128,191
Combo2 : 191,191,255
Combo3 : 128,128,255
Combo4 : 128,0,255
Combo5 : 159,64,255
Combo6 : 255,0,128

[HitObjects]
44,260,648,21,0,0:0:0:0:
116,173,886,1,0,0:0:0:0:
5,155,1124,1,0,0:0:0:0:
121,252,1363,70,0,P|155:250|188:258,1,67.5
252,324,1839,1,0,0:0:0:0:
344,224,2077,2,0,P|328:289|350:353,1,135
344,120,3029,6,0,B|412:162|432:10|284:23|306:143|212:110,1,270
225,8,4220,1,0,0:0:0:0:
131,48,4458,2,0,P|110:127|154:196,1,168.75
104,261,5172,70,0,P|163:230|229:241,1,135
316,276,5886,2,0,P|356:277|387:264,1,67.5
235,338,6362,2,0,P|195:337|164:350,1,67.5
419,365,6839,6,0,B|498:325|482:237|482:237|442:177|469:129,1,270
24,56,9657,21,2,0:0:0:0:
25,71,9725,1,2,0:0:0:0:
26,87,9792,2,0,L|37:221,1,135,8|0,0:0|0:0,0:0:0:0:
104,56,10096,54,0,L|112:156,1,101.250003862381,2|0,0:0|0:0,0:0:0:0:
182,25,10400,70,0,L|184:58,1,33.75,2|0,0:0|0:0,0:0:0:0:
224,168,10603,22,0,B|351:156|351:156|329:190,1,168.75,6|0,0:0|0:0,0:0:0:0:
512,248,10907,2,0,B|384:259|384:259|406:225,1,168.75,2|0,0:0|0:0,0:0:0:0:
353,334,11211,2,0,P|319:310|303:271,1,84.375,2|0,0:0|0:0,0:0:0:0:
488,72,11414,54,0,B|472:120|472:120|484:176,1,101.25,8|0,0:0|0:0,0:0:0:0:
392,120,11819,70,0,L|397:52,1,67.5
303,9,12022,1,4,0:0:0:0:
300,48,12123,1,4,0:0:0:0:
297,87,12225,38,0,P|256:98|216:86,1,84.375,4|0,0:0|0:0,0:0:0:0:
136,40,12427,1,4,0:0:0:0:
138,0,12529,2,0,P|97:-10|58:2,1,84.375,4|4,0:0|0:0,0:0:0:0:
44,88,12731,1,0,0:0:0:0:
44,136,12833,2,0,L|18:136,1,25.3125009655953,2|2,0:0|0:0,0:0:0:0:
44,184,12934,2,0,L|18:184,1,25.3125009655953,2|2,0:0|0:0,0:0:0:0:
84,256,13036,6,0,L|-1:263,1,84.375,8|4,0:0|0:0,0:0:0:0:
0,368,13238,1,4,0:0:0:0:
39,371,13340,1,4,0:0:0:0:
108,328,13441,1,4,0:0:0:0:
147,325,13542,1,4,0:0:0:0:
192,384,13644,2,0,L|184:299,1,84.375,2|2,0:0|0:0,0:0:0:0:
320,240,13846,70,0,B|256:234|256:234|226:207|226:207|161:202,1,168.75,2|0,0:0|0:0,0:0:0:0:
304,384,14150,2,0,B|340:331|340:331|378:319|378:319|415:266,1,168.75,2|0,0:0|0:0,0:0:0:0:
504,192,14454,2,0,L|511:276,1,84.375,2|0,0:0|0:0,0:0:0:0:
338,162,14657,54,0,B|287:159|287:159|248:128,1,101.25,8|0,0:0|0:0,0:0:0:0:
344,16,15063,69,4,0:0:0:0:
346,47,15164,1,4,0:0:0:0:
416,136,15265,1,4,0:0:0:0:
418,104,15367,1,4,0:0:0:0:
500,84,15468,38,0,L|507:-1,1,84.375,2|0,0:0|0:0,0:0:0:0:
344,16,15671,1,2,0:0:0:0:
305,16,15772,1,2,0:0:0:0:
223,59,15873,2,0,L|225:33,1,25.3125009655953,2|2,0:0|0:0,0:0:0:0:
184,59,15975,2,0,L|186:33,1,25.3125009655953,2|2,0:0|0:0,0:0:0:0:
106,78,16076,2,0,L|102:103,1,25.3125009655953,2|2,0:0|0:0,0:0:0:0:
67,78,16177,2,0,L|63:103,1,25.3125009655953,2|2,0:0|0:0,0:0:0:0:
70,187,16279,6,0,L|63:103,1,84.375,8|0,0:0|0:0,0:0:0:0:
224,280,16481,1,2,0:0:0:0:
150,330,16583,6,0,B|134:339|134:339|102:272|129:208|183:180,1,202.500007724762,2|2,0:0|0:0,0:0:0:0:
300,315,16887,1,8,0:0:0:0:
292,231,16988,1,0,0:0:0:0:
284,147,17090,54,0,B|411:135|411:135|382:164,1,168.75,6|0,0:0|0:0,0:0:0:0:
456,352,17394,2,0,B|382:247|382:247|421:257,1,168.75,2|0,0:0|0:0,0:0:0:0:
487,111,17698,2,0,P|489:153|467:188,1,84.375,2|0,0:0|0:0,0:0:0:0:
238,198,17900,54,0,P|297:80|308:211,1,354.375013518334,8|0,0:0|0:0,0:0:0:0:
318,239,18711,5,4,0:0:0:0:
372,191,18813,1,4,0:0:0:0:
379,120,18914,1,4,0:0:0:0:
335,62,19015,1,4,0:0:0:0:
266,48,19117,1,4,0:0:0:0:
204,86,19218,1,4,0:0:0:0:
184,155,19319,1,4,0:0:0:0:
216,219,19421,2,0,L|214:227,1,8.4375,2|2,0:0|0:0,0:0:0:0:
260,282,19522,38,0,B|223:245|172:261|172:261|116:300|72:272,1,202.500007724762,8|0,0:0|0:0,0:0:0:0:
89,151,19826,38,0,P|104:171|112:195,2,50.6250019311906,2|0|0,0:0|0:0|0:0,0:0:0:0:
141,35,20130,70,0,P|132:49|126:65,1,33.75,2|0,0:0|0:0,0:0:0:0:
266,48,20333,22,0,B|393:36|393:36|426:60,1,168.75,2|0,0:0|0:0,0:0:0:0:
440,184,20637,2,0,B|513:79|513:79|510:38,1,168.75,2|0,0:0|0:0,0:0:0:0:
368,128,20941,2,0,L|283:135,1,84.375,2|0,0:0|0:0,0:0:0:0:
512,272,21144,54,0,B|480:269|480:269|447:274|447:274|411:271,1,101.25,8|0,0:0|0:0,0:0:0:0:
488,352,21549,70,0,B|461:359|461:359|421:355,3,67.5,4|4|4|4,0:0|0:0|0:0|0:0,0:0:0:0:
329,297,21954,38,0,P|326:256|343:218,1,84.375,2|0,0:0|0:0,0:0:0:0:
264,352,22157,1,8,0:0:0:0:
179,359,22259,1,8,0:0:0:0:
130,288,22360,1,2,0:0:0:0:
115,286,22427,1,2,0:0:0:0:
101,285,22495,1,2,0:0:0:0:
87,284,22563,2,0,L|79:368,1,84.375,8|8,0:0|0:0,0:0:0:0:
88,196,22765,5,2,0:0:0:0:
159,146,22867,2,0,L|152:62,1,84.375,8|2,0:0|0:0,0:0:0:0:
72,168,23069,1,2,0:0:0:0:
0,118,23171,2,0,L|7:34,1,84.375,8|0,0:0|0:0,0:0:0:0:
240,108,23373,2,0,L|233:24,1,84.375
440,96,23576,69,6,0:0:0:0:
455,187,23677,2,0,P|425:217|413:257,1,84.375
249,195,23880,2,0,P|290:205|331:195,1,84.375,0|2,0:0|0:0,0:0:0:0:
461,196,24083,2,0,P|431:227|419:267,1,84.375
255,204,24286,2,0,P|296:214|337:206,1,84.375,0|2,0:0|0:0,0:0:0:0:
467,205,24488,2,0,P|438:236|425:276,1,84.375
261,213,24691,2,0,P|302:224|343:217,1,84.375,0|2,0:0|0:0,0:0:0:0:
404,364,24894,2,0,P|337:318|257:337,1,168.75
90,277,25198,69,2,0:0:0:0:
139,353,25299,2,0,P|167:323|180:283,1,84.375,0|0,0:0|0:0,0:0:0:0:
49,206,25502,2,0,P|61:246|90:277,1,84.375,0|2,0:0|0:0,0:0:0:0:
221,201,25704,2,0,P|180:191|139:200,1,84.375,0|0,0:0|0:0,0:0:0:0:
0,48,25907,37,0,0:0:0:0:
40,118,26009,1,2,0:0:0:0:
120,118,26110,1,0,0:0:0:0:
161,49,26211,1,0,0:0:0:0:
241,49,26313,1,0,0:0:0:0:
281,118,26414,1,2,0:0:0:0:
304,160,26515,2,0,B|365:165|365:165|415:153|415:153|470:158,1,168.75
440,48,26819,53,2,0:0:0:0:
358,6,26921,2,0,P|348:46|357:87,1,84.375
470,239,27123,2,0,P|479:198|470:157,1,84.375,0|2,0:0|0:0,0:0:0:0:
371,5,27326,2,0,P|362:46|373:87,1,84.375
486,243,27529,2,0,P|495:202|486:161,1,84.375,0|2,0:0|0:0,0:0:0:0:
383,7,27731,2,0,P|376:49|386:90,1,84.375
502,247,27934,2,0,P|511:206|502:165,1,84.375,0|2,0:0|0:0,0:0:0:0:
276,276,28137,2,0,B|246:249|246:249|374:260,1,168.75
175,298,28441,69,2,0:0:0:0:
90,341,28542,2,0,P|80:300|89:259,1,84.375,0|0,0:0|0:0,0:0:0:0:
0,137,28745,2,0,P|40:148|70:177,1,84.375,0|2,0:0|0:0,0:0:0:0:
222,162,28948,2,0,P|191:190|151:202,1,84.375,0|0,0:0|0:0,0:0:0:0:
243,20,29150,37,0,0:0:0:0:
294,106,29252,1,2,0:0:0:0:
395,105,29353,1,0,0:0:0:0:
446,191,29454,1,0,0:0:0:0:
396,278,29556,1,0,0:0:0:0:
447,364,29657,1,8,0:0:0:0:
289,301,29759,2,0,B|268:267|268:267|397:279,1,168.75
116,372,30063,53,6,0:0:0:0:
200,379,30164,2,0,B|194:337|194:337|168:304,1,84.375
30,172,30367,2,0,B|68:188|68:188|112:184,1,84.375,0|8,0:0|0:0,0:0:0:0:
206,363,30569,2,0,B|200:322|200:322|175:289,1,84.375
36,157,30772,2,0,B|73:173|73:173|118:168,1,84.375,0|8,0:0|0:0,0:0:0:0:
212,348,30975,2,0,B|208:310|208:310|181:274,1,84.375
43,144,31177,2,0,B|78:159|78:159|125:154,1,84.375,0|8,0:0|0:0,0:0:0:0:
189,30,31380,2,0,B|194:86|194:86|214:133|214:133|220:195,1,168.75,0|0,0:0|0:0,0:0:0:0:
416,152,31684,69,8,0:0:0:0:
370,67,31786,2,0,P|330:53|288:59,1,84.375,0|0,0:0|0:0,0:0:0:0:
416,152,31988,2,0,P|447:124|462:85,1,84.375,0|8,0:0|0:0,0:0:0:0:
319,148,32191,2,0,P|327:188|353:221,1,84.375,0|0,0:0|0:0,0:0:0:0:
469,303,32394,37,0,0:0:0:0:
387,295,32495,1,8,0:0:0:0:
340,361,32596,1,0,0:0:0:0:
260,353,32698,1,0,0:0:0:0:
227,280,32799,1,0,0:0:0:0:
146,271,32900,1,8,0:0:0:0:
112,304,33002,2,0,B|83:255|83:255|92:143,1,168.75,0|0,0:0|0:0,0:0:0:0:
184,48,33306,53,8,0:0:0:0:
221,125,33407,2,0,B|233:166|233:166|224:207,1,84.375,0|8,0:0|0:0,0:0:0:0:
496,104,33610,2,0,B|483:62|483:62|492:21,1,84.375,0|8,0:0|0:0,0:0:0:0:
353,221,33813,2,0,B|394:208|394:208|435:217,1,84.375,0|8,0:0|0:0,0:0:0:0:
364,8,34015,2,0,B|322:20|322:20|281:11,1,84.375,0|8,0:0|0:0,0:0:0:0:
512,108,34218,2,0,B|499:66|499:66|508:25,1,84.375,0|8,0:0|0:0,0:0:0:0:
506,258,34421,1,2,0:0:0:0:
434,217,34522,1,8,0:0:0:0:
352,222,34623,1,8,0:0:0:0:
286,274,34725,1,8,0:0:0:0:
261,353,34826,1,6,0:0:0:0:
417,379,34927,38,0,B|384:348|384:348|261:352,1,168.75,6|0,0:0|0:0,0:0:0:0:
204,291,35231,2,0,L|119:278,1,84.375,6|0,0:0|0:0,0:0:0:0:
365,15,35536,2,0,L|449:22,1,84.375,6|0,0:0|0:0,0:0:0:0:
56,31,36549,22,0,P|29:93|42:158,1,135,6|0,0:0|0:0,0:0:0:0:
104,210,36853,1,0,0:0:0:0:
135,212,36954,1,2,0:0:0:0:
229,158,37157,1,0,0:0:0:0:
216,304,37360,2,0,L|81:292,1,135,2|0,0:0|0:0,0:0:0:0:
48,360,37664,1,0,0:0:0:0:
17,362,37765,1,2,0:0:0:0:
135,212,37968,1,0,0:0:0:0:
296,377,38171,22,0,P|322:315|309:250,1,135,2|0,0:0|0:0,0:0:0:0:
244,200,38475,1,0,0:0:0:0:
242,169,38576,2,0,L|236:101,1,67.5,2|0,0:0|0:0,0:0:0:0:
384,64,38779,2,0,L|372:198,1,135,0|2,0:0|0:0,0:0:0:0:
493,324,39184,1,0,0:0:0:0:
464,128,39387,1,2,0:0:0:0:
309,250,39590,1,0,0:0:0:0:
168,32,39792,54,0,P|229:5|294:18,1,135,2|0,0:0|0:0,0:0:0:0:
360,64,40096,1,0,0:0:0:0:
358,95,40198,1,2,0:0:0:0:
152,116,40400,1,0,0:0:0:0:
13,243,40603,2,0,L|147:231,1,135,2|0,0:0|0:0,0:0:0:0:
206,184,40907,1,0,0:0:0:0:
237,186,41009,2,0,L|371:197,1,135,2|0,0:0|0:0,0:0:0:0:
472,360,41414,22,0,P|447:298|470:236,1,135,2|0,0:0|0:0,0:0:0:0:
504,168,41718,1,0,0:0:0:0:
506,137,41819,1,2,0:0:0:0:
281,267,42022,1,4,0:0:0:0:
274,268,42090,1,4,0:0:0:0:
267,269,42157,1,4,0:0:0:0:
260,270,42225,6,0,B|271:151|271:151|237:186,1,168.75,2|0,0:0|0:0,0:0:0:0:
168,24,42529,2,0,B|157:143|157:143|191:108,1,168.75,6|0,0:0|0:0,0:0:0:0:
7,184,42833,2,0,P|121:220|129:339,1,253.125,2|0,0:0|0:0,0:0:0:0:
39,286,43238,1,2,0:0:0:0:
226,253,43441,2,0,L|310:261,1,84.375,4|0,0:0|0:0,0:0:0:0:
368,368,43644,1,2,0:0:0:0:
375,367,43711,1,2,0:0:0:0:
383,366,43779,1,2,0:0:0:0:
391,365,43846,54,0,L|447:360,1,56.25,2|0,0:0|0:0,0:0:0:0:
216,128,44150,2,0,L|192:178,1,56.25,2|0,0:0|0:0,0:0:0:0:
508,94,44454,2,0,L|476:48,1,56.25,6|0,0:0|0:0,0:0:0:0:
40,120,45873,54,0,P|110:78|34:47,1,202.5,0|0,0:0|0:0,0:0:0:0:
84,200,46279,6,0,P|125:188|156:160,1,84.375,6|0,0:0|0:0,0:0:0:0:
216,24,46481,1,0,0:0:0:0:
255,20,46583,1,0,0:0:0:0:
295,17,46684,2,0,L|287:101,1,84.375,2|0,0:0|0:0,0:0:0:0:
432,144,46887,2,0,L|424:59,1,84.375,0|0,0:0|0:0,0:0:0:0:
328,200,47090,53,2,0:0:0:0:
332,239,47191,1,0,0:0:0:0:
336,278,47292,1,0,0:0:0:0:
340,317,47394,1,0,0:0:0:0:
344,356,47495,2,0,L|259:348,1,84.375,2|0,0:0|0:0,0:0:0:0:
424,256,47698,2,0,L|508:248,1,84.375,0|0,0:0|0:0,0:0:0:0:
232,247,47900,69,2,0:0:0:0:
240,146,48002,1,2,0:0:0:0:
331,102,48103,2,0,B|344:144|344:144|328:200,1,101.250003862381,12|0,0:0|0:0,0:0:0:0:
149,190,48306,1,8,0:0:0:0:
157,94,48407,2,0,B|199:103|199:103|240:146,1,101.250003862381,2|0,0:0|0:0,0:0:0:0:
140,344,48610,1,12,0:0:0:0:
140,344,48914,22,0,B|202:349|202:349|225:367|225:367|250:353|250:353|298:357,1,168.75,12|0,0:0|0:0,0:0:0:0:
392,352,49522,6,0,P|377:287|400:224,1,135,6|0,0:0|0:0,0:0:0:0:
464,184,49826,1,0,0:0:0:0:
466,153,49927,1,2,0:0:0:0:
371,0,50130,1,0,0:0:0:0:
236,119,50333,2,0,L|371:131,1,135,2|0,0:0|0:0,0:0:0:0:
169,181,50738,70,0,B|145:140|145:140|152:86,1,101.25,8|0,0:0|0:0,0:0:0:0:
42,32,51144,38,0,P|68:93|56:159,1,135,2|0,0:0|0:0,0:0:0:0:
0,209,51448,1,0,0:0:0:0:
3,240,51549,1,2,0:0:0:0:
160,336,51752,2,0,L|25:324,1,135,0|2,0:0|0:0,0:0:0:0:
184,208,52157,1,0,0:0:0:0:
272,368,52360,38,0,B|326:375|326:375|366:351,1,101.25,8|0,0:0|0:0,0:0:0:0:
432,288,52765,6,0,P|416:223|440:160,1,135,2|0,0:0|0:0,0:0:0:0:
488,104,53069,1,0,0:0:0:0:
485,73,53171,1,2,0:0:0:0:
272,152,53373,2,0,L|339:146,1,67.5,0|0,0:0|0:0,0:0:0:0:
392,48,53576,2,0,L|257:36,1,135,2|0,0:0|0:0,0:0:0:0:
152,192,53981,70,0,B|159:138|159:138|135:97,1,101.25,8|0,0:0|0:0,0:0:0:0:
73,235,54387,38,0,P|122:278|188:275,1,135,2|0,0:0|0:0,0:0:0:0:
247,227,54691,1,0,0:0:0:0:
278,224,54792,1,2,0:0:0:0:
493,253,54995,1,4,0:0:0:0:
494,246,55063,1,4,0:0:0:0:
495,239,55130,1,4,0:0:0:0:
496,232,55198,6,0,B|484:104|484:104|508:137,1,168.75,6|0,0:0|0:0,0:0:0:0:
336,136,55502,2,0,B|347:8|347:8|323:41,1,168.75,2|0,0:0|0:0,0:0:0:0:
152,200,55806,2,0,B|239:207|239:207|309:237|309:237|398:245,1,253.125,6|0,0:0|0:0,0:0:0:0:
496,232,56211,1,2,0:0:0:0:
232,376,56414,2,0,P|217:336|218:294,1,84.375,8|0,0:0|0:0,0:0:0:0:
152,200,56617,1,4,0:0:0:0:
151,193,56684,1,4,0:0:0:0:
150,185,56752,1,4,0:0:0:0:
149,177,56819,54,0,L|144:121,1,56.25,6|0,0:0|0:0,0:0:0:0:
400,24,57123,2,0,L|450:47,1,56.25,2|0,0:0|0:0,0:0:0:0:
408,318,57427,2,0,L|362:350,1,56.25,6|0,0:0|0:0,0:0:0:0:
112,285,57833,69,2,0:0:0:0:
119,286,57900,1,2,0:0:0:0:
127,287,57968,1,2,0:0:0:0:
134,287,58036,2,0,L|218:294,1,84.375,8|0,0:0|0:0,0:0:0:0:
376,176,58238,1,2,0:0:0:0:
369,177,58306,1,2,0:0:0:0:
361,178,58373,1,2,0:0:0:0:
354,178,58441,22,0,L|269:185,1,84.375,8|0,0:0|0:0,0:0:0:0:
144,68,58644,1,2,0:0:0:0:
223,22,58745,2,0,P|234:61|228:102,1,84.375,8|0,0:0|0:0,0:0:0:0:
144,68,58948,1,2,0:0:0:0:
79,5,59049,2,0,P|57:40|55:82,1,84.375,8|0,0:0|0:0,0:0:0:0:
184,184,59252,54,0,L|99:176,1,84.375,6|0,0:0|0:0,0:0:0:0:
8,272,59454,1,0,0:0:0:0:
4,311,59556,1,0,0:0:0:0:
1,351,59657,2,0,L|85:343,1,84.375,2|0,0:0|0:0,0:0:0:0:
208,272,59860,1,0,0:0:0:0:
247,276,59961,1,0,0:0:0:0:
287,279,60063,22,0,L|371:271,1,84.375,2|0,0:0|0:0,0:0:0:0:
488,384,60265,2,0,L|403:376,1,84.375,0|0,0:0|0:0,0:0:0:0:
445,209,60468,2,0,P|463:246|464:288,1,84.375,2|0,0:0|0:0,0:0:0:0:
354,176,60671,2,0,P|378:141|413:119,1,84.375
340,176,61076,6,0,P|367:133|410:106,1,101.250003862381,6|0,0:0|0:0,0:0:0:0:
240,8,61279,1,8,0:0:0:0:
166,86,61380,2,0,P|210:109|260:112,1,101.250003862381,2|0,0:0|0:0,0:0:0:0:
437,1,61583,1,2,0:0:0:0:
448,24,61887,1,2,0:0:0:0:
89,103,62090,22,0,P|111:23|165:87,1,202.5,8|0,0:0|0:0,0:0:0:0:
56,184,62495,6,0,B|24:157|3:132|3:132|18:311,1,253.125,6|0,0:0|0:0,0:0:0:0:
118,247,62900,2,0,P|139:210|142:169,1,84.375,8|0,0:0|0:0,0:0:0:0:
248,368,63103,1,0,0:0:0:0:
163,338,63204,2,0,P|222:281|302:295,1,168.75,2|0,0:0|0:0,0:0:0:0:
424,368,63509,2,0,P|402:331|399:290,1,84.375,2|0,0:0|0:0,0:0:0:0:
472,224,63711,2,0,B|508:180|508:180|495:35,1,202.5,8|0,0:0|0:0,0:0:0:0:
256,96,64117,22,0,P|367:127|413:20,1,253.125,2|0,0:0|0:0,0:0:0:0:
183,148,64522,2,0,P|168:108|172:67,1,84.375,8|0,0:0|0:0,0:0:0:0:
0,16,64725,1,0,0:0:0:0:
72,72,64826,2,0,P|75:154|30:224,1,168.75,2|0,0:0|0:0,0:0:0:0:
48,352,65130,2,0,P|63:313|95:286,1,84.375,2|0,0:0|0:0,0:0:0:0:
208,384,65333,2,0,L|275:378,1,67.5,8|0,0:0|0:0,0:0:0:0:
240,248,65536,2,0,L|172:242,1,67.5,0|0,0:0|0:0,0:0:0:0:
400,320,65738,54,0,B|355:372|355:372|371:188,1,253.125,2|0,0:0|0:0,0:0:0:0:
480,288,66144,2,0,P|486:329|471:368,1,84.375,8|0,0:0|0:0,0:0:0:0:
436,131,66346,1,0,0:0:0:0:
473,47,66448,2,0,P|524:109|504:188,1,168.75,2|0,0:0|0:0,0:0:0:0:
291,162,66752,2,0,P|312:126|349:106,1,84.375,2|0,0:0|0:0,0:0:0:0:
192,8,66954,2,0,B|170:43|170:43|331:29,1,202.5,8|0,0:0|0:0,0:0:0:0:
144,224,67360,22,0,P|115:112|0:126,1,253.125,2|0,0:0|0:0,0:0:0:0:
67,267,67765,2,0,P|56:226|66:185,1,84.375,8|0,0:0|0:0,0:0:0:0:
224,307,67968,1,0,0:0:0:0:
296,250,68069,2,0,B|261:213|261:213|144:224,1,168.75,6|0,0:0|0:0,0:0:0:0:
0,360,68373,38,0,B|47:355|47:355|81:376|81:376|128:356|128:356|158:354,1,168.75,8|0,0:0|0:0,0:0:0:0:
272,375,68981,6,0,P|343:336|421:362,1,168.75,6|0,0:0|0:0,0:0:0:0:
496,264,69286,1,0,0:0:0:0:
464,280,69387,2,0,P|393:237|377:157,1,168.75,8|0,0:0|0:0,0:0:0:0:
432,80,69691,1,0,0:0:0:0:
447,40,69792,21,6,0:0:0:0:
412,61,69894,1,4,0:0:0:0:
371,71,69995,1,4,0:0:0:0:
329,68,70096,1,4,0:0:0:0:
242,8,70198,2,0,P|227:88|276:155,1,168.75,8|0,0:0|0:0,0:0:0:0:
379,321,70502,1,0,0:0:0:0:
410,304,70603,54,0,P|425:224|377:158,1,168.75,2|0,0:0|0:0,0:0:0:0:
152,197,70907,1,0,0:0:0:0:
158,231,71009,2,0,L|326:246,1,168.75,8|0,0:0|0:0,0:0:0:0:
272,336,71313,1,0,0:0:0:0:
247,375,71414,21,6,0:0:0:0:
215,350,71515,1,4,0:0:0:0:
175,336,71617,1,4,0:0:0:0:
133,338,71718,1,4,0:0:0:0:
40,384,71819,53,2,0:0:0:0:
43,341,71921,2,0,L|45:312,1,28.125,0|8,0:0|0:0,0:0:0:0:
104,252,72022,69,8,0:0:0:0:
103,245,72089,1,10,0:0:0:0:
102,237,72157,1,10,0:0:0:0:
101,230,72225,1,0,0:0:0:0:
148,48,72427,38,0,B|140:88|140:88|148:136,1,84.375,6|0,0:0|0:0,0:0:0:0:
292,56,72630,2,0,B|261:29|261:29|215:12,1,84.375,8|0,0:0|0:0,0:0:0:0:
213,176,72833,2,0,B|251:162|251:162|289:132,1,84.375,0|4,0:0|0:0,0:0:0:0:
480,152,73036,2,0,P|470:193|474:234,1,84.375,2|0,0:0|0:0,0:0:0:0:
310,323,73238,1,8,0:0:0:0:
391,367,73340,2,0,P|400:326|396:285,1,84.375,6|0,0:0|0:0,0:0:0:0:
391,368,73644,54,0,P|390:268|320:200,1,202.5,6|0,0:0|0:0,0:0:0:0:
240,200,74049,2,0,P|208:213|181:244,1,67.5,2|0,0:0|0:0,0:0:0:0:
263,362,74252,2,0,P|321:304|240:290,1,202.5,8|0,0:0|0:0,0:0:0:0:
148,364,74657,22,0,P|133:333|133:300,1,67.5,6|0,0:0|0:0,0:0:0:0:
56,136,74860,1,0,0:0:0:0:
58,150,74927,1,0,0:0:0:0:
60,166,74995,1,0,0:0:0:0:
61,182,75063,38,0,B|65:229|65:229|45:279,1,101.25,2|0,0:0|0:0,0:0:0:0:
153,127,75468,22,0,P|193:118|234:125,1,84.375,6|0,0:0|0:0,0:0:0:0:
424,40,75671,2,0,P|383:49|342:42,1,84.375,0|0,0:0|0:0,0:0:0:0:
504,192,75873,2,0,L|511:107,1,84.375,2|0,0:0|0:0,0:0:0:0:
336,144,76076,2,0,L|343:228,1,84.375,0|0,0:0|0:0,0:0:0:0:
511,301,76279,2,0,P|469:296|433:274,1,84.375,2|0,0:0|0:0,0:0:0:0:
264,304,76481,2,0,P|305:308|341:330,1,84.375,0|0,0:0|0:0,0:0:0:0:
8,384,76684,54,0,B|24:336|24:336|16:283,1,101.25,8|0,0:0|0:0,0:0:0:0:
128,224,77090,22,0,L|212:231,1,84.375,6|0,0:0|0:0,0:0:0:0:
84,120,77292,2,0,L|0:128,1,84.375,0|0,0:0|0:0,0:0:0:0:
169,49,77495,2,0,P|189:86|192:128,1,84.375,2|0,0:0|0:0,0:0:0:0:
328,248,77698,2,0,P|307:211|304:169,1,84.375,0|0,0:0|0:0,0:0:0:0:
368,56,77900,2,0,L|283:48,1,84.375,2|0,0:0|0:0,0:0:0:0:
409,182,78103,2,0,L|493:174,1,84.375,0|0,0:0|0:0,0:0:0:0:
192,368,78306,54,0,B|242:361|242:361|290:377,1,101.25,6|0,0:0|0:0,0:0:0:0:
432,368,78711,6,0,L|424:283,1,84.375,12|0,0:0|0:0,0:0:0:0:
203,138,78914,2,0,L|195:222,1,84.375,8|0,0:0|0:0,0:0:0:0:
442,377,79117,2,0,L|434:285,1,84.375,8|0,0:0|0:0,0:0:0:0:
192,128,79319,2,0,L|183:219,1,84.375,8|0,0:0|0:0,0:0:0:0:
470,355,79522,21,8,0:0:0:0:
424,283,79623,1,8,0:0:0:0:
344,266,79725,1,10,0:0:0:0:
275,310,79826,1,8,0:0:0:0:
170,381,79927,21,10,0:0:0:0:
176,296,80029,1,8,0:0:0:0:
183,211,80130,1,8,0:0:0:0:
192,128,80232,1,8,0:0:0:0:
98,34,80333,70,0,L|198:43,1,101.250003862381,6|0,0:0|0:0,0:0:0:0:
356,20,80536,1,8,0:0:0:0:
351,220,80637,2,0,P|276:157|283:59,1,202.500007724762,14|0,0:0|0:0,0:0:0:0:
440,216,80941,2,0,P|428:264|393:299,1,101.250003862381,14|8,0:0|0:0,0:0:0:0:
95,302,81346,21,0,0:0:0:0:
32,341,81549,2,0,P|25:259|95:302,1,202.5,10|0,0:0|0:0,0:0:0:0:
18,180,81954,54,0,B|72:165|120:197|120:197|175:213|208:178,1,202.500007724762,6|0,0:0|0:0,0:0:0:0:
286,24,82259,1,0,0:0:0:0:
193,25,82360,2,0,P|159:62|151:111,1,101.250003862381,8|0,0:0|0:0,0:0:0:0:
336,272,82563,1,0,0:0:0:0:
388,195,82664,1,0,0:0:0:0:
348,112,82765,6,0,L|248:104,1,101.250003862381,2|0,0:0|0:0,0:0:0:0:
436,21,82968,2,0,B|452:69|452:69|440:119,1,101.250003862381,0|0,0:0|0:0,0:0:0:0:
260,215,83171,2,0,B|231:181|231:181|388:195,1,202.500007724762,8|0,0:0|0:0,0:0:0:0:
205,286,83475,1,0,0:0:0:0:
225,373,83576,70,0,P|293:306|261:216,1,202.500007724762,2|0,0:0|0:0,0:0:0:0:
63,214,83880,1,0,0:0:0:0:
109,294,83981,2,0,P|158:304|205:287,1,101.250003862381,8|0,0:0|0:0,0:0:0:0:
308,90,84184,1,0,0:0:0:0:
221,51,84286,1,0,0:0:0:0:
143,107,84387,6,0,L|152:208,1,101.250003862381,2|0,0:0|0:0,0:0:0:0:
0,24,84590,2,0,B|50:12|50:12|98:28,1,101.250003862381
65,296,84792,2,0,B|29:252|29:252|42:107,1,202.500007724762,8|0,0:0|0:0,0:0:0:0:
206,286,85096,1,0,0:0:0:0:
248,200,85198,70,0,P|199:190|152:208,1,101.250003862381,2|0,0:0|0:0,0:0:0:0:
300,279,85400,2,0,P|334:241|342:192,1,101.250003862381,0|0,0:0|0:0,0:0:0:0:
206,285,85603,2,0,P|221:333|260:365,1,101.250003862381,8|0,0:0|0:0,0:0:0:0:
496,312,85806,2,0,L|395:303,1,101.250003862381,0|0,0:0|0:0,0:0:0:0:
289,115,86009,5,2,0:0:0:0:
342,192,86110,1,0,0:0:0:0:
436,184,86211,2,0,L|444:83,1,101.250003862381,0|0,0:0|0:0,0:0:0:0:
289,115,86414,2,0,L|280:14,1,101.250003862381,8|0,0:0|0:0,0:0:0:0:
133,146,86617,2,0,L|142:46,1,101.250003862381,0|0,0:0|0:0,0:0:0:0:
26,192,86819,70,0,B|53:141|53:141|66:285,1,202.500007724762,2|0,0:0|0:0,0:0:0:0:
203,353,87123,1,0,0:0:0:0:
264,277,87225,2,0,P|218:255|169:260,1,101.250003862381,8|0,0:0|0:0,0:0:0:0:
6,358,87427,2,0,P|51:379|100:374,1,101.250003862381,0|0,0:0|0:0,0:0:0:0:
328,208,87630,6,0,B|300:259|305:315|341:360|341:360|337:319,1,202.500007724762,2|0,0:0|0:0,0:0:0:0:
234,185,87934,1,2,0:0:0:0:
301,115,88036,1,8,0:0:0:0:
301,115,88238,70,0,B|356:93|435:142|424:228|424:228|432:176|470:137,1,303.750011587143,6|0,0:0|0:0,0:0:0:0:
512,8,88644,2,0,P|469:34|419:35,1,101.250003862381,0|0,0:0|0:0,0:0:0:0:
234,185,88846,2,0,P|206:92|271:20,1,202.500007724762,10|0,0:0|0:0,3:0:0:0:
327,207,89150,1,0,0:0:0:0:
264,277,89252,6,0,P|214:281|169:259,1,101.250003862381,2|0,0:0|0:0,0:0:0:0:
56,128,89454,2,0,P|84:168|88:218,1,101.250003862381,0|0,0:0|0:0,0:0:0:0:
30,382,89657,2,0,P|51:336|92:308,1,101.250003862381,8|0,0:0|0:0,0:0:0:0:
234,185,89860,2,0,L|225:84,1,101.250003862381,0|0,0:0|0:0,0:0:0:0:
360,232,90063,70,0,L|352:333,1,101.250003862381,2|0,0:0|0:0,0:0:0:0:
480,240,90265,2,0,L|488:139,1,101.250003862381,0|0,0:0|0:0,0:0:0:0:
320,136,90468,2,0,P|408:98|411:2,1,202.500007724762,8|0,0:0|0:0,0:0:0:0:
272,16,90772,1,0,0:0:0:0:
225,84,90873,2,0,L|23:66,1,202.500007724762,2|0,0:0|0:0,0:0:0:0:
30,334,91177,1,0,0:0:0:0:
101,286,91279,2,0,P|91:190|1:158,1,202.500007724762,8|0,0:0|0:0,0:0:0:0:
24,248,91583,1,0,0:0:0:0:
108,372,91684,6,0,B|210:332|210:412|304:373,1,202.500007724762,6|0,0:0|0:0,0:0:0:0:
403,205,91988,1,0,0:0:0:0:
451,290,92090,2,0,B|348:329|348:249|254:288,1,202.500007724762,8|0,0:0|0:0,0:0:0:0:
112,200,92394,1,0,0:0:0:0:
141,284,92495,70,0,P|181:254|199:207,1,101.250003862381,2|0,0:0|0:0,0:0:0:0:
24,183,92698,2,0,P|29:232|60:271,1,101.250003862381,0|0,0:0|0:0,0:0:0:0:
170,132,92900,2,0,P|124:111|74:119,1,101.250003862381,8|0,0:0|0:0,0:0:0:0:
240,16,93103,2,0,P|285:36|335:28,1,101.250003862381,6|0,0:0|0:0,0:0:0:0:
512,112,93306,6,0,L|411:103,1,101.250003862381,2|0,0:0|0:0,0:0:0:0:
328,224,93509,2,0,L|428:215,1,101.250003862381,2|0,0:0|0:0,0:0:0:0:
344,335,93711,2,0,L|244:327,1,101.250003862381,2|0,0:0|0:0,0:0:0:0:
16,384,93914,22,0,P|54:329|58:262,1,135,6|0,0:0|0:0,0:0:0:0:
130,213,94218,1,8,0:0:0:0:
137,300,94319,1,2,0:0:0:0:
480,16,94522,70,0,B|440:19|440:19|415:13|415:13|379:16,1,101.25,10|0,0:0|0:0,0:0:0:0:
304,200,94927,54,0,P|334:108|269:36,1,202.500007724762,6|0,0:0|0:0,0:0:0:0:
120,24,95231,1,0,0:0:0:0:
145,115,95333,2,0,P|190:136|240:129,1,101.250003862381,8|0,0:0|0:0,0:0:0:0:
395,223,95536,1,0,0:0:0:0:
304,200,95637,1,0,0:0:0:0:
237,267,95738,6,0,L|228:367,1,101.250003862381,2|0,0:0|0:0,0:0:0:0:
48,248,95941,2,0,B|96:232|96:232|146:244,1,101.250003862381
423,325,96144,2,0,B|352:332|352:332|298:360|298:360|229:367,1,202.500007724762,8|0,0:0|0:0,0:0:0:0:
395,223,96448,1,0,0:0:0:0:
487,251,96549,70,0,P|467:157|375:127,1,202.500007724762,2|0,0:0|0:0,0:0:0:0:
212,177,96853,1,0,0:0:0:0:
237,267,96954,2,0,P|280:243|305:199,1,101.250003862381,8|0,0:0|0:0,0:0:0:0:
50,56,97157,1,0,0:0:0:0:
132,22,97259,1,0,0:0:0:0:
203,76,97360,6,0,L|212:177,1,101.250003862381,2|0,0:0|0:0,0:0:0:0:
1,137,97563,2,0,B|51:149|51:149|99:133,1,101.250003862381,0|0,0:0|0:0,0:0:0:0:
54,291,97765,2,0,B|81:253|81:253|237:267,1,202.500007724762,8|0,0:0|0:0,0:0:0:0:
419,270,98069,1,0,0:0:0:0:
395,361,98171,70,0,P|351:336|327:292,1,101.250003862381,2|0,0:0|0:0,0:0:0:0:
444,179,98373,1,0,0:0:0:0:
444,179,98576,2,0,P|394:177|352:204,1,101.250003862381,8|0,0:0|0:0,0:0:0:0:
220,71,98779,1,2,0:0:0:0:
222,102,98846,1,2,0:0:0:0:
225,134,98914,1,2,0:0:0:0:
227,166,98981,6,0,L|236:267,1,101.250003862381,2|0,0:0|0:0,0:0:0:0:
444,179,99184,2,0,L|452:78,1,101.250003862381
220,71,99387,2,0,P|269:72|312:46,1,101.250003862381,8|0,0:0|0:0,0:0:0:0:
84,281,99590,70,0,P|33:198|76:111,1,202.500007724762,4|2,0:0|0:0,0:0:0:0:
288,136,99894,1,0,0:0:0:0:
232,203,99995,2,0,L|131:194,1,101.250003862381
243,354,100198,2,0,P|287:331|312:288,1,101.250003862381,8|0,0:0|0:0,0:0:0:0:
48,372,100400,2,0,L|148:363,1,101.250003862381,4|0,0:0|0:0,0:0:0:0:
312,288,100603,38,0,P|321:255|317:222,1,67.5,2|0,0:0|0:0,0:0:0:0:
408,304,100806,2,0,P|398:336|402:369,1,67.5,0|0,0:0|0:0,0:0:0:0:
496,132,101009,70,0,B|487:95|487:95|492:31,1,101.25,10|0,0:0|0:0,0:0:0:0:
384,48,101414,54,0,B|418:18|418:18|404:175,1,202.500007724762,6|0,0:0|0:0,0:0:0:0:
226,194,101718,1,0,0:0:0:0:
204,98,101819,2,0,P|296:127|317:222,1,202.500007724762,8|0,0:0|0:0,0:0:0:0:
415,384,102123,1,0,0:0:0:0:
466,303,102225,6,0,B|364:263|364:343|270:304,1,202.500007724762,2|0,0:0|0:0,0:0:0:0:
88,352,102529,1,0,0:0:0:0:
62,264,102630,2,0,P|111:262|154:288,1,101.250003862381,8|0,0:0|0:0,0:0:0:0:
226,194,102833,2,0,P|176:195|133:169,1,101.250003862381,0|0,0:0|0:0,0:0:0:0:
40,8,103036,70,0,P|62:103|1:179,1,202.500007724762,2|0,0:0|0:0,0:0:0:0:
204,98,103340,1,0,0:0:0:0:
298,128,103441,2,0,P|321:172|317:222,1,101.250003862381,8|0,0:0|0:0,0:0:0:0:
272,372,103644,1,0,0:0:0:0:
367,376,103745,1,0,0:0:0:0:
418,295,103846,6,0,L|409:194,1,101.250003862381,2|0,0:0|0:0,0:0:0:0:
226,194,104049,2,0,L|217:295,1,101.250003862381
390,104,104252,2,0,P|439:106|482:80,1,101.250003862381,8|0,0:0|0:0,0:0:0:0:
232,55,104454,2,0,P|274:28|324:30,1,101.250003862381,0|0,0:0|0:0,0:0:0:0:
83,59,104657,70,0,P|165:110|166:208,1,202.500007724762,2|0,0:0|0:0,0:0:0:0:
0,300,104961,1,0,0:0:0:0:
80,356,105063,2,0,B|120:254|40:254|79:160,1,202.500007724762,8|0,0:0|0:0,0:0:0:0:
208,320,105367,1,0,0:0:0:0:
282,257,105468,6,0,B|317:220|317:220|166:207,1,202.500007724762,2|0,0:0|0:0,0:0:0:0:
336,384,105772,1,0,0:0:0:0:
409,322,105873,2,0,B|422:273|422:273|411:224,1,101.250003862381,8|0,0:0|0:0,0:0:0:0:
256,48,106076,1,14,0:0:0:0:
256,48,106481,5,8,0:0:0:0:
256,128,106583,1,8,0:0:0:0:
256,208,106684,2,0,L|256:256,2,33.7500012874604,4|4|4,0:0|0:0|0:0,0:0:0:0:
256,128,106887,1,8,0:0:0:0:
224,132,106988,1,8,0:0:0:0:
256,208,107090,5,8,0:0:0:0:
288,212,107191,1,8,0:0:0:0:
256,295,107292,1,8,0:0:0:0:
256,311,107360,1,8,0:0:0:0:
256,327,107427,1,8,0:0:0:0:
256,343,107495,70,0,L|256:241,1,101.25,10|0,0:0|0:0,0:0:0:0:
454,178,107900,22,0,B|326:166|326:166|363:149,1,168.75,6|0,0:0|0:0,0:0:0:0:
487,285,108204,2,0,B|524:268|524:268|397:257,1,168.75,2|0,0:0|0:0,0:0:0:0:
256,343,108509,2,0,L|340:335,1,84.375,2|0,0:0|0:0,0:0:0:0:
39,249,108711,54,0,B|102:230|151:273|151:273|215:289|256:241,1,236.25,8|0,0:0|0:0,0:0:0:0:
159,33,109522,22,0,B|148:153|148:153|184:187,1,168.75,6|0,0:0|0:0,0:0:0:0:
39,249,109826,2,0,B|49:129|49:129|14:95,1,168.75,2|0,0:0|0:0,0:0:0:0:
125,255,110130,2,0,L|117:339,1,84.375,2|0,0:0|0:0,0:0:0:0:
445,339,110333,54,0,B|389:323|357:355|357:355|317:323|317:323|277:355|232:340,1,236.25,8|0,0:0|0:0,0:0:0:0:
406,215,111144,22,0,B|372:222|372:222|285:207|285:207|255:241,1,168.75,6|0,0:0|0:0,0:0:0:0:
272,24,111448,2,0,B|295:50|295:50|325:133|325:133|376:144,1,168.75,6|0,0:0|0:0,0:0:0:0:
488,64,111752,2,0,L|403:71,1,84.375,6|0,0:0|0:0,0:0:0:0:
176,256,111954,54,0,B|168:224|168:224|184:192|184:192|168:160|168:160|184:128|184:128|152:96|152:40|175:8,1,270,8|0,0:0|0:0,0:0:0:0:
64,360,113576,38,0,P|19:291|47:215,1,168.75,6|0,0:0|0:0,0:0:0:0:
223,196,113880,2,0,P|186:268|106:282,1,168.75,6|0,0:0|0:0,0:0:0:0:
126,111,114184,2,0,L|133:195,1,84.375,6|0,0:0|0:0,0:0:0:0:
304,232,114387,69,6,0:0:0:0:
307,321,114488,2,0,P|347:307|378:279,1,84.375
460,164,114691,2,0,P|451:204|459:245,1,84.375,0|2,0:0|0:0,0:0:0:0:
308,340,114894,2,0,P|348:326|379:298,1,84.375
475,168,115096,2,0,P|466:208|475:249,1,84.375,0|2,0:0|0:0,0:0:0:0:
309,359,115299,2,0,P|349:345|380:317,1,84.375
491,172,115502,2,0,P|482:212|491:253,1,84.375,0|2,0:0|0:0,0:0:0:0:
192,359,115704,2,0,P|231:288|200:213,1,168.75,0|0,0:0|0:0,0:0:0:0:
26,188,116009,5,2,0:0:0:0:
58,275,116110,2,0,P|98:287|140:283,1,84.375,0|0,0:0|0:0,0:0:0:0:
74,122,116313,2,0,P|43:150|26:188,1,84.375,0|2,0:0|0:0,0:0:0:0:
199,212,116515,2,0,P|189:171|164:137,1,84.375
192,8,116718,5,0,0:0:0:0:
227,83,116819,1,2,0:0:0:0:
309,90,116921,1,0,0:0:0:0:
357,23,117022,1,0,0:0:0:0:
440,32,117123,1,0,0:0:0:0:
474,109,117225,1,2,0:0:0:0:
440,136,117326,2,0,L|454:304,1,168.75,0|0,0:0|0:0,0:0:0:0:
284,324,117630,53,2,0:0:0:0:
289,231,117731,2,0,P|328:243|359:271,1,84.375
200,366,117934,2,0,P|190:326|199:285,1,84.375,0|2,0:0|0:0,0:0:0:0:
296,216,118137,2,0,P|335:228|366:256,1,84.375
183,367,118340,2,0,P|173:327|182:286,1,84.375,0|2,0:0|0:0,0:0:0:0:
303,201,118542,2,0,P|342:213|373:241,1,84.375
166,368,118745,2,0,P|156:328|165:287,1,84.375,0|2,0:0|0:0,0:0:0:0:
434,346,118948,2,0,P|360:381|288:344,1,168.75,0|0,0:0|0:0,0:0:0:0:
396,47,119252,38,0,B|429:25|429:25|424:154,1,168.75,6|0,0:0|0:0,0:0:0:0:
353,207,119556,2,0,L|360:291,1,84.375,2|0,0:0|0:0,0:0:0:0:
40,176,119860,2,0,L|47:91,1,84.375,6|0,0:0|0:0,0:0:0:0:
256,192,120873,5,6,0:0:0:0:
64,296,126346,53,4,0:0:0:0:
63,288,126414,1,4,0:0:0:0:
62,280,126481,1,4,0:0:0:0:
61,272,126549,2,0,B|51:160|51:160|15:211,1,168.75,2|0,0:0|0:0,0:0:0:0:
120,56,126853,2,0,B|129:167|129:167|165:116,1,168.75,6|0,0:0|0:0,0:0:0:0:
407,63,127157,2,0,P|297:110|213:27,1,253.125,6|0,0:0|0:0,0:0:0:0:
317,7,127563,1,2,0:0:0:0:
499,119,127765,2,0,L|491:203,1,84.375,4|0,0:0|0:0,0:0:0:0:
408,286,127968,1,2,0:0:0:0:
408,294,128036,1,2,0:0:0:0:
409,302,128103,1,2,0:0:0:0:
410,310,128171,54,0,L|414:366,1,56.25,2|0,0:0|0:0,0:0:0:0:
244,192,128475,2,0,L|240:248,1,56.25,2|0,0:0|0:0,0:0:0:0:
70,73,128779,2,0,L|75:129,1,56.25,6|0,0:0|0:0,0:0:0:0:
16,344,130198,54,0,B|120:304|120:384|212:345,1,202.5,0|0,0:0|0:0,0:0:0:0:
174,180,130603,6,0,L|167:265,1,84.375,6|0,0:0|0:0,0:0:0:0:
304,336,130806,1,0,0:0:0:0:
343,340,130907,1,0,0:0:0:0:
382,344,131009,2,0,L|374:259,1,84.375,2|0,0:0|0:0,0:0:0:0:
496,144,131211,2,0,L|488:228,1,84.375,0|0,0:0|0:0,0:0:0:0:
264,264,131414,53,2,0:0:0:0:
260,225,131515,1,0,0:0:0:0:
256,186,131617,1,0,0:0:0:0:
252,147,131718,1,0,0:0:0:0:
248,108,131819,2,0,L|332:115,1,84.375,2|0,0:0|0:0,0:0:0:0:
176,24,132022,2,0,L|91:31,1,84.375,0|0,0:0|0:0,0:0:0:0:
0,192,132225,70,0,B|-13:150|-13:150|3:94,1,101.250003862381,2|2,0:0|0:0,0:0:0:0:
156,120,132427,2,0,B|169:162|169:162|153:218,1,101.250003862381,12|0,0:0|0:0,0:0:0:0:
84,376,132630,1,8,0:0:0:0:
2,326,132731,2,0,B|32:293|32:293|89:279,1,101.250003862381,2|0,0:0|0:0,0:0:0:0:
349,220,132934,1,12,0:0:0:0:
349,220,133238,22,0,B|351:251|351:251|378:281|378:281|372:306|372:306|378:377,1,168.75,12|0,0:0|0:0,0:0:0:0:
488,360,133846,6,0,P|463:298|480:234,1,135,6|0,0:0|0:0,0:0:0:0:
512,168,134150,1,0,0:0:0:0:
509,136,134252,1,2,0:0:0:0:
344,184,134454,1,0,0:0:0:0:
376,32,134657,2,0,P|440:15|506:29,1,135,2|0,0:0|0:0,0:0:0:0:
256,104,135063,70,0,B|252:52|252:52|263:4,1,101.25,8|0,0:0|0:0,0:0:0:0:
160,112,135468,38,0,P|97:133|38:105,1,135,2|0,0:0|0:0,0:0:0:0:
0,40,135772,1,0,0:0:0:0:
3,8,135873,1,2,0:0:0:0:
176,24,136076,1,0,0:0:0:0:
2,176,136279,1,2,0:0:0:0:
5,208,136380,1,0,0:0:0:0:
8,240,136481,1,0,0:0:0:0:
248,208,136684,38,0,B|200:216|200:216|149:200,1,101.25,8|0,0:0|0:0,0:0:0:0:
63,328,137090,6,0,P|122:296|187:310,1,135,2|0,0:0|0:0,0:0:0:0:
248,360,137394,1,0,0:0:0:0:
280,363,137495,1,2,0:0:0:0:
315,213,137698,2,0,L|248:208,1,67.5,0|0,0:0|0:0,0:0:0:0:
416,368,137900,2,0,P|397:303|416:240,1,135,2|0,0:0|0:0,0:0:0:0:
472,184,138204,1,0,0:0:0:0:
475,152,138306,70,0,B|460:104|460:104|470:54,1,101.25,8|0,0:0|0:0,0:0:0:0:
368,72,138711,38,0,P|313:34|246:33,1,135,2|0,0:0|0:0,0:0:0:0:
184,80,139015,1,0,0:0:0:0:
152,77,139117,1,2,0:0:0:0:
17,17,139319,1,4,0:0:0:0:
18,25,139387,1,4,0:0:0:0:
19,33,139454,1,4,0:0:0:0:
20,41,139522,6,0,B|29:153|29:153|0:200,1,168.75,6|0,0:0|0:0,0:0:0:0:
80,360,139826,2,0,B|70:248|70:248|100:200,1,168.75,2|0,0:0|0:0,0:0:0:0:
336,360,140130,2,0,P|218:378|161:274,1,253.125,6|0,0:0|0:0,0:0:0:0:
264,281,140536,1,2,0:0:0:0:
512,207,140738,2,0,L|504:291,1,84.375,8|0,0:0|0:0,0:0:0:0:
425,362,140941,1,4,0:0:0:0:
424,354,141009,1,4,0:0:0:0:
423,346,141076,1,4,0:0:0:0:
422,338,141144,54,0,L|418:282,1,56.25,6|0,0:0|0:0,0:0:0:0:
160,144,141448,2,0,L|210:168,1,56.25,2|0,0:0|0:0,0:0:0:0:
459,14,141752,2,0,L|412:45,1,56.25,6|0,0:0|0:0,0:0:0:0:
313,202,142157,69,2,0:0:0:0:
313,194,142225,1,2,0:0:0:0:
314,186,142292,1,2,0:0:0:0:
314,178,142360,2,0,L|321:94,1,84.375,8|0,0:0|0:0,0:0:0:0:
152,37,142563,1,2,0:0:0:0:
152,45,142630,1,2,0:0:0:0:
153,53,142698,1,2,0:0:0:0:
153,60,142765,22,0,L|160:144,1,84.375,8|0,0:0|0:0,0:0:0:0:
96,285,142968,1,2,0:0:0:0:
25,229,143069,2,0,L|32:144,1,84.375,8|0,0:0|0:0,0:0:0:0:
96,285,143272,1,2,0:0:0:0:
168,229,143373,2,0,L|160:144,1,84.375,8|0,0:0|0:0,0:0:0:0:
81,373,143576,54,0,P|122:370|158:348,1,84.375,6|0,0:0|0:0,0:0:0:0:
336,248,143779,1,0,0:0:0:0:
296,252,143880,1,0,0:0:0:0:
256,255,143981,2,0,P|237:292|238:334,1,84.375,2|0,0:0|0:0,0:0:0:0:
400,384,144184,2,0,L|407:299,1,84.375,0|0,0:0|0:0,0:0:0:0:
472,160,144387,21,2,0:0:0:0:
504,176,144488,2,0,L|511:260,1,84.375
356,128,144691,1,0,0:0:0:0:
359,88,144792,2,0,P|396:69|438:70,1,84.375,2|0,0:0|0:0,0:0:0:0:
264,24,144995,2,0,P|226:42|184:41,1,84.375,0|0,0:0|0:0,0:0:0:0:
277,41,145400,6,0,P|232:64|182:66,1,101.250003862381,6|0,0:0|0:0,0:0:0:0:
0,41,145603,1,8,0:0:0:0:
67,110,145704,2,0,P|91:66|94:16,1,101.250003862381,2|0,0:0|0:0,0:0:0:0:
144,256,145907,1,2,0:0:0:0:
138,285,146211,1,2,0:0:0:0:
440,384,146414,22,0,B|408:321|448:273|448:273|496:257|508:219,1,202.5,8|0,0:0|0:0,0:0:0:0:
452,70,146819,6,0,B|407:7|407:7|423:183,1,253.125,6|0,0:0|0:0,0:0:0:0:
328,288,147225,2,0,L|335:203,1,84.375,8|0,0:0|0:0,0:0:0:0:
240,48,147427,1,0,0:0:0:0:
206,132,147529,2,0,P|286:124|328:55,1,168.75,2|0,0:0|0:0,0:0:0:0:
133,185,147833,2,0,P|117:146|121:104,1,84.375,2|0,0:0|0:0,0:0:0:0:
0,8,148036,2,0,B|35:59|35:59|23:198,1,202.5,8|0,0:0|0:0,0:0:0:0:
192,348,148441,22,0,P|101:289|134:185,1,232.875004441738,2|0,0:0|0:0,0:0:0:0:
274,161,148846,2,0,P|236:153|205:131,1,77.6250014805794,8|0,0:0|0:0,0:0:0:0:
256,296,149049,1,0,0:0:0:0:
306,365,149150,2,0,B|343:329|343:329|333:226,1,155.250002961159,2|0,0:0|0:0,0:0:0:0:
432,376,149454,2,0,L|425:298,1,77.6250014805794,2|0,0:0|0:0,0:0:0:0:
335,139,149657,2,0,P|302:142|274:161,1,67.5,8|0,0:0|0:0,0:0:0:0:
434,213,149860,2,0,P|467:210|495:192,1,67.5,0|0,0:0|0:0,0:0:0:0:
456,0,150063,54,0,B|507:52|507:52|328:37,1,253.125,2|0,0:0|0:0,0:0:0:0:
192,128,150468,2,0,L|199:43,1,84.375,8|0,0:0|0:0,0:0:0:0:
24,176,150671,1,0,0:0:0:0:
104,224,150772,2,0,L|118:55,1,168.75,2|0,0:0|0:0,0:0:0:0:
258,182,151076,2,0,P|225:207|184:212,1,84.375,2|0,0:0|0:0,0:0:0:0:
16,351,151279,2,0,P|101:306|188:350,1,202.5,8|0,0:0|0:0,0:0:0:0:
390,300,151684,22,0,P|273:297|258:182,1,253.125,2|0,0:0|0:0,0:0:0:0:
412,215,152090,2,0,P|370:212|333:229,1,84.375,8|0,0:0|0:0,0:0:0:0:
512,80,152292,1,0,0:0:0:0:
464,6,152394,2,0,P|424:76|458:150,1,168.75,6|0,0:0|0:0,0:0:0:0:
352,24,152698,38,0,B|304:28|304:28|286:13|286:13|249:41|249:41|197:45,1,168.75,8|0,0:0|0:0,0:0:0:0:
96,176,153306,6,0,P|121:98|75:30,1,168.75,6|0,0:0|0:0,0:0:0:0:
6,172,153610,1,0,0:0:0:0:
6,204,153711,2,0,P|60:264|142:259,1,168.75,8|0,0:0|0:0,0:0:0:0:
232,208,154015,1,0,0:0:0:0:
264,192,154117,21,6,0:0:0:0:
243,228,154218,1,4,0:0:0:0:
238,270,154319,1,4,0:0:0:0:
250,310,154421,1,4,0:0:0:0:
312,368,154522,2,0,L|479:353,1,168.75,8|0,0:0|0:0,0:0:0:0:
456,160,154826,1,0,0:0:0:0:
423,136,154927,54,0,P|376:202|401:279,1,168.75,2|0,0:0|0:0,0:0:0:0:
497,80,155231,1,0,0:0:0:0:
464,56,155333,2,0,B|386:25|386:89|300:57,1,168.75,8|0,0:0|0:0,0:0:0:0:
208,24,155637,1,0,0:0:0:0:
176,8,155738,21,6,0:0:0:0:
189,47,155840,1,4,0:0:0:0:
191,89,155941,1,4,0:0:0:0:
179,130,156042,1,4,0:0:0:0:
92,128,156144,53,2,0:0:0:0:
95,170,156245,2,0,L|97:198,1,28.125,0|8,0:0|0:0,0:0:0:0:
24,240,156346,69,8,0:0:0:0:
23,247,156413,1,10,0:0:0:0:
22,255,156481,1,10,0:0:0:0:
21,263,156549,1,0,0:0:0:0:
320,208,156752,38,0,P|278:200|239:213,1,84.375,6|0,0:0|0:0,0:0:0:0:
199,298,156954,2,0,P|213:337|244:365,1,84.375,8|0,0:0|0:0,0:0:0:0:
339,358,157157,2,0,P|366:326|374:285,1,84.375,0|4,0:0|0:0,0:0:0:0:
452,176,157360,2,0,L|460:92,1,84.375,2|0,0:0|0:0,0:0:0:0:
308,12,157563,1,8,0:0:0:0:
224,30,157664,2,0,L|232:115,1,84.375,6|0,0:0|0:0,0:0:0:0:
224,30,157968,54,0,B|240:213|240:213|232:184|199:158,1,253.125,6|0,0:0|0:0,0:0:0:0:
125,130,158373,2,0,P|83:133|46:153,1,84.375,2|0,0:0|0:0,0:0:0:0:
145,308,158576,2,0,P|126:212|78:298,1,253.125,8|0,0:0|0:0,0:0:0:0:
288,368,158981,22,0,L|280:283,1,84.375,6|0,0:0|0:0,0:0:0:0:
424,160,159184,1,0,0:0:0:0:
421,174,159252,1,0,0:0:0:0:
417,189,159319,1,0,0:0:0:0:
414,204,159387,38,0,B|405:250|405:250|411:310,1,101.25,2|0,0:0|0:0,0:0:0:0:
311,200,159792,22,0,P|269:194|230:209,1,84.375,6|0,0:0|0:0,0:0:0:0:
352,72,159995,2,0,P|393:77|432:62,1,84.375,0|0,0:0|0:0,0:0:0:0:
232,16,160198,2,0,L|224:100,1,84.375,2|0,0:0|0:0,0:0:0:0:
56,184,160400,1,0,0:0:0:0:
7,115,160502,1,0,0:0:0:0:
43,38,160603,2,0,L|127:30,1,84.375,2|0,0:0|0:0,0:0:0:0:
230,209,160806,2,0,L|145:201,1,84.375,0|0,0:0|0:0,0:0:0:0:
0,376,161009,54,0,B|32:368|32:368|98:382,1,101.25,8|0,0:0|0:0,0:0:0:0:
224,376,161414,22,0,P|208:337|214:295,1,84.375,6|0,0:0|0:0,0:0:0:0:
302,159,161617,2,0,P|317:197|311:239,1,84.375,0|0,0:0|0:0,0:0:0:0:
432,328,161819,2,0,L|424:243,1,84.375,2|0,0:0|0:0,0:0:0:0:
455,87,162022,1,0,0:0:0:0:
386,38,162123,1,0,0:0:0:0:
309,74,162225,2,0,L|302:159,1,84.375,2|0,0:0|0:0,0:0:0:0:
152,96,162427,2,0,L|144:11,1,84.375,0|0,0:0|0:0,0:0:0:0:
0,296,162630,54,0,B|16:256|16:256|9:198,1,101.25,6|0,0:0|0:0,0:0:0:0:
71,374,163036,6,0,L|155:366,1,84.375,12|0,0:0|0:0,0:0:0:0:
240,208,163238,2,0,L|155:200,1,84.375,8|0,0:0|0:0,0:0:0:0:
58,384,163441,2,0,L|154:376,1,84.375,8|0,0:0|0:0,0:0:0:0:
252,197,163644,2,0,L|156:188,1,84.375,8|0,0:0|0:0,0:0:0:0:
392,372,163846,1,8,0:0:0:0:
336,309,163948,1,8,0:0:0:0:
339,228,164049,1,10,0:0:0:0:
398,170,164150,1,8,0:0:0:0:
497,74,164252,53,10,0:0:0:0:
411,81,164353,1,8,0:0:0:0:
328,88,164454,1,8,0:0:0:0:
244,96,164556,1,8,0:0:0:0:
168,189,164657,70,0,L|160:88,1,101.250003862381,6|0,0:0|0:0,0:0:0:0:
0,148,164860,1,8,0:0:0:0:
48,352,164961,2,0,B|93:315|93:315|80:171,1,202.500007724762,14|0,0:0|0:0,0:0:0:0:
256,228,165265,2,0,P|226:268|179:286,1,101.250003862381,14|8,0:0|0:0,0:0:0:0:
480,352,165671,5,8,0:0:0:0:
478,336,165738,1,8,0:0:0:0:
477,320,165806,1,8,0:0:0:0:
475,304,165873,2,0,L|469:236,1,67.5,6|0,0:0|0:0,0:0:0:0:
352,208,166076,2,0,L|357:140,1,67.5,0|0,0:0|0:0,0:0:0:0:
512,56,166279,70,0,P|466:75|416:68,1,101.250003862381,6|0,0:0|0:0,0:0:0:0:
215,31,166481,1,8,0:0:0:0:
201,199,166583,2,0,P|256:120|216:32,1,202.500007724762,6|0,0:0|0:0,0:0:0:0:
118,23,166887,1,12,0:0:0:0:
62,103,166988,1,8,0:0:0:0:
103,191,167090,1,8,0:0:0:0:
47,271,167191,1,8,0:0:0:0:
120,344,167292,2,0,L|123:308,1,25.3125009655953,8|8,0:0|0:0,0:0:0:0:
167,347,167394,2,0,L|169:315,1,25.3125009655953,8|8,0:0|0:0,0:0:0:0:
304,322,167495,22,0,B|241:298|169:322|169:322|205:306|210:275,1,202.5,10|0,0:0|0:0,0:0:0:0:
222,80,167900,54,0,P|243:174|336:203,1,202.500007724762,6|0,0:0|0:0,0:0:0:0:
465,45,168204,1,0,0:0:0:0:
373,30,168306,2,0,P|333:60|316:107,1,101.250003862381,8|0,0:0|0:0,0:0:0:0:
496,346,168509,1,0,0:0:0:0:
511,254,168610,1,0,0:0:0:0:
437,196,168711,6,0,L|336:204,1,101.250003862381,2|0,0:0|0:0,0:0:0:0:
290,381,168914,2,0,B|302:331|302:331|286:283,1,101.250003862381
21,299,169117,2,0,B|65:344|65:344|204:332,1,202.500007724762,8|0,0:0|0:0,0:0:0:0:
382,289,169421,1,0,0:0:0:0:
336,204,169522,70,0,B|240:159|240:247|142:204,1,202.500007724762,2|0,0:0|0:0,0:0:0:0:
52,36,169826,1,0,0:0:0:0:
145,37,169927,2,0,P|178:73|187:122,1,101.250003862381,8|0,0:0|0:0,0:0:0:0:
140,297,170130,1,0,0:0:0:0:
48,299,170231,1,0,0:0:0:0:
0,216,170333,6,0,L|8:115,1,101.250003862381,2|0,0:0|0:0,0:0:0:0:
142,204,170536,2,0,B|191:216|191:216|240:201,1,101.250003862381
459,27,170738,2,0,B|421:54|421:54|434:209,1,202.500007724762,8|0,0:0|0:0,0:0:0:0:
285,292,171042,1,0,0:0:0:0:
240,202,171144,70,0,P|289:191|337:208,1,101.250003862381,2|0,0:0|0:0,0:0:0:0:
228,372,171346,2,0,P|194:336|184:287,1,101.250003862381,0|0,0:0|0:0,0:0:0:0:
381,296,171549,2,0,P|366:344|329:376,1,101.250003862381,8|0,0:0|0:0,0:0:0:0:
104,340,171752,2,0,L|4:349,1,101.250003862381
85,170,171954,5,2,0:0:0:0:
138,93,172056,1,0,0:0:0:0:
232,101,172157,2,0,L|240:202,1,101.250003862381
360,72,172360,2,0,L|352:173,1,101.250003862381,8|0,0:0|0:0,0:0:0:0:
472,42,172563,2,0,L|480:143,1,101.250003862381
340,314,172765,70,0,B|294:278|294:278|438:290,1,202.500007724762,2|0,0:0|0:0,0:0:0:0:
259,362,173069,1,0,0:0:0:0:
200,289,173171,2,0,P|206:240|238:202,1,101.250003862381,8|0,0:0|0:0,0:0:0:0:
96,288,173373,2,0,P|89:336|57:374,1,101.250003862381,0|0,0:0|0:0,0:0:0:0:
8,104,173576,6,0,B|48:206|-32:206|7:300,1,202.500007724762,2|0,0:0|0:0,0:0:0:0:
200,289,173880,1,2,0:0:0:0:
143,211,173981,1,8,0:0:0:0:
143,211,174184,70,0,B|168:136|120:40|120:40|164:92|234:75,1,303.750011587143,6|0,0:0|0:0,0:0:0:0:
404,23,174590,2,0,P|354:33|308:13,1,101.250003862381,0|0,0:0|0:0,0:0:0:0:
368,200,174792,2,0,P|415:115|512:115,1,202.500007724762,10|0,0:0|0:0,0:0:0:0:
424,278,175096,1,0,0:0:0:0:
329,287,175198,6,0,P|289:256|272:209,1,101.250003862381,2|0,0:0|0:0,0:0:0:0:
182,123,175400,2,0,P|175:172|143:211,1,101.250003862381
113,331,175603,2,0,P|159:312|208:321,1,101.250003862381,8|0,0:0|0:0,0:0:0:0:
388,384,175806,2,0,L|287:375,1,101.250003862381,0|0,0:0|0:0,0:0:0:0:
415,177,176009,70,0,L|424:278,1,101.250003862381,2|0,0:0|0:0,0:0:0:0:
272,209,176211,2,0,L|280:108,1,101.250003862381,0|0,0:0|0:0,0:0:0:0:
119,97,176414,2,0,B|155:60|155:60|142:211,1,202.500007724762,8|0,0:0|0:0,0:0:0:0:
104,376,176718,1,0,0:0:0:0:
12,349,176819,2,0,P|82:283|175:311,1,202.500007724762,2|0,0:0|0:0,0:0:0:0:
306,381,177123,1,0,0:0:0:0:
368,326,177225,2,0,B|325:297|325:297|174:311,1,202.500007724762,8|0,0:0|0:0,0:0:0:0:
104,376,177529,1,0,0:0:0:0:
230,227,177630,6,0,L|431:209,1,202.500007724762,6|0,0:0|0:0,0:0:0:0:
489,9,177934,1,0,0:0:0:0:
459,93,178036,2,0,L|258:76,1,202.500007724762,8|0,0:0|0:0,0:0:0:0:
127,91,178340,1,0,0:0:0:0:
111,180,178441,70,0,P|161:174|200:143,1,101.250003862381,2|0,0:0|0:0,0:0:0:0:
41,121,178644,2,0,P|21:166|29:216,1,101.250003862381,0|0,0:0|0:0,0:0:0:0:
127,91,178846,2,0,P|97:51|50:33,1,101.250003862381,8|0,0:0|0:0,0:0:0:0:
191,244,179049,2,0,L|200:144,1,101.250003862381,6|0,0:0|0:0,0:0:0:0:
56,352,179252,6,0,L|156:343,1,101.250003862381,2|0,0:0|0:0,0:0:0:0:
291,252,179454,2,0,L|191:244,1,101.250003862381,2|0,0:0|0:0,0:0:0:0:
326,149,179657,2,0,L|427:141,1,101.250003862381,2|0,0:0|0:0,0:0:0:0:
488,384,179860,22,0,P|457:324|466:258,1,135,6|0,0:0|0:0,0:0:0:0:
384,224,180164,1,8,0:0:0:0:
375,320,180265,1,2,0:0:0:0:
16,32,180468,70,0,B|64:48|64:48|113:35,1,101.25,10|0,0:0|0:0,0:0:0:0:
200,144,180873,54,0,P|105:120|31:187,1,202.500007724762,6|0,0:0|0:0,0:0:0:0:
57,366,181177,1,0,0:0:0:0:
136,317,181279,2,0,P|147:268|129:221,1,101.250003862381,8|0,0:0|0:0,0:0:0:0:
281,327,181481,1,0,0:0:0:0:
246,240,181583,1,0,0:0:0:0:
302,166,181684,6,0,L|402:157,1,101.250003862381,2|0,0:0|0:0,0:0:0:0:
213,47,181887,2,0,B|192:94|192:94|199:144,1,101.250003862381,0|0,0:0|0:0,0:0:0:0:
451,26,182090,2,0,B|477:55|477:55|316:70,1,202.500007724762,8|0,0:0|0:0,0:0:0:0:
365,256,182394,1,0,0:0:0:0:
443,324,182495,70,0,P|467:230|403:157,1,202.500007724762,2|0,0:0|0:0,0:0:0:0:
327,354,182799,1,0,0:0:0:0:
264,281,182900,2,0,P|263:231|287:187,1,101.250003862381,8|0,0:0|0:0,0:0:0:0:
176,40,183103,1,0,0:0:0:0:
211,127,183204,1,0,0:0:0:0:
155,201,183306,6,0,L|54:209,1,101.250003862381,2|0,0:0|0:0,0:0:0:0:
80,24,183509,2,0,B|85:75|85:75|117:114,1,101.250003862381,0|0,0:0|0:0,0:0:0:0:
0,344,183711,2,0,B|28:301|28:301|179:288,1,202.500007724762,8|0,0:0|0:0,0:0:0:0:
336,248,184015,1,0,0:0:0:0:
362,335,184117,70,0,P|311:335|268:309,1,101.250003862381,2|0,0:0|0:0,0:0:0:0:
398,184,184319,1,0,0:0:0:0:
398,184,184522,2,0,P|440:209|490:209,1,101.250003862381,8|0,0:0|0:0,0:0:0:0:
274,105,184725,1,2,0:0:0:0:
305,102,184792,1,2,0:0:0:0:
337,99,184860,1,2,0:0:0:0:
372,97,184927,6,0,L|472:88,1,101.250003862381,2|0,0:0|0:0,0:0:0:0:
336,248,185130,2,0,L|235:239,1,101.250003862381,0|0,0:0|0:0,0:0:0:0:
176,12,185333,2,0,P|185:61|168:108,1,101.250003862381,8|0,0:0|0:0,0:0:0:0:
6,255,185536,70,0,P|70:182|168:192,1,202.500007724762,4|2,0:0|0:0,0:0:0:0:
200,352,185840,1,0,0:0:0:0:
117,382,185941,2,0,L|109:282,1,101.250003862381
242,143,186144,2,0,P|252:192|235:239,1,101.250003862381,8|0,0:0|0:0,0:0:0:0:
320,373,186346,2,0,L|328:272,1,101.250003862381,4|0,0:0|0:0,0:0:0:0:
512,384,186549,38,0,P|478:383|447:369,1,67.5,2|0,0:0|0:0,0:0:0:0:
436,272,186752,2,0,P|469:272|500:286,1,67.5
273,117,186954,70,0,B|322:128|322:128|371:118,1,101.25,10|0,0:0|0:0,0:0:0:0:
496,8,187360,54,0,B|481:175|481:175|459:148,1,202.500007724762,6|0,0:0|0:0,0:0:0:0:
324,30,187664,1,0,0:0:0:0:
223,28,187765,2,0,P|172:111|214:199,1,202.500007724762,8|0,0:0|0:0,0:0:0:0:
312,365,188069,1,0,0:0:0:0:
364,280,188171,6,0,B|261:241|261:321|167:282,1,202.500007724762,2|0,0:0|0:0,0:0:0:0:
8,352,188475,1,0,0:0:0:0:
71,285,188576,2,0,P|97:326|96:376,1,101.250003862381,8|0,0:0|0:0,0:0:0:0:
117,200,188779,2,0,P|90:158|91:108,1,101.250003862381,0|0,0:0|0:0,0:0:0:0:
304,16,188981,70,0,B|331:38|331:38|164:53,1,202.500007724762,2|0,0:0|0:0,0:0:0:0:
213,198,189286,1,0,0:0:0:0:
264,127,189387,2,0,L|364:119,1,101.250003862381,8|0,0:0|0:0,0:0:0:0:
448,272,189590,1,0,0:0:0:0:
382,338,189691,1,0,0:0:0:0:
291,314,189792,6,0,L|300:213,1,101.250003862381,2|0,0:0|0:0,0:0:0:0:
178,120,189995,1,0,0:0:0:0:
127,189,190096,1,0,0:0:0:0:
162,268,190198,2,0,L|170:369,1,101.250003862381,8|0,0:0|0:0,0:0:0:0:
32,280,190400,2,0,L|42:180,1,101.250003862381,0|0,0:0|0:0,0:0:0:0:
8,8,190603,70,0,B|36:53|36:53|184:40,1,202.500007724762,2|0,0:0|0:0,0:0:0:0:
382,68,190907,1,0,0:0:0:0:
298,17,191009,2,0,B|259:120|339:120|300:212,1,202.500007724762,8|0,0:0|0:0,0:0:0:0:
407,383,191313,1,0,0:0:0:0:
506,365,191414,6,0,P|446:289|349:298,1,202.500007724762,2|0,0:0|0:0,0:0:0:0:
136,272,191718,1,0,0:0:0:0:
172,355,191819,2,0,P|210:325|226:278,1,101.250003862381,8|0,0:0|0:0,0:0:0:0:
256,24,192022,1,14,0:0:0:0:
256,24,192427,5,8,0:0:0:0:
256,104,192529,1,8,0:0:0:0:
256,183,192630,2,0,L|256:231,2,33.7500012874604,4|4|4,0:0|0:0|0:0,0:0:0:0:
256,104,192833,1,8,0:0:0:0:
224,112,192934,1,8,0:0:0:0:
256,183,193036,5,8,0:0:0:0:
288,191,193137,1,8,0:0:0:0:
256,264,193238,1,0,0:0:0:0:
224,272,193340,1,2,0:0:0:0:
256,365,193441,70,0,L|256:264,1,101.25,10|0,0:0|0:0,0:0:0:0:
256,24,193846,5,6,0:0:0:0:
256,192,193948,12,0,197090,0:0:0:0:
40,344,199725,69,2,0:0:0:0:
128,96,199927,2,0,B|79:81|79:81|30:94,1,101.25,8|0,0:0|0:0,0:0:0:0:
168,264,200333,6,0,P|165:182|230:134,1,168.75,6|0,0:0|0:0,0:0:0:0:
288,312,200637,1,8,0:0:0:0:
329,228,200738,2,0,L|245:221,1,84.375,0|0,0:0|0:0,0:0:0:0:
360,368,200941,2,0,L|444:360,1,84.375,2|0,0:0|0:0,0:0:0:0:
416,184,201144,21,0,0:0:0:0:
413,215,201245,1,0,0:0:0:0:
504,288,201346,1,8,0:0:0:0:
507,257,201448,1,0,0:0:0:0:
509,133,201549,53,0,0:0:0:0:
470,172,201650,1,0,0:0:0:0:
416,184,201752,1,0,0:0:0:0:
364,163,201853,1,0,0:0:0:0:
288,72,201954,21,2,0:0:0:0:
280,156,202056,1,0,0:0:0:0:
273,240,202157,1,0,0:0:0:0:
265,324,202259,1,8,0:0:0:0:
196,265,202360,2,0,P|231:242|273:239,1,84.375,0|0,0:0|0:0,0:0:0:0:
184,352,202563,2,0,P|148:374|106:377,1,84.375,2|0,0:0|0:0,0:0:0:0:
48,264,202765,53,0,0:0:0:0:
56,180,202867,1,0,0:0:0:0:
132,144,202968,2,0,B|169:171|169:171|14:157,1,202.5,8|0,0:0|0:0,0:0:0:0:
152,32,203373,1,4,0:0:0:0:
167,33,203441,1,4,0:0:0:0:
183,34,203509,1,4,0:0:0:0:
199,36,203576,22,0,B|245:43|285:19|285:19|325:67|325:67|365:27|416:35,1,253.125,6|0,0:0|0:0,0:0:0:0:
507,219,203981,2,0,P|428:203|399:128,1,168.75,8|0,0:0|0:0,0:0:0:0:
256,296,204286,1,0,0:0:0:0:
339,328,204387,22,0,B|327:192|327:192|308:219,1,168.75,2|0,0:0|0:0,0:0:0:0:
173,328,204691,2,0,B|184:192|184:192|203:219,1,168.75,8|0,0:0|0:0,0:0:0:0:
256,0,204995,6,0,L|256:160,1,151.875005793572,6|0,0:0|0:0,0:0:0:0:
202,218,205400,1,8,0:0:0:0:
308,218,205502,1,8,0:0:0:0:
256,288,205603,2,0,L|256:321,2,33.7500012874604,4|4|4,0:0|0:0|0:0,0:0:0:0:
257,376,205806,1,8,0:0:0:0:
220,368,205907,1,8,0:0:0:0:
256,288,206009,5,8,0:0:0:0:
293,280,206110,1,8,0:0:0:0:
256,192,206211,1,2,0:0:0:0:
219,184,206313,1,0,0:0:0:0:
256,90,206414,70,0,L|256:192,1,101.25,10|0,0:0|0:0,0:0:0:0:
104,80,206819,6,0,B|138:50|138:50|127:173,1,168.75,6|0,0:0|0:0,0:0:0:0:
80,347,207123,1,0,0:0:0:0:
1,299,207225,2,0,P|69:255|146:282,1,168.75,8|0,0:0|0:0,0:0:0:0:
257,364,207529,1,0,0:0:0:0:
315,303,207630,22,0,P|318:262|303:220,1,84.375,2|0,0:0|0:0,0:0:0:0:
440,360,207833,2,0,P|399:357|357:372,1,84.375,0|0,0:0|0:0,0:0:0:0:
497,235,208036,2,0,P|494:276|509:318,1,84.375,8|0,0:0|0:0,0:0:0:0:
372,178,208238,2,0,P|413:181|455:166,1,84.375,0|0,0:0|0:0,0:0:0:0:
216,184,208441,54,0,P|278:131|276:50,1,168.75,2|0,0:0|0:0,0:0:0:0:
160,8,208745,1,0,0:0:0:0:
110,85,208846,2,0,L|194:92,1,84.375,8|0,0:0|0:0,0:0:0:0:
128,208,209049,2,0,L|44:215,1,84.375,0|0,0:0|0:0,0:0:0:0:
234,338,209252,22,0,B|204:312|204:312|216:184,1,168.75,2|0,0:0|0:0,0:0:0:0:
416,184,209556,1,0,0:0:0:0:
378,265,209657,2,0,P|338:278|297:276,1,84.375,8|0,0:0|0:0,0:0:0:0:
424,368,209860,2,0,P|463:354|505:357,1,84.375,0|0,0:0|0:0,0:0:0:0:
324,176,210063,54,0,P|362:104|442:92,1,168.75,2|0,0:0|0:0,0:0:0:0:
304,48,210367,1,0,0:0:0:0:
228,14,210468,2,0,L|143:21,1,84.375,8|0,0:0|0:0,0:0:0:0:
0,88,210671,2,0,L|85:95,1,84.375,0|0,0:0|0:0,0:0:0:0:
232,104,210873,22,0,P|222:144|228:186,1,84.375,2|0,0:0|0:0,0:0:0:0:
88,272,211076,2,0,P|97:231|91:189,1,84.375,0|0,0:0|0:0,0:0:0:0:
0,360,211279,2,0,P|41:354|82:363,1,84.375,8|0,0:0|0:0,0:0:0:0:
264,271,211481,2,0,P|222:276|181:267,1,84.375,0|0,0:0|0:0,0:0:0:0:
359,383,211684,54,0,P|349:303|404:243,1,168.75,2|0,0:0|0:0,0:0:0:0:
512,160,211988,1,0,0:0:0:0:
448,104,212090,2,0,L|279:118,1,168.75,8|0,0:0|0:0,0:0:0:0:
168,64,212394,1,0,0:0:0:0:
232,8,212495,22,0,L|400:22,1,168.75,2|0,0:0|0:0,0:0:0:0:
364,163,212799,1,2,0:0:0:0:
277,200,212900,2,0,L|284:284,1,84.375,2|0,0:0|0:0,0:0:0:0:
291,368,213103,2,0,L|283:283,1,84.375,2|0,0:0|0:0,0:0:0:0:
24,208,213306,54,0,P|105:204|151:137,1,168.75,6|0,0:0|0:0,0:0:0:0:
136,8,213610,1,0,0:0:0:0:
53,38,213711,2,0,L|60:122,1,84.375,8|0,0:0|0:0,0:0:0:0:
224,92,213914,2,0,L|231:7,1,84.375,0|0,0:0|0:0,0:0:0:0:
336,248,214117,22,0,L|321:80,1,168.75,2|0,0:0|0:0,0:0:0:0:
417,205,214421,1,0,0:0:0:0:
414,296,214522,2,0,P|382:329|344:340,1,84.375,8|0,0:0|0:0,0:0:0:0:
200,344,214725,2,0,P|232:311|269:299,1,84.375,0|0,0:0|0:0,0:0:0:0:
45,354,214927,54,0,P|116:313|132:233,1,168.75,2|0,0:0|0:0,0:0:0:0:
8,184,215231,1,0,0:0:0:0:
70,125,215333,2,0,L|154:132,1,84.375,8|0,0:0|0:0,0:0:0:0:
231,7,215536,2,0,L|146:14,1,84.375,0|0,0:0|0:0,0:0:0:0:
320,136,215738,22,0,P|308:95|316:54,1,84.375,2|0,0:0|0:0,0:0:0:0:
400,184,215941,2,0,P|370:213|331:227,1,84.375,0|0,0:0|0:0,0:0:0:0:
401,90,216144,2,0,P|441:100|473:127,1,84.375,8|0,0:0|0:0,0:0:0:0:
424,280,216346,2,0,L|431:364,1,84.375,0|0,0:0|0:0,0:0:0:0:
166,221,216549,54,0,B|245:198|245:254|331:227,1,168.75,6|0,0:0|0:0,0:0:0:0:
203,302,216853,1,0,0:0:0:0:
114,293,216954,2,0,P|86:262|76:222,1,84.375,8|0,0:0|0:0,0:0:0:0:
155,66,217157,1,0,0:0:0:0:
74,30,217259,1,0,0:0:0:0:
2,82,217360,22,0,L|9:166,1,84.375,2|0,0:0|0:0,0:0:0:0:
147,150,217563,2,0,L|154:65,1,84.375,0|0,0:0|0:0,0:0:0:0:
291,48,217765,2,0,L|299:133,1,84.375,8|0,0:0|0:0,0:0:0:0:
436,116,217968,2,0,L|443:31,1,84.375,0|0,0:0|0:0,0:0:0:0:
496,256,218171,53,2,0:0:0:0:
496,256,218373,2,0,B|454:243|454:243|414:252,1,84.375,0|0,0:0|0:0,0:0:0:0:
341,356,218576,2,0,B|452:325|452:325|501:345,1,168.75,12|0,0:0|0:0,0:0:0:0:
331,247,218880,2,0,B|342:207|342:207|374:177,1,84.375,6|0,0:0|0:0,0:0:0:0:
181,317,219083,1,8,0:0:0:0:
264,312,219184,2,0,B|252:272|252:272|220:242,1,84.375,2|0,0:0|0:0,0:0:0:0:
16,384,219387,70,0,B|18:352|18:352|6:310|6:310|8:284,1,101.25,8|0,0:0|0:0,0:0:0:0:
72,216,219792,6,0,L|64:131,1,84.375,2|0,0:0|0:0,0:0:0:0:
200,168,219995,1,0,0:0:0:0:
236,87,220096,1,0,0:0:0:0:
184,15,220198,2,0,L|99:22,1,84.375,8|0,0:0|0:0,0:0:0:0:
288,162,220400,2,0,L|373:169,1,84.375,0|0,0:0|0:0,0:0:0:0:
447,0,220603,22,0,P|425:78|471:144,1,168.75,2|0,0:0|0:0,0:0:0:0:
448,328,220907,1,0,0:0:0:0:
475,237,221009,2,0,P|433:233|395:249,1,84.375,8|0,0:0|0:0,0:0:0:0:
279,339,221211,2,0,P|321:343|360:328,1,84.375,0|0,0:0|0:0,0:0:0:0:
224,200,221414,54,0,L|216:284,1,84.375,2|0,0:0|0:0,0:0:0:0:
101,364,221617,2,0,L|93:279,1,84.375,0|0,0:0|0:0,0:0:0:0:
120,120,221819,2,0,B|140:161|140:161|18:151,1,168.75,8|0,0:0|0:0,0:0:0:0:
137,28,222123,1,0,0:0:0:0:
208,88,222225,22,0,L|292:80,1,84.375,2|0,0:0|0:0,0:0:0:0:
424,8,222427,2,0,L|339:0,1,84.375,0|0,0:0|0:0,0:0:0:0:
429,210,222630,2,0,P|413:131|469:72,1,168.75,8|0,0:0|0:0,0:0:0:0:
344,248,222934,1,0,0:0:0:0:
278,179,223036,53,2,0:0:0:0:
278,179,223238,2,0,P|273:220|249:255,1,84.375
29,317,223441,1,8,0:0:0:0:
80,254,223542,2,0,P|122:250|161:266,1,84.375,0|0,0:0|0:0,0:0:0:0:
116,75,223745,1,0,0:0:0:0:
57,144,223846,22,0,B|35:177|35:177|164:166,1,168.75,2|0,0:0|0:0,0:0:0:0:
304,96,224150,1,0,0:0:0:0:
262,20,224252,2,0,L|177:12,1,84.375,8|0,0:0|0:0,0:0:0:0:
368,159,224454,2,0,P|389:123|390:81,1,84.375,4|0,0:0|0:0,0:0:0:0:
320,232,224657,53,2,0:0:0:0:
320,232,224860,2,0,L|312:316,1,84.375,0|0,0:0|0:0,0:0:0:0:
175,376,225063,2,0,L|168:292,1,84.375,8|0,0:0|0:0,0:0:0:0:
80,120,225265,1,4,0:0:0:0:
161,84,225367,1,0,0:0:0:0:
233,136,225468,22,0,L|226:221,1,84.375,2|0,0:0|0:0,0:0:0:0:
80,296,225671,2,0,L|87:211,1,84.375,0|0,0:0|0:0,0:0:0:0:
0,16,225873,38,0,B|32:40|32:40|91:26,1,101.25,8|0,0:0|0:0,0:0:0:0:
232,135,226279,6,0,P|232:54|299:8,1,168.75,6|0,0:0|0:0,0:0:0:0:
440,128,226583,1,0,0:0:0:0:
393,204,226684,2,0,L|308:196,1,84.375,8|0,0:0|0:0,0:0:0:0:
428,335,226887,2,0,L|512:327,1,84.375,0|0,0:0|0:0,0:0:0:0:
320,376,227090,22,0,P|335:337|329:295,1,84.375,2|0,0:0|0:0,0:0:0:0:
234,146,227292,2,0,P|218:184|224:226,1,84.375,0|0,0:0|0:0,0:0:0:0:
97,354,227495,2,0,B|132:317|132:317|250:328,1,168.75,8|0,0:0|0:0,0:0:0:0:
308,196,227799,1,0,0:0:0:0:
224,226,227900,54,0,L|56:211,1,168.75,2|0,0:0|0:0,0:0:0:0:
32,88,228204,1,0,0:0:0:0:
106,38,228306,2,0,P|121:76|115:118,1,84.375,8|0,0:0|0:0,0:0:0:0:
234,146,228509,2,0,P|218:107|224:65,1,84.375,0|0,0:0|0:0,0:0:0:0:
411,75,228711,22,0,B|432:109|432:109|304:98,1,168.75,2|0,0:0|0:0,0:0:0:0:
378,266,229015,1,0,0:0:0:0:
424,187,229117,2,0,L|339:179,1,84.375,8|0,0:0|0:0,0:0:0:0:
409,341,229319,2,0,L|493:333,1,84.375,0|0,0:0|0:0,0:0:0:0:
16,126,229725,22,0,B|54:123|54:123|96:144,1,84.375,6|0,0:0|0:0,0:0:0:0:
119,308,229927,1,8,0:0:0:0:
60,373,230029,2,0,B|31:330|31:330|41:213,1,168.75,2|0,0:0|0:0,0:0:0:0:
176,166,230333,54,0,B|160:200|160:200|121:226,1,84.375,2|0,0:0|0:0,0:0:0:0:
16,126,230536,1,8,0:0:0:0:
48,48,230637,2,0,L|216:62,1,168.75,2|0,0:0|0:0,0:0:0:0:
367,81,230941,2,0,B|350:144|400:184|400:184|443:255|396:313,1,253.125,0|0,0:0|0:0,0:0:0:0:
256,368,231346,37,8,0:0:0:0:
256,288,231448,1,8,0:0:0:0:
256,208,231549,2,0,L|256:160,2,33.7500012874604,4|4|4,0:0|0:0|0:0,0:0:0:0:
256,288,231752,1,8,0:0:0:0:
292,276,231853,1,8,0:0:0:0:
256,208,231954,5,8,0:0:0:0:
220,196,232056,1,8,0:0:0:0:
256,121,232157,1,8,0:0:0:0:
256,105,232225,1,8,0:0:0:0:
256,89,232292,1,8,0:0:0:0:
256,73,232360,70,0,L|256:175,1,101.25,10|0,0:0|0:0,0:0:0:0:
297,366,232765,21,6,0:0:0:0:
293,276,232867,2,0,P|253:288|222:317,1,84.375
128,296,233069,2,0,P|97:266|57:254,1,84.375,0|2,0:0|0:0,0:0:0:0:
300,286,233272,2,0,P|259:297|228:326,1,84.375
123,308,233475,2,0,P|92:278|52:266,1,84.375,0|2,0:0|0:0,0:0:0:0:
307,296,233677,2,0,P|266:307|235:336,1,84.375
118,320,233880,2,0,P|87:290|47:278,1,84.375,0|2,0:0|0:0,0:0:0:0:
170,137,234083,2,0,B|197:99|197:99|186:220,1,168.75,0|0,0:0|0:0,0:0:0:0:
289,292,234387,5,2,0:0:0:0:
379,295,234488,2,0,P|370:253|344:219,1,84.375,0|0,0:0|0:0,0:0:0:0:
334,123,234691,2,0,P|373:136|415:131,1,84.375,0|2,0:0|0:0,0:0:0:0:
505,170,234894,2,0,P|472:197|457:236,1,84.375,0|0,0:0|0:0,0:0:0:0:
463,56,235096,5,0,0:0:0:0:
382,48,235198,1,2,0:0:0:0:
334,123,235299,1,0,0:0:0:0:
245,118,235400,1,0,0:0:0:0:
205,39,235502,1,0,0:0:0:0:
116,35,235603,1,2,0:0:0:0:
80,72,235704,2,0,L|94:239,1,168.75,0|0,0:0|0:0,0:0:0:0:
184,384,236009,53,2,0:0:0:0:
225,305,236110,2,0,P|213:265|184:234,1,84.375,0|0,0:0|0:0,0:0:0:0:
380,184,236313,2,0,P|351:214|339:255,1,84.375,0|2,0:0|0:0,0:0:0:0:
238,298,236515,2,0,P|225:258|195:227,1,84.375
388,196,236718,2,0,P|359:226|347:267,1,84.375,0|2,0:0|0:0,0:0:0:0:
251,291,236921,2,0,P|238:251|208:220,1,84.375
396,208,237123,2,0,P|367:238|355:279,1,84.375,0|2,0:0|0:0,0:0:0:0:
296,8,237326,2,0,P|308:89|257:152,1,168.75,0|0,0:0|0:0,0:0:0:0:
86,139,237630,5,2,0:0:0:0:
133,63,237731,2,0,P|174:53|215:63,1,84.375,0|0,0:0|0:0,0:0:0:0:
86,139,237934,2,0,P|57:108|45:68,1,84.375,0|2,0:0|0:0,0:0:0:0:
175,142,238137,2,0,P|162:182|134:212,1,84.375,0|0,0:0|0:0,0:0:0:0:
20,326,238340,5,0,0:0:0:0:
115,292,238441,1,2,0:0:0:0:
192,358,238542,1,0,0:0:0:0:
286,324,238644,1,0,0:0:0:0:
304,226,238745,1,0,0:0:0:0:
398,193,238846,1,8,0:0:0:0:
415,352,238948,2,0,B|386:310|386:310|397:193,1,168.75
456,68,239252,53,6,0:0:0:0:
373,96,239353,2,0,L|380:11,1,84.375
175,142,239556,2,0,L|167:57,1,84.375,0|8,0:0|0:0,0:0:0:0:
362,102,239759,2,0,L|369:17,1,84.375
164,148,239961,2,0,L|157:63,1,84.375,0|8,0:0|0:0,0:0:0:0:
351,108,240164,2,0,L|359:24,1,84.375,0|0,0:0|0:0,0:0:0:0:
153,154,240367,2,0,L|146:70,1,84.375,0|8,0:0|0:0,0:0:0:0:
32,288,240569,2,0,B|43:160|43:160|19:193,1,168.75,0|0,0:0|0:0,0:0:0:0:
60,372,240873,5,8,0:0:0:0:
119,305,240975,2,0,P|160:302|199:318,1,84.375,0|0,0:0|0:0,0:0:0:0:
312,384,241177,2,0,P|289:349|283:307,1,84.375,0|8,0:0|0:0,0:0:0:0:
283,177,241380,2,0,P|264:214|230:239,1,84.375,0|0,0:0|0:0,0:0:0:0:
460,212,241583,5,0,0:0:0:0:
371,194,241684,1,8,0:0:0:0:
341,108,241786,1,0,0:0:0:0:
253,91,241887,1,0,0:0:0:0:
194,159,241988,1,0,0:0:0:0:
106,142,242090,1,8,0:0:0:0:
80,104,242191,2,0,L|65:272,1,168.75,0|0,0:0|0:0,0:0:0:0:
248,364,242495,53,8,0:0:0:0:
173,328,242596,2,0,B|131:338|131:338|100:366,1,84.375,0|8,0:0|0:0,0:0:0:0:
369,188,242799,2,0,B|411:178|411:178|442:150,1,84.375,0|8,0:0|0:0,0:0:0:0:
194,159,243002,2,0,B|181:200|181:200|190:241,1,84.375,0|8,0:0|0:0,0:0:0:0:
348,357,243204,2,0,B|360:315|360:315|351:274,1,84.375,0|8,0:0|0:0,0:0:0:0:
208,160,243407,2,0,B|195:201|195:201|204:242,1,84.375,0|8,0:0|0:0,0:0:0:0:
512,372,243610,1,2,0:0:0:0:
448,317,243711,1,8,0:0:0:0:
420,238,243813,1,8,0:0:0:0:
435,157,243914,1,8,0:0:0:0:
490,93,244015,1,6,0:0:0:0:
332,17,244117,38,0,P|368:90|348:170,1,168.75,6|0,0:0|0:0,0:0:0:0:
275,209,244421,2,0,L|266:292,1,84.375,6|0,0:0|0:0,0:0:0:0:
8,88,244725,2,0,L|0:4,1,84.375,6|0,0:0|0:0,0:0:0:0:
7,352,245738,6,0,P|40:342|73:341,1,67.5,4|0,0:0|0:0,0:0:0:0:
176,368,246144,1,0,0:0:0:0:
176,368,246346,2,0,L|181:300,1,67.5,0|8,0:0|0:0,0:0:0:0:
280,256,246752,2,0,L|285:323,1,67.5,0|0,0:0|0:0,0:0:0:0:
376,352,247157,1,0,0:0:0:0:
424,248,247360,6,0,P|415:215|419:181,1,67.5,0|0,0:0|0:0,0:0:0:0:
504,88,247765,1,0,0:0:0:0:
504,88,247968,2,0,L|436:82,1,67.5,0|8,0:0|0:0,0:0:0:0:
288,16,248373,2,0,L|355:10,1,67.5,0|0,0:0|0:0,0:0:0:0:
264,112,248779,1,0,0:0:0:0:
144,39,248981,70,0,P|111:49|78:45,1,67.5
40,32,249286,2,0,L|34:99,1,67.5
40,136,249590,1,0,0:0:0:0:
176,192,249792,2,0,P|146:176|112:174,2,67.5,8|0|0,0:0|0:0|0:0,0:0:0:0:
38,358,250400,2,0,B|74:305|50:238|50:238|77:264|120:264,1,202.5,0|0,0:0|0:0,0:0:0:0:
112,174,251211,1,0,0:0:0:0:
256,240,251414,6,0,L|261:307,1,67.5,8|0,0:0|0:0,0:0:0:0:
239,335,251718,2,0,L|236:368,1,33.75,0|0,0:0|0:0,0:0:0:0:
408,224,252022,2,0,P|393:288|421:349,1,135,0|0,0:0|0:0,0:0:0:0:
478,169,252630,2,0,P|452:147|420:136,1,67.5,0|0,0:0|0:0,0:0:0:0:
338,170,253036,69,8,0:0:0:0:
292,0,253238,1,0,0:0:0:0:
210,34,253441,1,0,0:0:0:0:
362,53,253644,2,0,L|429:47,1,67.5,0|0,0:0|0:0,0:0:0:0:
338,170,254049,1,0,0:0:0:0:
256,136,254252,2,0,L|188:141,1,67.5,0|0,0:0|0:0,0:0:0:0:
142,28,254657,2,0,L|210:34,1,67.5,8|0,0:0|0:0,0:0:0:0:
107,148,255063,1,0,0:0:0:0:
76,74,255265,1,0,0:0:0:0:
29,222,255468,6,0,L|96:227,1,67.5,0|0,0:0|0:0,0:0:0:0:
142,384,255873,2,0,P|134:335|156:290,1,101.25,0|0,0:0|0:0,0:0:0:0:
183,263,256279,2,0,P|188:229|182:196,1,67.5,8|0,0:0|0:0,0:0:0:0:
223,348,256684,1,0,0:0:0:0:
344,272,256887,2,0,L|478:283,1,135,0|0,0:0|0:0,0:0:0:0:
320,368,257495,1,0,0:0:0:0:
472,175,257698,22,0,L|499:177,1,25.3125009655953,2|2,0:0|0:0,0:0:0:0:
473,160,257799,2,0,L|498:162,1,25.3125009655953,2|2,0:0|0:0,0:0:0:0:
474,144,257900,2,0,L|485:8,1,135,8|0,0:0|0:0,0:0:0:0:
391,156,258204,54,0,L|400:56,1,101.250003862381,2|0,0:0|0:0,0:0:0:0:
311,135,258509,70,0,L|314:102,1,33.75,2|0,0:0|0:0,0:0:0:0:
224,16,258711,6,0,P|235:96|181:157,1,168.75,6|4,0:0|0:0,0:0:0:0:
27,59,259015,1,4,0:0:0:0:
59,61,259117,2,0,L|143:68,1,84.375,4|4,0:0|0:0,0:0:0:0:
88,152,259319,1,4,0:0:0:0:
56,154,259421,1,4,0:0:0:0:
0,237,259522,54,0,L|85:245,1,84.375,8|4,0:0|0:0,0:0:0:0:
112,344,259725,2,0,L|27:351,1,84.375,4|4,0:0|0:0,0:0:0:0:
184,272,259927,1,4,0:0:0:0:
219,294,260029,1,4,0:0:0:0:
261,299,260130,1,4,0:0:0:0:
301,286,260231,1,4,0:0:0:0:
342,205,260333,21,4,0:0:0:0:
373,231,260434,1,4,0:0:0:0:
390,270,260536,1,4,0:0:0:0:
388,311,260637,1,4,0:0:0:0:
369,348,260738,2,0,L|453:355,1,84.375,4|4,0:0|0:0,0:0:0:0:
512,288,260941,1,2,0:0:0:0:
510,256,261042,1,4,0:0:0:0:
512,176,261144,54,0,L|427:168,1,84.375,8|4,0:0|0:0,0:0:0:0:
377,26,261346,1,4,0:0:0:0:
405,12,261448,2,0,L|440:88,1,84.375,2|4,0:0|0:0,0:0:0:0:
342,205,261650,1,4,0:0:0:0:
316,187,261752,2,0,L|364:117,1,84.375,2|4,0:0|0:0,0:0:0:0:
231,230,261954,22,0,B|209:180|233:140|233:140|277:97|254:39,1,202.500007724762,2|4,0:0|0:0,0:0:0:0:
24,128,262563,1,2,0:0:0:0:
26,96,262664,1,2,0:0:0:0:
27,63,262765,2,0,B|61:33|149:41|178:76|178:76|139:72,1,202.500007724762,8|4,0:0|0:0,0:0:0:0:
21,206,263373,1,4,0:0:0:0:
152,296,263576,54,0,L|147:245,1,50.6250019311906,4|4,0:0|0:0,0:0:0:0:
248,192,263779,1,8,0:0:0:0:
241,272,263880,1,8,0:0:0:0:
233,352,263981,6,0,B|273:347|273:347|299:355,1,67.5,2|4,0:0|0:0,0:0:0:0:
384,184,264387,38,0,B|400:280|400:280|385:314,1,135,8|0,0:0|0:0,0:0:0:0:
456,128,264691,54,0,L|473:227,1,101.250003862381,2|0,0:0|0:0,0:0:0:0:
373,97,264995,70,0,L|368:64,1,33.75,2|0,0:0|0:0,0:0:0:0:
184,16,265198,5,12,0:0:0:0:
186,47,265299,1,0,0:0:0:0:
189,79,265400,2,0,L|196:163,1,84.375,0|0,0:0|0:0,0:0:0:0:
32,208,265603,1,8,0:0:0:0:
34,177,265704,1,0,0:0:0:0:
37,145,265806,2,0,L|44:60,1,84.375,0|0,0:0|0:0,0:0:0:0:
184,296,266009,21,8,0:0:0:0:
153,298,266110,1,0,0:0:0:0:
121,301,266211,2,0,L|36:308,1,84.375,0|0,0:0|0:0,0:0:0:0:
196,163,266414,1,8,0:0:0:0:
227,165,266515,1,0,0:0:0:0:
259,168,266617,2,0,L|343:175,1,84.375,0|0,0:0|0:0,0:0:0:0:
424,368,266819,54,0,P|411:328|420:287,1,84.375,8|0,0:0|0:0,0:0:0:0:
340,94,267022,2,0,P|352:133|343:174,1,84.375,8|0,0:0|0:0,0:0:0:0:
246,350,267225,2,0,P|232:310|235:268,1,84.375,8|0,0:0|0:0,0:0:0:0:
47,45,267427,2,0,P|60:84|57:126,1,84.375,8|0,0:0|0:0,0:0:0:0:
42,314,267630,6,0,P|81:300|123:303,1,84.375,8|0,0:0|0:0,0:0:0:0:
250,80,267833,2,0,P|210:93|168:90,1,84.375,8|0,0:0|0:0,0:0:0:0:
339,297,268036,2,0,P|378:283|420:286,1,84.375,8|0,0:0|0:0,0:0:0:0:
108,209,268238,2,0,P|68:222|26:219,1,84.375,8|0,0:0|0:0,0:0:0:0:
312,0,268441,21,12,0:0:0:0:
352,68,268542,1,8,0:0:0:0:
334,148,268644,1,8,0:0:0:0:
265,193,268745,1,8,0:0:0:0:
180,172,268846,5,8,0:0:0:0:
108,209,268948,1,8,0:0:0:0:
81,287,269049,1,8,0:0:0:0:
119,362,269150,1,8,0:0:0:0:
216,336,269252,70,0,B|367:349|367:349|324:377,1,202.500007724762,2|0,0:0|0:0,0:0:0:0:
453,192,269556,1,2,0:0:0:0:
512,272,269657,2,0,L|411:280,1,101.250003862381,0|0,0:0|0:0,0:0:0:0:
158,166,269860,38,0,B|238:189|291:118|291:118|292:16|400:16|400:16|392:72|444:101|444:101|395:103|358:155|364:189,1,556.875021243096,6|0,0:0|0:0,0:0:0:0:
343,319,271076,2,0,P|339:294|339:269,1,50.6250019311906,4|0,0:0|0:0,0:0:0:0:
168,319,271279,2,0,P|172:294|173:269,1,50.6250019311906,4|0,0:0|0:0,0:0:0:0:
256,376,271481,70,0,L|256:254,1,121.5,4|0,0:0|0:0,0:0:0:0:
43,110,274319,5,0,0:0:0:0:
4,48,274522,2,0,P|86:41|43:111,1,202.5,10|0,0:0|0:0,0:0:0:0:
167,34,274927,38,0,B|182:88|150:136|150:136|134:192|163:227,1,202.500007724762,6|0,0:0|0:0,0:0:0:0:
36,368,275231,1,0,0:0:0:0:
14,272,275333,2,0,P|63:271|105:299,1,101.250003862381,8|0,0:0|0:0,0:0:0:0:
300,384,275536,1,0,0:0:0:0:
372,315,275637,1,0,0:0:0:0:
349,217,275738,6,0,L|248:225,1,101.250003862381,2|0,0:0|0:0,0:0:0:0:
456,268,275941,2,0,B|440:220|440:220|452:170,1,101.250003862381
260,52,276144,2,0,B|282:82|282:82|446:64,1,202.500007724762,8|0,0:0|0:0,0:0:0:0:
220,144,276448,1,0,0:0:0:0:
120,148,276549,70,0,P|163:61|259:51,1,202.500007724762,2|0,0:0|0:0,0:0:0:0:
173,231,276853,1,0,0:0:0:0:
75,236,276954,2,0,P|36:204|22:156,1,101.250003862381,8|0,0:0|0:0,0:0:0:0:
172,381,277157,1,0,0:0:0:0:
262,340,277259,1,0,0:0:0:0:
274,240,277360,6,0,L|174:232,1,101.250003862381,2|0,0:0|0:0,0:0:0:0:
0,336,277563,2,0,B|48:320|48:320|98:332,1,101.250003862381,0|0,0:0|0:0,0:0:0:0:
354,300,277765,2,0,P|366:204|293:140,1,202.500007724762,8|0,0:0|0:0,0:0:0:0:
439,13,278069,1,0,0:0:0:0:
491,88,278171,70,0,P|443:105|395:93,1,101.250003862381,2|0,0:0|0:0,0:0:0:0:
247,60,278373,1,0,0:0:0:0:
201,140,278475,1,0,0:0:0:0:
249,219,278576,2,0,P|297:230|344:212,1,101.250003862381,8|0,0:0|0:0,0:0:0:0:
444,328,278779,2,0,P|395:316|348:334,1,101.250003862381,0|0,0:0|0:0,0:0:0:0:
172,376,278981,6,0,L|180:275,1,101.250003862381,2|0,0:0|0:0,0:0:0:0:
36,288,279184,2,0,L|27:187,1,101.250003862381,0|0,0:0|0:0,0:0:0:0:
201,140,279387,2,0,P|154:157|105:146,1,101.250003862381,8|0,0:0|0:0,0:0:0:0:
52,60,279590,2,0,P|98:42|147:53,1,101.250003862381,0|0,0:0|0:0,0:0:0:0:
324,160,279792,70,0,P|303:65|377:4,1,202.500007724762,2|0,0:0|0:0,0:0:0:0:
412,185,280096,1,0,0:0:0:0:
347,248,280198,2,0,P|296:248|254:220,1,101.250003862381,8|0,0:0|0:0,0:0:0:0:
389,96,280400,2,0,P|439:95|481:123,1,101.250003862381
369,335,280603,6,0,B|408:294|480:300|508:347|508:347|466:343,1,202.500007724762,2|0,0:0|0:0,0:0:0:0:
282,310,280907,1,2,0:0:0:0:
217,372,281009,1,8,0:0:0:0:
217,372,281211,70,0,B|162:394|86:346|94:259|94:259|87:323|34:336,1,303.750011587143,6|0,0:0|0:0,0:0:0:0:
56,168,281617,2,0,P|105:158|150:178,1,101.250003862381
358,251,281819,2,0,P|269:214|194:275,1,202.500007724762,10|0,0:0|0:0,0:0:0:0:
382,338,282123,1,0,0:0:0:0:
444,274,282225,6,0,P|444:223|416:181,1,101.250003862381,2|0,0:0|0:0,0:0:0:0:
256,112,282427,2,0,P|299:137|349:134,1,101.250003862381,0|0,0:0|0:0,0:0:0:0:
490,30,282630,2,0,P|446:54|423:99,1,101.250003862381,8|0,0:0|0:0,0:0:0:0:
227,20,282833,2,0,P|277:17|320:43,1,101.250003862381,0|0,0:0|0:0,0:0:0:0:
153,192,283036,70,0,L|162:92,1,101.250003862381,2|0,0:0|0:0,0:0:0:0:
12,28,283238,2,0,L|21:128,1,101.250003862381,0|0,0:0|0:0,0:0:0:0:
220,252,283441,2,0,P|127:274|67:200,1,202.500007724762,8|0,0:0|0:0,0:0:0:0:
239,164,283745,1,0,0:0:0:0:
306,225,283846,6,0,B|348:262|348:262|336:116,1,202.500007724762,2|0,0:0|0:0,0:0:0:0:
496,52,284150,1,0,0:0:0:0:
412,36,284252,2,0,L|429:237,1,202.500007724762,8|0,0:0|0:0,0:0:0:0:
376,384,284556,1,0,0:0:0:0:
220,332,284657,70,0,B|255:294|255:294|406:308,1,202.500007724762,6|0,0:0|0:0,0:0:0:0:
144,218,284961,1,0,0:0:0:0:
197,146,285063,2,0,B|234:181|234:181|220:332,1,202.500007724762,8|0,0:0|0:0,0:0:0:0:
56,371,285367,1,0,0:0:0:0:
4,299,285468,6,0,P|48:214|144:218,1,202.500007724762,2|0,0:0|0:0,0:0:0:0:
288,143,285772,1,0,0:0:0:0:
240,64,285873,2,0,P|192:53|145:71,1,101.250003862381,8|0,0:0|0:0,0:0:0:0:
369,98,286076,2,0,P|417:109|464:91,1,101.250003862381,6|0,0:0|0:0,0:0:0:0:
356,290,286279,70,0,L|364:189,1,101.250003862381,2|0,0:0|0:0,0:0:0:0:
197,146,286481,2,0,L|205:246,1,101.250003862381,2|0,0:0|0:0,0:0:0:0:
35,202,286684,2,0,L|44:102,1,101.250003862381,2|0,0:0|0:0,0:0:0:0:
29,359,286887,38,0,P|76:311|142:309,1,135,6|0,0:0|0:0,0:0:0:0:
205,247,287191,1,8,0:0:0:0:
120,224,287292,1,2,0:0:0:0:
496,16,287495,70,0,B|488:60|488:60|500:116,1,101.25,10|0,0:0|0:0,0:0:0:0:
336,116,287900,54,0,P|426:150|438:246,1,202.500007724762,6|0,0:0|0:0,0:0:0:0:
253,338,288204,1,0,0:0:0:0:
261,247,288306,2,0,P|299:214|348:209,1,101.250003862381,8|0,0:0|0:0,0:0:0:0:
340,24,288509,1,0,0:0:0:0:
248,9,288610,1,0,0:0:0:0:
189,81,288711,6,0,L|197:182,1,101.250003862381,2|0,0:0|0:0,0:0:0:0:
24,24,288914,2,0,B|74:36|74:36|122:20,1,101.250003862381,0|0,0:0|0:0,0:0:0:0:
10,206,289117,2,0,B|49:169|49:169|197:182,1,202.500007724762,8|0,0:0|0:0,0:0:0:0:
172,360,289421,1,0,0:0:0:0:
112,300,289522,70,0,B|75:256|75:256|221:269,1,202.500007724762,2|0,0:0|0:0,0:0:0:0:
392,328,289826,1,0,0:0:0:0:
319,380,289927,2,0,P|302:332|314:284,1,101.250003862381,8|0,0:0|0:0,0:0:0:0:
439,167,290130,1,0,0:0:0:0:
508,227,290231,1,0,0:0:0:0:
492,318,290333,6,0,L|391:327,1,101.250003862381,2|0,0:0|0:0,0:0:0:0:
308,187,290536,2,0,B|324:234|324:234|313:284,1,101.250003862381
500,88,290738,2,0,L|298:70,1,202.500007724762,8|0,0:0|0:0,0:0:0:0:
128,64,291042,1,0,0:0:0:0:
206,107,291144,70,0,P|217:58|201:12,1,101.250003862381,2|0,0:0|0:0,0:0:0:0:
136,256,291346,1,0,0:0:0:0:
50,214,291448,1,0,0:0:0:0:
48,117,291549,2,0,P|81:78|128:64,1,101.250003862381,8|0,0:0|0:0,0:0:0:0:
280,266,291752,1,2,0:0:0:0:
282,234,291819,1,2,0:0:0:0:
285,202,291887,1,2,0:0:0:0:
288,170,291954,6,0,L|297:69,1,101.250003862381,2|0,0:0|0:0,0:0:0:0:
136,256,292157,2,0,L|127:155,1,101.250003862381,0|0,0:0|0:0,0:0:0:0:
0,336,292360,2,0,L|8:235,1,101.250003862381,8|0,0:0|0:0,0:0:0:0:
289,170,292563,70,0,P|268:216|275:266,1,101.250003862381,4|0,0:0|0:0,0:0:0:0:
461,384,292765,1,2,0:0:0:0:
505,302,292867,1,0,0:0:0:0:
457,223,292968,2,0,P|409:212|362:230,1,101.250003862381
194,189,293171,2,0,P|239:167|289:171,1,101.250003862381,8|0,0:0|0:0,0:0:0:0:
504,0,293373,2,0,P|515:48|497:95,1,101.250003862381,4|0,0:0|0:0,0:0:0:0:
295,104,293576,38,0,L|289:171,1,67.5,2|0,0:0|0:0,0:0:0:0:
204,76,293779,2,0,L|198:8,1,67.5
24,233,293981,70,0,B|21:203|21:203|27:163|27:163|25:132,1,101.25,10|0,0:0|0:0,0:0:0:0:
200,168,294387,54,0,P|114:212|114:308,1,202.500007724762,6|0,0:0|0:0,0:0:0:0:
338,337,294691,1,0,0:0:0:0:
388,259,294792,2,0,B|285:220|285:300|193:262,1,202.500007724762,8|0,0:0|0:0,0:0:0:0:
431,177,295096,1,0,0:0:0:0:
483,259,295198,6,0,P|434:342|338:337,1,202.500007724762,2|0,0:0|0:0,0:0:0:0:
242,183,295502,1,0,0:0:0:0:
308,132,295603,2,0,L|408:140,1,101.250003862381,8|0,0:0|0:0,0:0:0:0:
432,8,295806,2,0,L|331:16,1,101.250003862381,0|0,0:0|0:0,0:0:0:0:
120,56,296009,70,0,B|162:27|162:27|149:178,1,202.500007724762,2|0,0:0|0:0,0:0:0:0:
61,332,296313,1,0,0:0:0:0:
9,260,296414,2,0,P|56:243|104:254,1,101.250003862381,8|0,0:0|0:0,0:0:0:0:
247,327,296617,2,0,P|200:344|152:333,1,101.250003862381,0|0,0:0|0:0,0:0:0:0:
277,143,296819,5,2,0:0:0:0:
262,235,296921,1,0,0:0:0:0:
334,294,297022,2,0,L|435:286,1,101.250003862381
378,151,297225,2,0,L|277:143,1,101.250003862381,8|0,0:0|0:0,0:0:0:0:
456,16,297427,2,0,P|444:64|461:111,1,101.250003862381,0|0,0:0|0:0,0:0:0:0:
262,235,297630,70,0,P|189:171|211:78,1,202.500007724762,2|0,0:0|0:0,0:0:0:0:
1,113,297934,1,0,0:0:0:0:
61,49,298036,2,0,B|90:83|90:83|72:239,1,202.500007724762,8|0,0:0|0:0,0:0:0:0:
165,384,298340,1,0,0:0:0:0:
119,312,298441,6,0,B|211:274|211:354|314:315,1,202.500007724762,2|0,0:0|0:0,0:0:0:0:
412,384,298745,1,0,0:0:0:0:
499,350,298846,2,0,P|519:304|509:255,1,101.250003862381,8|0,0:0|0:0,0:0:0:0:
256,24,299049,1,14,0:0:0:0:
256,24,299454,5,8,0:0:0:0:
256,104,299556,1,8,0:0:0:0:
256,183,299657,2,0,L|256:231,2,33.7500012874604,4|4|4,0:0|0:0|0:0,0:0:0:0:
256,104,299860,1,8,0:0:0:0:
220,116,299961,1,8,0:0:0:0:
256,183,300063,5,8,0:0:0:0:
292,195,300164,1,8,0:0:0:0:
256,260,300265,1,2,0:0:0:0:
220,272,300367,1,0,0:0:0:0:
256,361,300468,70,0,L|256:260,1,101.25,10|0,0:0|0:0,0:0:0:0:
288,63,300873,22,0,P|328:54|368:67,1,84.375,6|0,0:0|0:0,0:0:0:0:
462,150,301076,1,8,0:0:0:0:
419,226,301177,1,8,0:0:0:0:
332,227,301279,2,0,L|324:142,1,84.375,0|0,0:0|0:0,0:0:0:0:
460,360,301481,2,0,P|390:317|311:340,1,168.75,6|0,0:0|0:0,0:0:0:0:
148,320,301786,1,0,0:0:0:0:
222,364,301887,2,0,P|235:324|227:284,1,84.375,2|0,0:0|0:0,0:0:0:0:
133,140,302090,2,0,B|167:110|167:110|157:234,1,168.75,8|0,0:0|0:0,0:0:0:0:
47,132,302394,1,0,0:0:0:0:
3,207,302495,6,0,P|42:219|83:211,1,84.375,6|0,0:0|0:0,0:0:0:0:
107,50,302698,1,8,0:0:0:0:
192,34,302799,1,8,0:0:0:0:
248,100,302900,2,0,L|240:184,1,84.375,0|0,0:0|0:0,0:0:0:0:
437,32,303103,2,0,B|402:6|402:6|277:18,1,168.75,6|0,0:0|0:0,0:0:0:0:
357,155,303407,1,0,0:0:0:0:
432,199,303509,2,0,P|444:159|436:118,1,84.375,2|0,0:0|0:0,0:0:0:0:
431,285,303711,2,0,P|459:315|498:328,1,84.375,8|0,0:0|0:0,0:0:0:0:
357,241,303914,2,0,P|316:250|284:277,1,84.375,0|0,0:0|0:0,0:0:0:0:
72,368,304117,6,0,P|94:323|90:273,1,101.250003862381,6|0,0:0|0:0,0:0:0:0:
283,92,304319,2,0,P|260:136|264:186,1,101.250003862381,2|0,0:0|0:0,0:0:0:0:
324,368,304522,2,0,L|223:359,1,101.250003862381,2|0,0:0|0:0,0:0:0:0:
31,92,304725,2,0,L|131:100,1,101.250003862381,2|0,0:0|0:0,0:0:0:0:
455,155,304927,6,0,B|403:166|403:166|357:155,1,101.250003862381,2|0,0:0|0:0,0:0:0:0:
39,196,305130,2,0,B|91:185|91:185|137:196,1,101.250003862381,2|0,0:0|0:0,0:0:0:0:
430,383,305333,2,0,B|442:336|442:336|431:285,1,101.250003862381,2|0,0:0|0:0,0:0:0:0:
256,24,305536,1,6,0:0:0:0:
40,52,306346,37,8,0:0:0:0:
33,136,306448,1,8,0:0:0:0:
26,220,306549,2,0,B|4:190|4:190|135:201,1,168.75,6|0,0:0|0:0,0:0:0:0:
237,303,306853,2,0,B|258:273|258:273|127:284,1,168.75,6|0,0:0|0:0,0:0:0:0:
36,361,307157,2,0,L|120:368,1,84.375,6|0,0:0|0:0,0:0:0:0:
256,192,307360,1,0,0:0:0:0:
256,48,309184,53,8,0:0:0:0:
256,128,309286,1,8,0:0:0:0:
256,208,309387,2,0,L|256:256,2,33.7500012874604,4|4|4,0:0|0:0|0:0,0:0:0:0:
256,128,309590,1,8,0:0:0:0:
220,140,309691,1,8,0:0:0:0:
256,208,309792,5,8,0:0:0:0:
292,220,309894,1,8,0:0:0:0:
256,295,309995,1,8,0:0:0:0:
256,311,310063,1,8,0:0:0:0:
256,327,310130,1,8,0:0:0:0:
256,343,310198,70,0,L|256:241,1,101.25,10|0,0:0|0:0,0:0:0:0:
113,115,310603,21,6,0:0:0:0:
204,121,310704,2,0,P|190:160|162:190,1,84.375,0|0,0:0|0:0,0:0:0:0:
285,85,310907,2,0,P|325:76|366:86,1,84.375,0|2,0:0|0:0,0:0:0:0:
212,130,311110,2,0,P|199:170|170:200,1,84.375,0|0,0:0|0:0,0:0:0:0:
288,75,311313,2,0,P|328:66|369:76,1,84.375,0|2,0:0|0:0,0:0:0:0:
220,140,311515,2,0,P|207:180|178:210,1,84.375
291,65,311718,2,0,P|331:56|372:66,1,84.375,0|2,0:0|0:0,0:0:0:0:
452,246,311921,2,0,P|437:165|492:106,1,168.75
444,329,312225,5,2,0:0:0:0:
376,280,312326,2,0,P|334:278|295:295,1,84.375,0|0,0:0|0:0,0:0:0:0:
188,360,312529,2,0,P|210:324|214:282,1,84.375,0|2,0:0|0:0,0:0:0:0:
212,157,312731,2,0,P|231:193|265:218,1,84.375,0|0,0:0|0:0,0:0:0:0:
60,312,312934,5,0,0:0:0:0:
130,272,313036,1,2,0:0:0:0:
130,192,313137,1,0,0:0:0:0:
61,151,313238,1,0,0:0:0:0:
61,71,313340,1,0,0:0:0:0:
130,31,313441,1,2,0:0:0:0:
164,60,313542,2,0,B|225:65|225:65|275:53|275:53|330:58,1,168.75,0|0,0:0|0:0,0:0:0:0:
347,277,313846,53,6,0:0:0:0:
255,271,313948,2,0,P|267:231|296:200,1,84.375,0|0,0:0|0:0,0:0:0:0:
428,324,314150,2,0,P|437:283|429:242,1,84.375,0|2,0:0|0:0,0:0:0:0:
267,275,314353,2,0,P|279:235|308:204,1,84.375,0|0,0:0|0:0,0:0:0:0:
435,330,314556,2,0,P|444:289|436:248,1,84.375,0|2,0:0|0:0,0:0:0:0:
274,281,314759,2,0,P|286:241|315:210,1,84.375,0|0,0:0|0:0,0:0:0:0:
442,336,314961,2,0,P|451:295|443:254,1,84.375,0|2,0:0|0:0,0:0:0:0:
280,90,315164,2,0,P|351:128|424:91,1,168.75,0|0,0:0|0:0,0:0:0:0:
164,32,315468,38,0,B|202:7|202:7|187:129,1,168.75,12|0,0:0|0:0,0:0:0:0:
132,200,315772,2,0,L|139:284,1,84.375,2|8,0:0|0:0,0:0:0:0:
4,200,315975,1,8,0:0:0:0:
68,144,316076,2,0,L|60:59,1,84.375,6|0,0:0|0:0,0:0:0:0:
512,360,316481,6,0,B|464:355|464:355|442:377|442:377|419:363|419:363|356:358,1,168.75,6|0,0:0|0:0,0:0:0:0:
240,132,317090,21,6,0:0:0:0:
322,93,317191,2,0,P|330:133|320:174,1,84.375,0|0,0:0|0:0,0:0:0:0:
424,284,317394,2,0,P|414:242|424:202,1,84.375,0|2,0:0|0:0,0:0:0:0:
311,95,317596,2,0,P|320:135|310:176,1,84.375
417,275,317799,2,0,P|407:233|417:193,1,84.375,0|2,0:0|0:0,0:0:0:0:
299,96,318002,2,0,P|308:136|298:177,1,84.375
410,267,318204,2,0,P|400:225|410:185,1,84.375,0|2,0:0|0:0,0:0:0:0:
269,358,318407,2,0,P|271:277|207:226,1,168.75
57,225,318711,5,2,0:0:0:0:
61,315,318813,2,0,P|101:303|132:275,1,84.375,0|0,0:0|0:0,0:0:0:0:
58,143,319015,2,0,P|48:183|56:224,1,84.375,0|2,0:0|0:0,0:0:0:0:
207,226,319218,2,0,P|176:197|136:184,1,84.375
148,32,319421,5,0,0:0:0:0:
183,107,319522,1,2,0:0:0:0:
265,114,319623,1,0,0:0:0:0:
313,47,319725,1,0,0:0:0:0:
396,56,319826,1,0,0:0:0:0:
430,133,319927,1,2,0:0:0:0:
396,160,320029,2,0,L|410:328,1,168.75,0|0,0:0|0:0,0:0:0:0:
239,350,320333,53,8,0:0:0:0:
310,310,320434,2,0,B|327:270|327:270|323:228,1,84.375,0|8,0:0|0:0,0:0:0:0:
87,294,320637,2,0,B|127:311|127:311|169:307,1,84.375,0|8,0:0|0:0,0:0:0:0:
103,71,320840,2,0,B|86:111|86:111|89:151,1,84.375,0|8,0:0|0:0,0:0:0:0:
326,87,321042,2,0,B|286:70|286:70|245:73,1,84.375,0|8,0:0|0:0,0:0:0:0:
91,274,321245,2,0,B|131:291|131:291|171:287,1,84.375,0|8,0:0|0:0,0:0:0:0:
469,168,321448,1,2,0:0:0:0:
386,173,321549,1,8,0:0:0:0:
324,227,321650,1,2,0:0:0:0:
310,310,321752,1,8,0:0:0:0:
354,384,321853,1,2,0:0:0:0:
172,85,322157,6,0,L|179:169,1,84.375,6|0,0:0|0:0,0:0:0:0:
25,249,322360,1,8,0:0:0:0:
89,313,322461,2,0,B|113:266|113:266|102:151,1,168.75,6|8,0:0|0:0,0:0:0:0:
166,332,322765,2,0,B|190:285|190:285|179:170,1,168.75,6|8,0:0|0:0,0:0:0:0:
269,382,323069,38,0,B|263:318|263:318|277:296|277:296|262:258|262:258|255:187,1,202.5,6|0,0:0|0:0,0:0:0:0:
256,80,323779,5,8,0:0:0:0:
256,108,323880,1,8,0:0:0:0:
206,14,323981,69,8,0:0:0:0:
184,36,324083,1,8,0:0:0:0:
303,13,324184,1,8,0:0:0:0:
328,36,324286,1,8,0:0:0:0:
256,123,324387,6,0,L|230:123,1,25.3125009655953,8|0,0:0|0:0,0:0:0:0:
256,147,324488,2,0,L|281:147,1,25.3125009655953,8|0,0:0|0:0,0:0:0:0:
256,172,324590,1,2,0:0:0:0:
256,248,324691,1,2,0:0:0:0:
256,350,324792,70,0,L|256:248,1,101.25,10|0,0:0|0:0,0:0:0:0:
424,196,325198,22,0,B|388:232|388:232|408:312|408:312|400:356,1,168.75,14|0,0:0|0:0,0:0:0:0:
88,196,325502,2,0,B|124:232|124:232|104:312|104:312|112:356,1,168.75,14|0,0:0|0:0,0:0:0:0:
256,59,325806,54,0,B|256:104|256:104|268:116|268:116|244:176|244:176|256:192|256:192|256:248,1,202.5,14|0,0:0|0:0,0:0:0:0:
