osu file format v14

[General]
AudioFilename: audio.mp3
AudioLeadIn: 0
PreviewTime: -1
Countdown: 1
SampleSet: None
StackLeniency: 0.7
Mode: 0
LetterboxInBreaks: 0
WidescreenStoryboard: 0

[Editor]
DistanceSpacing: 1
BeatDivisor: 4
GridSize: 8
TimelineZoom: 1.6

[Metadata]
Title:From
TitleUnicode:フロム
Artist:TRUE
ArtistUnicode:TRUE
Creator:lkx_Shore
Version:Easy
Source:終末なにしてますか? 忙しいですか? 救ってもらっていいですか?
Tags:ed ending Shumatsu nani shitemasu ka? Isogashidesu ka? Sukutte moratte iidesu ka?
BeatmapID:1669345
BeatmapSetID:794778

[Difficulty]
HPDrainRate:7
CircleSize:4
OverallDifficulty:7
ApproachRate:8.5
SliderMultiplier:2
SliderTickRate:1

[Events]
//Background and Video events
0,0,"46b591fa43166d225301fc824d2309f79052d205.jpg",0,0
//Break Periods
//Storyboard Layer 0 (Background)
//Storyboard Layer 1 (Fail)
//Storyboard Layer 2 (Pass)
//Storyboard Layer 3 (Foreground)
//Storyboard Sound Samples

[TimingPoints]
1379,487.80487804878,4,2,0,60,1,0
18696,-133.333333333333,4,2,0,60,0,0
18939,-133.333333333333,4,2,0,5,0,0
20891,-133.333333333333,4,2,0,60,0,0
56013,-100,4,2,0,60,0,1
87232,-100,4,2,0,60,0,0
87354,-100,4,2,0,5,0,0

[HitObjects]
64,272,1379,5,0,0:0:0:0:
64,272,1439,2,0,P|112:296|152:296,1,75
184,288,1744,1,0,0:0:0:0:
224,256,1866,1,0,0:0:0:0:
136,168,2110,2,0,L|120:368,1,200
48,104,2842,1,0,0:0:0:0:
80,96,2964,1,0,0:0:0:0:
112,88,3086,1,0,0:0:0:0:
144,80,3208,1,0,0:0:0:0:
176,72,3330,5,4,0:2:0:0:
344,216,3574,1,0,0:0:0:0:
328,64,3818,1,0,0:0:0:0:
192,224,4061,1,2,0:2:0:0:
192,224,4549,1,0,1:0:0:0:
344,312,4793,1,0,3:0:0:0:
344,312,4915,1,0,3:0:0:0:
344,312,5037,2,0,L|448:296,1,100,0|0,1:0|3:0,0:0:0:0:
480,192,5525,5,0,0:1:0:0:
480,192,5769,2,0,L|381:207,1,100,0|0,3:0|0:0,0:0:0:0:
304,120,6257,2,0,L|402:104,1,100,0|0,3:0|0:0,0:0:0:0:
472,40,6622,1,0,0:0:0:0:
472,40,6744,2,0,P|480:64|480:96,1,50,0|0,1:0|1:0,0:0:0:0:
440,184,6988,2,0,L|432:240,1,50,0|0,3:0|3:0,0:0:0:0:
408,344,7232,5,4,1:2:0:0:
392,328,7476,1,2,0:2:0:0:
104,344,7720,5,0,1:2:0:0:
120,328,7964,2,0,L|128:272,1,50,2|0,0:2|1:2,0:2:0:0:
88,184,8208,1,0,1:0:0:0:
128,208,8330,1,0,3:0:0:0:
176,208,8452,1,0,1:0:0:0:
224,184,8574,1,0,3:0:0:0:
256,144,8696,2,0,P|265:106|256:40,1,100,0|0,1:0|3:0,0:0:0:0:
176,336,9183,6,0,L|376:312,1,200,4|0,1:2|1:0,0:0:0:0:
144,240,9915,1,2,0:0:0:0:
192,256,10037,1,0,0:0:0:0:
240,272,10159,1,0,0:0:0:0:
240,272,10281,2,0,P|264:224|264:168,1,100,0|0,1:0|0:0,0:0:0:0:
240,104,10647,2,0,B|224:128|224:128|376:112,1,150,0|0,1:0|0:0,0:0:0:0:
440,104,11135,5,0,1:0:0:0:
384,24,11378,1,2,0:0:0:0:
408,192,11622,1,0,1:0:0:0:
424,328,11865,1,2,0:0:0:0:
304,328,12110,1,0,0:0:0:0:
304,328,12232,2,0,L|200:312,1,100,0|0,1:0|0:0,0:0:0:0:
120,296,12598,1,0,1:0:0:0:
240,168,12842,1,2,0:0:0:0:
320,360,13086,6,0,L|192:336,1,100,4|0,1:2|0:0,0:0:0:0:
88,312,13574,1,0,1:0:0:0:
176,240,13818,1,0,3:0:0:0:
24,336,14061,1,0,1:0:0:0:
24,336,14183,2,0,P|24:280|40:232,1,100,0|0,1:0|0:0,0:0:0:0:
72,200,14549,2,0,P|88:152|80:96,1,100,0|0,1:0|0:0,0:0:0:0:
0,144,14915,1,0,1:0:0:0:
0,144,15037,6,0,P|88:160|200:128,1,200,4|0,1:2|1:0,0:0:0:0:
256,56,15769,1,0,0:0:0:0:
464,208,16013,1,0,1:0:0:0:
416,224,16135,1,0,1:0:0:0:
368,232,16257,1,2,0:2:0:0:
320,224,16378,1,0,1:0:0:0:
280,200,16500,1,0,1:0:0:0:
376,128,16744,1,2,0:0:0:0:
384,112,16866,1,0,0:0:0:0:
392,96,16988,5,4,1:2:0:0:
416,320,17232,1,2,0:0:0:0:
408,336,17354,1,0,0:0:0:0:
400,352,17476,1,0,1:0:0:0:
240,208,17720,2,0,P|288:192|352:192,1,100,4|0,1:2|1:0,0:0:0:0:
376,224,18086,1,0,1:0:0:0:
376,224,18208,1,0,1:0:0:0:
480,144,18452,1,0,1:0:0:0:
424,40,18696,6,0,B|352:64|280:24|280:24|184:40|183:145|183:145|248:144|273:107|273:107|323:143|320:192|320:192|288:280,1,600.000022888185,2|0,0:0|0:0,0:0:0:0:
294,262,20891,6,0,P|230:278|142:262,1,150.000005722046,2|0,0:2|0:0,0:0:0:0:
96,200,21622,1,0,0:0:0:0:
96,120,21866,1,0,0:0:0:0:
128,48,22110,1,0,0:0:0:0:
136,40,22354,1,0,0:0:0:0:
200,296,22598,1,0,0:0:0:0:
184,288,22842,6,0,P|120:280|32:288,1,150.000005722046,2|0,0:0|0:0,0:0:0:0:
232,216,23574,2,0,L|208:376,1,150.000005722046,2|0,0:0|0:0,0:0:0:0:
209,364,24305,1,0,0:0:0:0:
280,328,24549,1,0,0:0:0:0:
360,336,24793,5,2,0:0:0:0:
464,72,25281,1,0,0:0:0:0:
88,192,25769,1,0,0:0:0:0:
96,200,26013,2,0,B|144:208|184:192|184:192|248:208,1,150.000005722046,2|0,0:0|0:0,0:0:0:0:
240,288,26744,6,0,P|312:264|392:264,1,150.000005722046,2|0,0:0|0:0,0:0:0:0:
192,320,27476,1,0,0:0:0:0:
186,291,27720,2,0,P|219:223|276:166,1,150.000005722046,2|0,0:0|0:0,0:0:0:0:
160,344,28452,1,0,0:0:0:0:
136,328,28696,6,0,P|112:272|112:232,1,75.0000028610231,0|0,3:0|0:0,0:0:0:0:
152,112,29183,2,0,P|176:168|176:208,1,75.0000028610231,0|0,3:0|0:0,0:0:0:0:
80,176,29671,1,0,3:0:0:0:
256,128,29915,2,0,P|304:128|344:144,1,75.0000028610231,0|0,0:0|3:0,3:0:0:0:
280,216,30403,1,0,0:0:0:0:
424,104,30647,6,0,L|408:184,1,75.0000028610231,0|0,3:0|0:0,0:0:0:0:
384,256,31135,1,0,3:0:0:0:
329,136,31378,2,0,L|343:62,1,75.0000028610231,0|0,0:0|3:0,0:0:0:0:
408,176,31866,1,0,0:0:0:0:
296,248,32110,2,0,P|264:248|216:232,1,75.0000028610231,0|0,3:0|0:0,0:0:0:0:
80,176,32598,6,0,L|232:160,2,150.000005722046,2|0|0,1:2|3:0|3:0,0:0:0:0:
128,88,33818,1,0,0:0:0:0:
256,144,34061,2,0,L|248:248,1,75.0000028610231,0|0,3:0|0:0,0:0:0:0:
160,336,34549,6,0,P|224:312|320:304,1,150.000005722046,2|0,1:2|0:0,0:0:0:0:
120,360,35281,1,0,0:0:0:0:
128,312,35525,2,0,P|171:259|200:240,1,75.0000028610231,2|0,1:2|0:0,0:0:0:0:
104,72,36013,1,0,1:0:0:0:
224,136,36257,1,0,3:0:0:0:
48,216,36500,6,0,L|168:208,2,112.500004291535,4|0|0,1:2|1:0|1:0,0:0:0:0:
328,280,37476,2,0,L|240:264,1,75.0000028610231,0|0,0:0|3:0,0:0:0:0:
312,184,37964,1,0,3:0:0:0:
400,216,38208,1,0,0:0:0:0:
400,352,38452,6,0,L|248:328,1,150.000005722046,4|0,1:2|3:0,0:0:0:0:
96,344,39183,2,0,P|112:264|104:184,1,150.000005722046,0|0,1:0|3:0,0:0:0:0:
64,72,39915,1,0,1:0:0:0:
320,128,40159,1,2,0:0:0:0:
320,128,40281,1,0,0:0:0:0:
320,128,40403,6,0,P|264:144|168:128,1,150.000005722046,0|0,1:2|0:0,0:0:0:0:
248,272,41135,2,0,L|272:176,1,75.0000028610231,0|0,1:0|0:0,0:0:0:0:
368,256,41622,1,0,3:0:0:0:
320,352,41866,2,0,L|240:360,1,75.0000028610231,0|0,1:0|3:0,0:0:0:0:
344,192,42354,6,0,L|496:176,2,150.000005722046,4|0|0,1:2|3:0|1:0,0:0:0:0:
240,56,43574,1,2,0:0:0:0:
256,96,43696,1,0,0:0:0:0:
264,136,43818,2,0,P|256:208|248:232,1,75.0000028610231,0|0,1:0|0:0,0:0:0:0:
192,240,44183,1,0,0:0:0:0:
136,288,44305,6,0,L|248:304,2,112.500004291535,4|0|0,1:2|1:0|1:0,0:0:0:0:
48,144,45281,1,0,0:0:0:0:
136,64,45525,1,0,3:0:0:0:
56,224,45769,1,0,1:0:0:0:
40,64,46013,1,0,0:0:0:0:
48,56,46135,1,0,0:0:0:0:
56,48,46257,6,0,P|112:32|208:56,1,150.000005722046,4|0,1:2|3:0,0:0:0:0:
400,120,46988,2,0,P|344:136|248:112,1,150.000005722046,0|0,1:0|3:0,0:0:0:0:
256,116,47720,1,0,1:0:0:0:
448,24,47964,1,0,0:0:0:0:
480,128,48208,6,0,L|456:304,1,150.000005722046,0|0,1:0|0:0,0:0:0:0:
328,192,48939,1,0,1:0:0:0:
304,336,49183,2,0,L|400:352,1,75.0000028610231,0|0,1:0|3:0,0:0:0:0:
232,256,49671,1,0,3:0:0:0:
368,208,49915,1,0,3:0:0:0:
328,192,50037,1,0,3:0:0:0:
288,184,50159,6,0,P|208:176|112:192,1,150.000005722046,4|0,1:2|1:0,0:0:0:0:
192,352,50891,2,0,L|208:264,1,75.0000028610231,0|0,1:0|0:0,0:0:0:0:
368,240,51378,2,0,L|352:152,1,75.0000028610231,0|0,1:0|3:0,0:0:0:0:
328,136,51744,1,0,3:0:0:0:
296,112,51866,1,0,3:0:0:0:
256,104,51988,1,0,3:0:0:0:
216,104,52110,5,4,1:2:0:0:
384,40,52354,1,0,1:0:0:0:
296,240,52598,1,0,1:1:0:0:
248,24,52842,1,0,1:0:0:0:
352,160,53086,1,0,1:0:0:0:
96,64,53330,1,0,1:0:0:0:
408,96,53574,1,0,1:0:0:0:
104,88,53818,2,0,L|160:72,1,37.5000014305115,2|0,0:0|0:0,0:0:0:0:
112,112,54061,6,0,L|208:88,1,75.0000028610231,0|2,3:0|0:0,0:0:0:0:
392,152,54549,2,0,L|296:128,1,75.0000028610231,0|2,0:0|0:0,0:0:0:0:
280,128,54915,1,0,0:0:0:0:
304,104,55037,1,0,3:0:0:0:
344,112,55159,1,0,3:0:0:0:
360,144,55281,1,0,3:0:0:0:
336,176,55403,1,0,3:0:0:0:
296,168,55525,5,0,1:0:0:0:
315,107,55647,1,0,1:0:0:0:
379,107,55769,1,0,1:0:0:0:
399,168,55891,1,0,1:0:0:0:
347,205,56013,6,0,P|280:208|200:184,1,150,4|0,1:2|0:0,0:0:0:0:
168,144,56500,1,0,1:0:0:0:
256,328,56744,1,0,0:0:0:0:
256,328,56866,1,0,0:0:0:0:
256,328,56988,2,0,P|270:269|264:216,1,100,0|0,3:0|0:0,0:0:0:0:
176,88,57476,1,0,1:0:0:0:
72,240,57720,2,0,L|120:256,1,50
88,304,57964,6,0,B|136:288|136:288|232:320,1,150,4|0,1:2|0:0,0:0:0:0:
272,344,58452,1,0,1:0:0:0:
368,152,58696,2,0,L|320:248,1,100,2|0,0:0|3:0,0:0:0:0:
448,368,59183,1,2,0:0:0:0:
440,320,59305,1,0,0:0:0:0:
432,272,59427,1,0,1:0:0:0:
432,272,59671,1,0,3:0:0:0:
480,96,59915,6,0,P|408:120|288:88,1,200,4|0,1:2|1:0,0:0:0:0:
96,152,60647,1,0,0:0:0:0:
216,296,60891,2,0,L|232:184,1,100,0|0,3:0|0:0,0:0:0:0:
104,240,61378,1,0,1:0:0:0:
320,360,61622,1,0,0:0:0:0:
352,144,61866,6,0,L|337:242,1,100,4|0,1:2|0:0,0:0:0:0:
320,360,62354,1,0,1:0:0:0:
456,224,62598,2,0,L|512:232,2,50,0|0|0,0:0|0:0|3:0,0:0:0:0:
248,264,63086,1,0,3:0:0:0:
416,336,63330,1,0,1:0:0:0:
352,144,63574,1,2,0:0:0:0:
144,304,63818,6,0,L|168:152,1,150,4|0,1:2|0:0,0:1:0:0:
152,104,64305,1,0,1:0:0:0:
88,256,64549,2,0,P|128:272|184:272,1,100,2|0,3:2|3:0,0:0:0:0:
304,176,65037,1,0,0:0:0:0:
168,72,65281,2,0,P|144:120|136:176,1,100,0|0,1:0|0:0,0:0:0:0:
176,216,65647,1,0,0:0:0:0:
216,264,65769,6,0,L|232:368,1,100,4|0,1:2|0:0,0:0:0:0:
336,152,66257,2,0,L|352:256,1,100,0|0,1:2|0:0,0:0:0:0:
192,232,66744,2,0,L|128:240,2,50,0|0|0,1:0|0:0|3:0,0:0:0:0:
424,192,67232,1,0,1:0:0:0:
160,128,67476,2,0,L|168:184,1,50,0|0,3:0|0:0,0:0:0:0:
120,248,67720,6,0,L|144:376,1,100,4|0,1:2|0:0,0:0:0:0:
216,280,68208,1,0,1:0:0:0:
48,320,68452,1,0,0:0:0:0:
104,152,68696,1,0,3:0:0:0:
104,152,68818,1,0,0:0:0:0:
104,152,68939,1,2,0:0:0:0:
368,200,69183,2,0,P|312:200|264:216,1,100,0|0,1:0|1:0,0:0:0:0:
64,72,69671,5,0,1:0:0:0:
128,96,69793,1,0,1:0:0:0:
168,144,69915,1,0,1:0:0:0:
224,112,70037,1,0,1:0:0:0:
288,112,70159,1,0,1:0:0:0:
456,272,70403,2,0,L|440:168,1,100,0|0,1:0|0:0,0:0:0:0:
336,280,70891,5,0,1:0:0:0:
272,304,71013,1,0,1:0:0:0:
232,352,71135,1,0,1:0:0:0:
176,320,71257,1,0,1:0:0:0:
112,320,71378,2,0,L|120:264,1,50,0|0,1:0|1:0,0:0:0:0:
256,64,71622,6,0,L|248:168,1,100,4|0,1:2|0:0,0:0:0:0:
264,216,71988,1,0,0:0:0:0:
264,216,72110,1,0,1:0:0:0:
376,136,72354,1,0,0:0:0:0:
152,112,72598,1,0,3:0:0:0:
152,112,72720,2,0,P|128:176|128:224,1,100,0|0,3:0|0:0,0:0:0:0:
144,264,73086,1,0,1:0:0:0:
248,328,73330,1,0,0:0:0:0:
424,192,73574,6,0,P|360:208|320:208,1,100,4|0,1:2|0:0,0:0:0:0:
232,128,74061,1,0,1:0:0:0:
424,192,74305,1,0,3:0:0:0:
200,328,74549,1,0,3:0:0:0:
200,328,74671,2,0,P|192:272|200:224,1,100,0|0,3:0|0:0,0:0:0:0:
216,184,75037,1,0,1:0:0:0:
168,40,75281,1,0,0:0:0:0:
134,88,75403,1,0,0:0:0:0:
109,139,75525,6,0,L|0:160,1,100,4|0,1:2|0:0,0:0:0:0:
304,256,76013,2,0,L|200:240,1,100,0|0,1:0|0:0,0:0:0:0:
392,136,76500,1,0,3:0:0:0:
392,136,76622,2,0,B|408:184|408:184|400:240,1,100,0|0,3:0|0:0,0:0:0:0:
392,280,76988,1,0,1:0:0:0:
296,40,77232,1,2,0:0:0:0:
296,40,77354,1,0,0:0:0:0:
296,40,77476,6,0,L|272:144,1,100,4|0,1:2|0:0,0:0:0:0:
240,288,77964,1,0,1:0:0:0:
280,24,78208,2,0,L|256:128,1,100,0|0,3:2|1:0,0:0:0:0:
224,160,78574,2,0,P|169:157|120:144,1,100,0|0,3:0|3:0,0:0:0:0:
96,104,78939,1,0,1:0:0:0:
176,288,79183,1,2,0:0:0:0:
168,304,79305,1,0,0:0:0:0:
160,320,79427,5,4,1:2:0:0:
336,224,79671,1,2,0:0:0:0:
176,224,79915,1,0,1:0:0:0:
344,320,80159,1,0,3:2:0:0:
136,232,80403,1,0,1:0:0:0:
136,232,80525,2,0,L|152:128,1,100,0|0,3:0|3:0,0:0:0:0:
120,88,80891,2,0,L|256:72,1,100,0|0,1:0|0:0,0:0:0:0:
219,76,81257,1,0,0:0:0:0:
219,76,81378,6,0,P|264:56|344:56,1,100,4|2,1:2|3:2,0:0:0:0:
400,200,81866,2,0,L|416:64,1,100,0|0,1:0|0:0,0:0:0:0:
464,304,82354,1,0,1:0:0:0:
464,304,82476,1,0,3:0:0:0:
304,224,82720,1,0,3:0:0:0:
304,224,82842,2,0,B|256:208|256:208|184:216,1,100,0|2,1:0|1:2,0:0:0:0:
248,328,83330,5,0,1:2:0:0:
168,120,83574,1,2,0:0:0:0:
96,264,83818,1,0,1:0:0:0:
96,264,84061,1,0,1:0:0:0:
272,200,84305,1,0,1:0:0:0:
320,216,84427,1,0,3:0:0:0:
368,224,84549,1,2,3:0:0:0:
408,200,84671,1,0,3:0:0:0:
448,168,84793,2,0,L|440:224,1,50,0|0,1:0|0:0,0:0:0:0:
416,336,85037,1,0,3:0:0:0:
400,328,85159,1,0,0:0:0:0:
384,320,85281,5,4,1:2:0:0:
128,336,85525,1,0,1:0:0:0:
320,248,85769,1,0,1:0:0:0:
176,224,86013,1,0,1:0:0:0:
320,352,86257,1,0,1:0:0:0:
72,248,86500,1,0,1:0:0:0:
272,112,86744,1,0,1:0:0:0:
224,240,86988,1,0,0:0:0:0:
224,240,87110,1,0,0:0:0:0:
224,240,87232,5,4,1:2:0:0:
256,192,87354,12,0,89671,0:0:0:0:
