osu file format v14

[General]
AudioFilename: audio.mp3
AudioLeadIn: 0
PreviewTime: 54813
Countdown: 0
SampleSet: Soft
StackLeniency: 0.7
Mode: 0
LetterboxInBreaks: 0
WidescreenStoryboard: 0

[Editor]
DistanceSpacing: 0.8
BeatDivisor: 4
GridSize: 32
TimelineZoom: 1.1

[Metadata]
Title:From
TitleUnicode:フロム
Artist:TRUE
ArtistUnicode:TRUE
Creator:[C u r i]
Version:Normal
Source:終末なにしてますか?忙しいですか?救ってもらっていいですか?
Tags:Left Shumatsu nani shitemasu ka? Isogashidesu ka? Sukutte moratte iidesu ka? ED Ending TV Size
BeatmapID:1278370
BeatmapSetID:600519

[Difficulty]
HPDrainRate:3.5
CircleSize:3.5
OverallDifficulty:3
ApproachRate:4
SliderMultiplier:1.1
SliderTickRate:1

[Events]
//Background and Video events
0,0,"cropped-1920-1080-806829.png",0,0
//Break Periods
//Storyboard Layer 0 (Background)
//Storyboard Layer 1 (Fail)
//Storyboard Layer 2 (Pass)
//Storyboard Layer 3 (Foreground)
//Storyboard Sound Samples

[TimingPoints]
1398.82182459677,487.80487804878,4,2,2,50,1,0
3350,-100,4,2,2,60,0,0
4081,-100,4,2,1,60,0,0
5301,-100,4,2,1,70,0,0
9203,-100,4,2,1,80,0,0
18715,-100,4,2,1,50,0,0
20911,-100,4,2,2,60,0,0
28715,-100,4,2,1,70,0,0
36520,-100,4,2,1,65,0,0
52130,-100,4,2,1,70,0,0
53106,-100,4,2,1,80,0,0
54081,-100,4,2,2,60,0,0
55301,-100,4,2,1,60,0,0
55545,-100,4,2,1,70,0,0
56032,-100,4,2,1,90,0,1
87252,-100,4,2,1,70,0,0
89203,-100,4,2,1,50,0,0
91154,-100,4,2,1,30,0,0
92984,-100,4,2,1,10,0,0

[Colours]
Combo1 : 30,30,255
Combo2 : 0,255,255
Combo3 : 18,124,255
Combo4 : 209,209,209

[HitObjects]
62,284,1398,6,0,P|109:306|182:278,1,110,2|0,0:0|0:0,0:0:0:0:
193,260,2130,2,0,L|181:143,1,110,2|0,0:0|0:0,0:0:0:0:
178,106,2862,1,2,0:0:0:0:
265,110,3350,6,0,L|276:219,1,110,0|0,3:0|0:0,0:0:0:0:
280,263,4081,1,2,0:0:0:0:
291,350,4569,2,0,P|343:358|367:346,1,55,8|2,0:0|0:0,0:0:0:0:
385,343,5057,1,12,0:0:0:0:
385,343,5301,5,2,0:0:0:0:
430,267,5789,1,2,0:0:0:0:
422,179,6276,1,2,0:0:0:0:
350,128,6764,1,12,0:0:0:0:
265,110,7252,6,0,L|143:101,1,110,6|8,0:0|0:0,0:0:0:0:
75,139,8228,2,0,P|58:203|78:251,1,110,2|2,0:0|0:0,0:0:0:0:
99,277,8959,1,2,0:0:0:0:
99,277,9203,6,0,L|221:268,1,110,6|8,0:0|0:0,0:0:0:0:
236,234,9935,2,0,L|358:243,1,110
412,299,10911,6,0,P|433:238|407:177,2,110
381,331,12130,2,0,L|271:322,1,110,2|8,0:0|0:0,0:0:0:0:
183,322,13106,6,0,P|162:261|188:200,1,110,2|10,0:0|0:0,0:0:0:0:
208,191,13837,2,0,P|229:130|203:69,1,110,0|0,0:0|0:0,0:0:0:0:
151,29,14813,6,0,L|41:38,2,110
194,24,16032,1,2,0:0:0:0:
281,16,16520,1,12,0:0:0:0:
364,42,17008,6,0,B|344:78|344:78|355:158,1,110,6|8,0:0|0:0,0:0:0:0:
384,177,17740,2,0,B|393:245|393:245|373:281,1,110,6|2,0:0|0:0,0:0:0:0:
346,315,18471,1,8,0:0:0:0:
302,324,18715,1,6,0:0:0:0:
302,324,20911,6,0,L|362:317,2,55,2|0|0,0:0|0:0|0:0,0:0:0:0:
264,347,21642,2,0,L|135:332,1,110,2|2,0:0|0:0,0:0:0:0:
110,330,22374,1,0,0:0:0:0:
26,302,22862,6,0,L|22:356,2,55,2|0|0,0:0|0:0|0:0,0:0:0:0:
55,268,23593,2,0,L|47:155,1,110,2|2,0:0|0:0,0:0:0:0:
44,114,24325,1,0,0:0:0:0:
61,27,24813,6,0,P|139:15|183:42,1,110,2|2,0:0|0:0,0:0:0:0:
234,85,25789,1,2,0:0:0:0:
234,85,26032,2,0,L|226:194,1,110,2|0,0:0|0:0,0:0:0:0:
227,238,26764,6,0,P|275:288|405:222,1,220,2|0,0:0|0:0,0:0:0:0:
401,195,27984,2,0,L|393:85,1,110,2|0,0:0|0:0,0:0:0:0:
391,41,28715,5,2,0:0:0:0:
304,26,29203,1,2,0:0:0:0:
237,83,29691,2,0,P|180:96|123:68,1,110,2|2,0:0|0:0,0:0:0:0:
53,39,30667,6,0,L|65:163,1,110,2|2,0:0|0:0,0:0:0:0:
69,192,31398,1,0,0:0:0:0:
69,192,31642,1,2,0:0:0:0:
77,279,32130,1,2,0:0:0:0:
154,319,32618,6,0,P|258:326|284:330,1,110,2|2,0:0|0:0,0:0:0:0:
345,359,33593,1,2,0:0:0:0:
345,359,33837,2,0,P|418:349|465:338,1,110,0|0,0:0|0:0,0:0:0:0:
494,324,34569,6,0,B|518:272|489:219|489:219|459:158|504:102,1,220,2|2,0:0|0:0,0:0:0:0:
506,26,36032,1,8,0:0:0:0:
421,51,36520,6,0,P|371:61|320:61,2,82.5,6|0|8,0:0|0:0|0:0,0:0:0:0:
461,33,37496,1,2,0:0:0:0:
495,114,37984,1,2,0:0:0:0:
412,145,38471,6,0,P|312:150|257:138,1,110,2|2,0:0|0:0,0:0:0:0:
265,124,39203,2,0,P|165:119|110:131,1,110,8|8,0:0|0:0,0:0:0:0:
116,141,39935,1,8,0:0:0:0:
43,190,40423,6,0,P|15:275|83:351,1,165,2|8,0:0|0:0,0:0:0:0:
93,347,41398,2,0,P|132:344|192:334,2,82.5,2|0|2,0:0|0:0|0:0,0:0:0:0:
51,335,42374,5,6,0:0:0:0:
101,262,42862,1,2,0:0:0:0:
151,190,43350,2,0,L|141:121,2,55,2|8|8,0:0|0:0|0:0,0:0:0:0:
177,225,44081,1,2,0:0:0:0:
177,225,44325,6,0,P|181:294|167:320,2,82.5,6|0|8,0:0|0:0|0:0,0:0:0:0:
151,190,45301,1,2,0:0:0:0:
66,165,45789,1,2,0:0:0:0:
129,104,46276,6,0,L|259:95,1,110,2|2,0:0|0:0,0:0:0:0:
266,62,47008,2,0,L|396:71,1,110,8|8,0:0|0:0,0:0:0:0:
419,72,47740,1,8,0:0:0:0:
475,139,48228,6,0,P|494:196|463:258,1,110,2|2,0:0|0:0,0:0:0:0:
448,273,48959,1,8,0:0:0:0:
448,273,49203,1,2,0:0:0:0:
364,246,49691,1,2,0:0:0:0:
296,302,50179,6,0,L|180:312,1,110,6|2,0:0|0:0,0:0:0:0:
142,311,50911,2,0,P|123:258|149:194,1,110,8|8,0:0|0:0,0:0:0:0:
171,181,51642,1,2,0:0:0:0:
250,143,52130,6,0,L|359:152,1,110,6|8,0:0|0:0,0:0:0:0:
403,157,52862,1,8,0:0:0:0:
403,157,53106,2,0,P|422:215|403:266,1,110,8|8,0:0|0:0,0:0:0:0:
373,287,53837,1,8,0:0:0:0:
373,287,54081,6,0,L|263:280,1,110,2|2,0:0|0:0,0:0:0:0:
225,257,54813,2,0,L|115:263,1,110,2|2,0:0|0:0,0:0:0:0:
78,288,55545,1,8,0:0:0:0:
21,220,56032,6,0,P|7:126|42:88,1,110,6|8,0:0|0:0,0:0:0:0:
39,83,56764,1,0,0:0:0:0:
39,83,57008,1,2,0:0:0:0:
121,113,57496,1,8,0:0:0:0:
189,57,57984,6,0,L|307:49,1,110,2|8,0:0|0:0,0:0:0:0:
331,79,58715,2,0,P|354:142|334:190,2,110,0|0|0,0:0|0:0|0:0,0:0:0:0:
298,49,59935,5,2,0:0:0:0:
272,133,60423,1,8,0:0:0:0:
253,219,60911,2,0,L|264:293,2,55,2|0|8,0:0|0:0|0:0,0:0:0:0:
188,159,61886,6,0,P|119:146|68:185,1,110,2|8,0:0|0:0,0:0:0:0:
58,198,62618,2,0,L|73:317,1,110,0|0,0:0|0:0,0:0:0:0:
77,350,63350,1,8,0:0:0:0:
156,311,63837,6,0,P|222:305|295:305,1,110,6|8,0:0|0:0,0:0:0:0:
342,347,64813,2,0,P|408:353|481:353,1,110,2|8,0:0|0:0,0:0:0:0:
495,346,65545,1,0,0:0:0:0:
495,346,65789,5,2,0:0:0:0:
473,260,66276,1,8,0:0:0:0:
502,177,66764,2,0,L|494:107,2,55,2|0|8,0:0|0:0|0:0,0:0:0:0:
476,213,67496,1,0,0:0:0:0:
476,213,67740,6,0,L|357:200,1,110,2|8,0:0|0:0,0:0:0:0:
291,156,68715,2,0,L|172:169,1,110,2|8,0:0|0:0,0:0:0:0:
94,179,69691,6,0,P|67:116|84:53,1,110,2|8,0:0|0:0,0:0:0:0:
92,37,70423,1,8,0:0:0:0:
175,63,70911,1,8,0:0:0:0:
301,25,71642,6,0,L|437:37,1,110,6|8,0:0|0:0,0:0:0:0:
454,41,72374,1,0,0:0:0:0:
454,41,72618,1,2,0:0:0:0:
435,126,73106,1,8,0:0:0:0:
459,210,73593,6,0,P|470:279|432:348,1,110,2|8,0:0|0:0,0:0:0:0:
422,343,74325,2,0,L|304:337,2,110,0|0|0,0:0|0:0|0:0,0:0:0:0:
457,315,75545,5,6,0:0:0:0:
387,261,76032,1,8,0:0:0:0:
315,209,76520,2,0,L|220:202,2,55,2|0|8,0:0|0:0|0:0,0:0:0:0:
346,126,77496,6,0,L|208:116,1,110,2|8,0:0|0:0,0:0:0:0:
198,140,78228,2,0,P|172:203|185:250,2,110,0|0|0,0:0|0:0|0:0,0:0:0:0:
236,119,79447,5,6,0:0:0:0:
210,34,79935,1,8,0:0:0:0:
295,53,80423,2,0,L|365:45,2,55,2|0|8,0:0|0:0|0:0,0:0:0:0:
210,34,81398,6,0,L|81:52,1,110,2|8,0:0|0:0,0:0:0:0:
38,110,82374,2,0,P|35:151|41:169,2,55,2|0|8,0:0|0:0|0:0,0:0:0:0:
121,138,83350,6,0,P|140:201|122:254,1,110,2|8,0:0|0:0,0:0:0:0:
97,272,84081,1,8,0:0:0:0:
97,272,84325,2,0,L|248:260,1,110,2|8,0:0|0:0,0:0:0:0:
271,203,85301,6,0,L|422:215,1,110,6|8,0:0|0:0,0:0:0:0:
424,215,86032,1,8,0:0:0:0:
424,215,86276,2,0,P|446:159|422:100,1,110,8|10,0:0|0:0,0:0:0:0:
400,82,87008,1,8,0:0:0:0:
256,192,87252,12,0,92984,0:0:0:0:
