osu file format v14

[General]
AudioFilename: audio.mp3
AudioLeadIn: 0
PreviewTime: 54813
Countdown: 0
SampleSet: Soft
StackLeniency: 0.7
Mode: 0
LetterboxInBreaks: 0
WidescreenStoryboard: 0

[Editor]
DistanceSpacing: 0.6
BeatDivisor: 4
GridSize: 32
TimelineZoom: 1.1

[Metadata]
Title:From
TitleUnicode:フロム
Artist:TRUE
ArtistUnicode:TRUE
Creator:[C u r i]
Version:Dear.
Source:終末なにしてますか?忙しいですか?救ってもらっていいですか?
Tags:Left Shumatsu nani shitemasu ka? Isogashidesu ka? Sukutte moratte iidesu ka? ED Ending TV Size
BeatmapID:1268933
BeatmapSetID:600519

[Difficulty]
HPDrainRate:6
CircleSize:4
OverallDifficulty:7.5
ApproachRate:8
SliderMultiplier:1.6
SliderTickRate:1

[Events]
//Background and Video events
0,0,"cropped-1920-1080-806829.png",0,0
//Break Periods
//Storyboard Layer 0 (Background)
//Storyboard Layer 1 (Fail)
//Storyboard Layer 2 (Pass)
//Storyboard Layer 3 (Foreground)
//Storyboard Sound Samples

[TimingPoints]
1398.82182459677,487.80487804878,4,2,2,50,1,0
3350,-100,4,2,2,60,0,0
4081,-100,4,2,1,60,0,0
5301,-100,4,2,1,70,0,0
9203,-100,4,2,1,80,0,0
18715,-166.666666666667,4,2,1,50,0,0
20911,-125,4,2,2,60,0,0
28715,-100,4,2,1,70,0,0
36520,-100,4,2,1,65,0,0
52130,-100,4,2,1,70,0,0
53106,-100,4,2,1,80,0,0
54081,-100,4,2,2,60,0,0
55301,-100,4,2,1,60,0,0
55545,-100,4,2,1,70,0,0
56032,-90.9090909090909,4,2,1,90,0,1
87252,-100,4,2,1,70,0,0
89203,-100,4,2,1,50,0,0
91154,-100,4,2,1,30,0,0
92984,-100,4,2,1,10,0,0

[Colours]
Combo1 : 30,30,255
Combo2 : 0,255,255
Combo3 : 18,124,255
Combo4 : 209,209,209

[HitObjects]
157,87,1398,6,0,L|148:183,1,80,2|0,0:0|0:0,0:0:0:0:
148,190,1764,1,0,0:0:0:0:
148,190,1886,1,0,0:0:0:0:
208,316,2130,2,0,P|155:278|65:311,1,160,2|0,0:0|0:0,0:0:0:0:
208,316,2862,1,2,0:0:0:0:
208,316,2984,1,2,0:0:0:0:
208,316,3107,2,0,L|212:276,1,40,2|0,0:0|0:0,0:0:0:0:
348,255,3350,5,0,0:0:0:0:
208,316,3593,1,0,0:0:0:0:
229,153,3837,1,0,0:0:0:0:
314,335,4081,2,0,B|349:352|395:329|395:329|434:311|481:338,1,160,2|8,0:0|0:0,0:0:0:0:
488,344,4691,1,2,0:0:0:0:
488,344,4813,1,2,0:0:0:0:
453,139,5057,1,12,0:0:0:0:
470,246,5301,5,2,0:0:0:0:
453,139,5545,1,0,0:0:0:0:
434,23,5789,1,2,0:0:0:0:
303,77,6032,2,0,L|389:84,1,80,0|2,0:0|0:0,0:0:0:0:
472,246,6520,2,0,L|392:252,1,80,0|12,0:0|0:0,0:0:0:0:
368,255,6886,1,8,0:0:0:0:
355,234,7007,1,0,0:0:0:0:
350,211,7129,1,0,0:0:0:0:
353,187,7251,5,6,0:0:0:0:
253,302,7496,1,8,0:0:0:0:
401,332,7740,1,8,0:0:0:0:
269,207,7984,1,8,0:0:0:0:
269,207,8106,1,0,0:0:0:0:
269,207,8228,2,0,L|259:144,1,40,2|8,0:0|0:0,0:0:0:0:
171,246,8471,2,0,L|161:183,1,40,8|8,0:0|0:0,0:0:0:0:
73,279,8715,2,0,L|63:216,1,40,2|8,0:0|0:0,0:0:0:0:
134,79,8959,1,2,0:0:0:0:
134,79,9081,1,2,0:0:0:0:
134,79,9203,6,0,B|168:94|209:72|209:72|261:46|297:68,1,160,6|8,0:0|0:0,0:0:0:0:
431,164,9935,2,0,P|371:150|344:111,1,80,0|2,0:0|0:0,0:0:0:0:
346,117,10301,1,8,0:0:0:0:
346,117,10423,2,0,P|354:77|363:38,1,80,0|8,0:0|0:0,0:0:0:0:
497,102,10910,1,0,0:0:0:0:
460,245,11154,5,2,0:0:0:0:
328,195,11398,2,0,P|340:143|347:108,1,80,0|8,0:0|0:0,0:0:0:0:
374,266,11886,1,0,0:0:0:0:
245,223,12130,1,2,0:0:0:0:
245,223,12252,1,8,0:0:0:0:
245,223,12374,1,0,0:0:0:0:
407,187,12618,1,8,0:0:0:0:
361,359,12862,1,0,0:0:0:0:
178,273,13106,6,0,P|160:211|221:141,1,160,2|10,0:0|0:0,0:0:0:0:
347,246,13837,2,0,L|255:225,1,80,0|2,0:0|0:0,0:0:0:0:
245,223,14203,1,8,0:0:0:0:
245,223,14325,1,0,0:0:0:0:
436,181,14569,1,8,0:0:0:0:
226,61,14813,1,0,0:0:0:0:
226,61,14935,1,0,0:0:0:0:
226,61,15057,6,0,L|134:82,1,80,2|0,0:0|0:0,0:0:0:0:
308,105,15545,1,8,0:0:0:0:
178,273,15789,1,0,0:0:0:0:
148,78,16032,1,2,0:0:0:0:
148,78,16154,1,8,0:0:0:0:
148,78,16276,1,0,0:0:0:0:
321,190,16520,2,0,L|410:170,1,80,12|8,0:0|0:0,0:0:0:0:
423,170,16886,1,8,0:0:0:0:
423,170,17008,6,0,P|434:223|419:260,1,80,6|2,0:0|0:0,0:0:0:0:
414,267,17374,1,0,0:0:0:0:
414,267,17496,1,8,0:0:0:0:
214,353,17740,2,0,L|127:341,1,80,6|8,0:0|0:0,0:0:0:0:
110,341,18106,1,2,0:0:0:0:
110,341,18228,1,2,0:0:0:0:
53,163,18471,1,8,0:0:0:0:
283,232,18715,6,0,B|245:253|191:229|191:229|103:174|29:256|64:331|123:345,1,335.999989746094,6|0,0:0|0:0,0:0:0:0:
283,232,20911,6,0,P|293:169|298:81,1,128,2|0,0:0|0:0,0:0:0:0:
256,29,21642,1,0,0:0:0:0:
256,29,21886,2,0,P|219:32|173:52,1,64,0|2,0:0|0:0,0:0:0:0:
143,122,22374,2,0,P|146:159|166:205,1,64
283,232,22862,6,0,P|313:210|343:170,2,64,2|0|0,0:0|0:0|0:0,0:0:0:0:
196,269,23593,2,0,L|44:256,1,128,2|2,0:0|0:0,0:0:0:0:
87,341,24325,2,0,L|156:347,1,64
320,331,24813,6,0,P|350:309|380:269,1,64,2|0,0:0|0:0,0:0:0:0:
406,222,25301,2,0,P|409:185|397:136,1,64,2|0,0:0|0:0,0:0:0:0:
367,86,25789,1,2,0:0:0:0:
266,127,26032,2,0,P|318:136|368:78,1,128,2|0,0:0|0:0,0:0:0:0:
195,92,26764,6,0,B|180:123|193:156|193:156|206:187|187:226,1,128,2|0,0:0|0:0,0:0:0:0:
10,163,27496,1,0,0:0:0:0:
10,163,27740,2,0,P|71:148|122:184,1,128,2|0,0:0|0:0,0:0:0:0:
57,221,28471,1,0,0:0:0:0:
221,299,28715,6,0,L|310:288,1,80,2|0,0:0|0:0,0:0:0:0:
324,289,29081,1,0,0:0:0:0:
324,289,29203,1,2,0:0:0:0:
430,274,29447,1,0,0:0:0:0:
437,161,29691,2,0,P|398:165|364:185,1,80,2|0,0:0|0:0,0:0:0:0:
413,349,30179,2,0,P|430:313|429:273,1,80,2|0,0:0|0:0,0:0:0:0:
430,249,30545,1,0,0:0:0:0:
430,249,30667,5,2,0:0:0:0:
398,150,30911,1,0,0:0:0:0:
398,150,31032,1,0,0:0:0:0:
398,150,31154,1,2,0:0:0:0:
364,47,31398,1,0,0:0:0:0:
280,130,31642,2,0,L|200:141,1,80,2|0,0:0|0:0,0:0:0:0:
38,80,32130,2,0,L|120:91,1,80,2|0,0:0|0:0,0:0:0:0:
140,96,32496,1,0,0:0:0:0:
140,96,32618,5,2,0:0:0:0:
63,180,32862,1,0,0:0:0:0:
63,180,32984,1,0,0:0:0:0:
63,180,33106,2,0,P|56:230|76:274,1,80,2|0,0:0|0:0,0:0:0:0:
146,330,33593,2,0,P|190:336|239:311,1,80,2|0,0:0|0:0,0:0:0:0:
242,309,33959,1,0,0:0:0:0:
242,309,34081,1,2,0:0:0:0:
301,204,34325,1,0,0:0:0:0:
507,313,34569,6,0,B|476:331|427:311|427:311|374:287|333:322,1,160,2|2,0:0|0:0,0:0:0:0:
463,99,35301,1,0,0:0:0:0:
463,99,35545,2,0,P|497:200|444:264,1,160,2|8,0:0|0:0,0:0:0:0:
385,383,36276,1,2,0:0:0:0:
245,290,36520,6,0,P|292:276|356:315,2,120,6|0|8,0:0|0:0|0:0,0:0:0:0:
105,365,37496,2,0,P|152:367|186:342,1,80,2|2,0:0|0:0,0:0:0:0:
60,139,37984,1,2,0:0:0:0:
41,298,38228,1,2,0:0:0:0:
240,207,38471,6,0,L|223:65,1,120,2|0,0:0|0:0,0:0:0:0:
223,63,38959,1,2,0:0:0:0:
60,139,39203,2,0,L|71:218,1,80,8|2,0:0|0:0,0:0:0:0:
128,56,39691,1,8,0:0:0:0:
240,207,39935,2,0,P|291:227|342:202,1,80,8|0,0:0|0:0,0:0:0:0:
336,212,40301,1,0,0:0:0:0:
336,212,40423,6,0,P|377:147|453:148,1,160,2|2,0:0|0:0,0:0:0:0:
444,346,41154,1,8,0:0:0:0:
415,217,41398,1,2,0:0:0:0:
449,370,41642,1,2,0:0:0:0:
289,321,41886,2,0,L|192:334,1,80,2|2,0:0|0:0,0:0:0:0:
185,335,42252,1,0,0:0:0:0:
185,335,42374,6,0,P|130:279|148:199,1,160,6|2,0:0|0:0,0:0:0:0:
287,98,43106,1,0,0:0:0:0:
125,111,43350,2,0,L|39:123,1,80,2|8,0:0|0:0,0:0:0:0:
212,150,43837,1,8,0:0:0:0:
301,24,44081,1,2,0:0:0:0:
301,24,44203,1,2,0:0:0:0:
301,24,44325,6,0,L|432:43,2,120,6|0|8,0:0|0:0|0:0,0:0:0:0:
321,182,45301,2,0,L|412:169,1,80,2|2,0:0|0:0,0:0:0:0:
278,107,45789,1,2,0:0:0:0:
461,112,46032,1,2,0:0:0:0:
461,112,46154,1,0,0:0:0:0:
461,112,46276,6,0,P|485:174|446:243,1,120,2|0,0:0|0:0,0:0:0:0:
450,238,46764,1,2,0:0:0:0:
309,304,47008,2,0,L|217:292,1,80,8|2,0:0|0:0,0:0:0:0:
397,336,47496,1,8,0:0:0:0:
257,205,47740,2,0,L|165:217,1,80,8|0,0:0|0:0,0:0:0:0:
29,351,48228,6,0,P|106:355|150:286,1,160,2|2,0:0|0:0,0:0:0:0:
18,186,48959,1,8,0:0:0:0:
167,118,49203,1,2,0:0:0:0:
102,223,49447,1,2,0:0:0:0:
108,56,49691,2,0,P|148:36|189:37,1,80,2|2,0:0|0:0,0:0:0:0:
204,45,50057,1,0,0:0:0:0:
204,45,50179,6,0,P|273:84|357:42,1,160,6|2,0:0|0:0,0:0:0:0:
487,22,50911,2,0,P|471:70|462:110,1,80,8|2,0:0|0:0,0:0:0:0:
466,122,51276,1,0,0:0:0:0:
466,122,51398,2,0,L|471:176,1,40,8|8,0:0|0:0,0:0:0:0:
477,270,51642,1,2,0:0:0:0:
450,284,51763,1,8,0:0:0:0:
421,287,51885,1,2,0:0:0:0:
392,280,52007,1,2,0:0:0:0:
368,262,52129,5,6,0:0:0:0:
387,127,52374,1,8,0:0:0:0:
278,294,52618,1,8,0:0:0:0:
306,72,52862,1,8,0:0:0:0:
466,209,53106,1,8,0:0:0:0:
240,140,53350,1,8,0:0:0:0:
301,380,53593,1,8,0:0:0:0:
223,57,53837,1,8,0:0:0:0:
223,57,53959,1,0,0:0:0:0:
223,57,54081,6,0,P|158:39|130:41,2,80,2|2|2,0:0|0:0|0:0,0:0:0:0:
274,166,54813,2,0,P|342:186|412:115,1,160,2|2,0:0|0:0,0:0:0:0:
293,5,55545,1,8,0:0:0:0:
282,43,55666,1,0,0:0:0:0:
275,82,55788,1,8,0:0:0:0:
272,122,55910,1,8,0:0:0:0:
274,166,56032,6,0,P|181:194|119:118,1,176.000005371094,6|8,0:0|0:0,0:0:0:0:
160,280,56764,1,0,0:0:0:0:
318,236,57008,1,2,0:0:0:0:
318,236,57130,1,8,0:0:0:0:
318,236,57252,1,0,0:0:0:0:
203,114,57496,1,8,0:0:0:0:
248,297,57740,1,0,0:0:0:0:
427,149,57984,6,0,B|405:12|405:12|376:55,1,176.000005371094,2|8,0:0|0:0,0:0:0:0:
416,234,58715,2,0,P|470:225|497:199,1,88.000002685547,0|2,0:0|0:0,0:0:0:0:
506,180,59081,1,8,0:0:0:0:
506,180,59203,1,0,0:0:0:0:
367,303,59447,1,8,0:0:0:0:
341,120,59691,1,0,0:0:0:0:
431,354,59935,6,0,P|348:382|287:317,1,176.000005371094,2|8,0:0|0:0,0:0:0:0:
482,283,60667,1,0,0:0:0:0:
273,238,60911,1,2,0:0:0:0:
273,238,61032,1,8,0:0:0:0:
273,238,61154,1,0,0:0:0:0:
449,150,61398,1,8,0:0:0:0:
431,354,61642,1,0,0:0:0:0:
181,294,61886,6,0,L|196:114,1,176.000005371094,2|8,0:0|0:0,0:0:0:0:
23,91,62618,2,0,P|18:143|36:183,1,88.000002685547,0|2,0:0|0:0,0:0:0:0:
49,194,62984,1,8,0:0:0:0:
49,194,63106,1,0,0:0:0:0:
135,36,63350,1,8,0:0:0:0:
278,143,63593,1,0,0:0:0:0:
395,0,63837,6,0,P|312:-6|260:62,1,176.000005371094,6|8,0:0|0:0,0:0:0:0:
443,82,64569,1,0,0:0:0:0:
340,242,64813,1,2,0:0:0:0:
340,242,64935,1,8,0:0:0:0:
340,242,65057,1,0,0:0:0:0:
457,60,65301,1,8,0:0:0:0:
498,271,65545,1,0,0:0:0:0:
326,157,65789,6,0,B|293:144|241:170|241:170|188:192|144:165,1,176.000005371094,2|8,0:0|0:0,0:0:0:0:
240,299,66520,1,0,0:0:0:0:
196,100,66764,1,2,0:0:0:0:
196,100,66886,1,8,0:0:0:0:
196,100,67008,1,0,0:0:0:0:
79,278,67252,1,8,0:0:0:0:
232,173,67496,1,0,0:0:0:0:
30,29,67740,6,0,L|62:207,1,176.000005371094,6|8,0:0|0:0,0:0:0:0:
182,358,68471,1,0,0:0:0:0:
232,173,68715,1,2,0:0:0:0:
232,173,68837,1,8,0:0:0:0:
232,173,68959,1,0,0:0:0:0:
355,325,69203,1,8,0:0:0:0:
163,250,69447,1,8,0:0:0:0:
163,250,69569,1,8,0:0:0:0:
163,250,69691,5,2,0:0:0:0:
201,271,69812,1,8,0:0:0:0:
244,274,69934,1,8,0:0:0:0:
285,259,70056,1,8,0:0:0:0:
315,227,70178,1,8,0:0:0:0:
240,85,70423,6,0,L|231:172,1,88.000002685547,8|2,0:0|0:0,0:0:0:0:
406,246,70911,2,0,L|397:158,1,88.000002685547,8|2,0:0|0:0,0:0:0:0:
395,132,71276,1,8,0:0:0:0:
392,106,71398,1,8,0:0:0:0:
389,79,71519,1,8,0:0:0:0:
387,53,71642,6,0,B|355:67|307:49|307:49|246:25|202:59,1,176.000005371094,6|8,0:0|0:0,0:0:0:0:
91,204,72374,1,0,0:0:0:0:
269,121,72618,1,2,0:0:0:0:
269,121,72740,1,8,0:0:0:0:
269,121,72862,1,0,0:0:0:0:
65,107,73106,1,8,0:0:0:0:
154,289,73350,1,0,0:0:0:0:
343,164,73593,6,0,P|418:174|441:284,1,176.000005371094,2|8,0:0|0:0,0:0:0:0:
345,377,74325,2,0,L|355:277,1,88.000002685547,0|2,0:0|0:0,0:0:0:0:
357,263,74691,1,8,0:0:0:0:
357,263,74813,1,0,0:0:0:0:
378,75,75057,1,8,0:0:0:0:
512,186,75301,1,0,0:0:0:0:
284,216,75545,6,0,B|251:237|202:220|202:220|140:201|98:239,1,176.000005371094,6|8,0:0|0:0,0:0:0:0:
250,320,76276,1,0,0:0:0:0:
57,293,76520,1,2,0:0:0:0:
57,293,76642,1,8,0:0:0:0:
57,293,76764,1,0,0:0:0:0:
210,132,77008,2,0,L|194:249,1,88.000002685547,8|0,0:0|0:0,0:0:0:0:
29,35,77496,6,0,P|91:14|157:59,1,132.00000402832,2|0,0:0|0:0,0:0:0:0:
161,65,77984,1,8,0:0:0:0:
67,213,78228,2,0,L|78:125,1,88.000002685547,0|2,0:0|0:0,0:0:0:0:
84,99,78593,1,8,0:0:0:0:
84,99,78715,1,0,0:0:0:0:
194,250,78959,1,12,0:0:0:0:
334,117,79203,1,0,0:0:0:0:
441,274,79447,6,0,P|383:335|300:320,1,176.000005371094,6|8,0:0|0:0,0:0:0:0:
243,110,80179,1,0,0:0:0:0:
421,94,80423,1,2,0:0:0:0:
421,94,80545,1,8,0:0:0:0:
421,94,80667,1,0,0:0:0:0:
356,254,80911,1,8,0:0:0:0:
216,98,81154,1,0,0:0:0:0:
216,98,81276,1,0,0:0:0:0:
216,98,81398,5,2,0:0:0:0:
400,178,81642,1,0,0:0:0:0:
194,250,81886,2,0,L|98:241,1,88.000002685547,8|0,0:0|0:0,0:0:0:0:
305,145,82374,1,2,0:0:0:0:
305,145,82496,1,8,0:0:0:0:
305,145,82618,1,0,0:0:0:0:
105,155,82862,1,8,0:0:0:0:
223,334,83106,1,12,0:0:0:0:
400,178,83350,6,0,P|405:132|380:78,1,88.000002685547,2|0,0:0|0:0,0:0:0:0:
315,251,83837,1,8,0:0:0:0:
495,220,84081,1,8,0:0:0:0:
305,145,84325,1,2,0:0:0:0:
284,136,84446,1,2,0:0:0:0:
263,133,84568,1,2,0:0:0:0:
241,137,84690,1,2,0:0:0:0:
221,147,84812,1,8,0:0:0:0:
201,156,84935,1,8,0:0:0:0:
179,160,85057,1,2,0:0:0:0:
158,158,85179,1,2,0:0:0:0:
137,149,85300,5,6,0:0:0:0:
165,284,85545,1,8,0:0:0:0:
178,71,85789,1,8,0:0:0:0:
48,229,86032,1,8,0:0:0:0:
274,260,86276,5,8,0:0:0:0:
67,111,86520,1,8,0:0:0:0:
128,372,86764,1,10,0:0:0:0:
326,183,87008,2,0,L|314:123,2,44.0000013427735,8|0|0,0:0|0:0|0:0,0:0:0:0:
256,192,87374,12,0,92984,0:0:0:0:
