osu file format v14

[General]
AudioFilename: audio.mp3
AudioLeadIn: 0
PreviewTime: 54813
Countdown: 0
SampleSet: Soft
StackLeniency: 0.7
Mode: 0
LetterboxInBreaks: 0
WidescreenStoryboard: 0

[Editor]
Bookmarks: 17008
DistanceSpacing: 0.8
BeatDivisor: 4
GridSize: 32
TimelineZoom: 1.1

[Metadata]
Title:From
TitleUnicode:フロム
Artist:TRUE
ArtistUnicode:TRUE
Creator:[C u r i]
Version:Left's Hard
Source:終末なにしてますか?忙しいですか?救ってもらっていいですか?
Tags:Left Shumatsu nani shitemasu ka? Isogashidesu ka? Sukutte moratte iidesu ka? ED Ending TV Size
BeatmapID:1303623
BeatmapSetID:600519

[Difficulty]
HPDrainRate:5
CircleSize:3.8
OverallDifficulty:6
ApproachRate:6.5
SliderMultiplier:1.3
SliderTickRate:1

[Events]
//Background and Video events
0,0,"cropped-1920-1080-806829.png",0,0
//Break Periods
//Storyboard Layer 0 (Background)
//Storyboard Layer 1 (Fail)
//Storyboard Layer 2 (Pass)
//Storyboard Layer 3 (Foreground)
//Storyboard Sound Samples

[TimingPoints]
1398.82182459677,487.80487804878,4,2,2,50,1,0
3350,-100,4,2,2,60,0,0
4081,-100,4,2,1,60,0,0
5301,-100,4,2,1,70,0,0
7252,-83.3333333333333,4,2,1,70,0,0
9203,-83.3333333333333,4,2,1,80,0,0
18715,-100,4,2,1,50,0,0
20423,-100,4,2,1,5,0,0
20911,-100,4,2,2,50,0,0
28715,-90.9090909090909,4,2,1,70,0,0
36520,-90.9090909090909,4,2,1,65,0,0
52130,-100,4,2,1,70,0,0
53106,-100,4,2,1,80,0,0
54081,-100,4,2,2,60,0,0
55301,-83.3333333333333,4,2,1,60,0,0
55545,-100,4,2,1,70,0,0
56032,-76.9230769230769,4,2,1,90,0,1
87252,-100,4,2,1,70,0,0
89203,-100,4,2,1,50,0,0
91154,-100,4,2,1,30,0,0
92984,-100,4,2,1,10,0,0

[Colours]
Combo1 : 30,30,255
Combo2 : 0,255,255
Combo3 : 18,124,255
Combo4 : 209,209,209

[HitObjects]
104,92,1398,5,2,0:0:0:0:
96,175,1642,2,0,L|93:233,2,32.5,0|0|0,0:0|0:0|0:0,0:0:0:0:
172,144,2130,2,0,B|201:134|236:149|236:149|271:169|319:150,1,130,2|0,0:0|0:0,0:0:0:0:
373,117,2862,2,0,L|369:84,2,32.5,2|0|2,0:0|0:0|0:0,0:0:0:0:
449,205,3350,5,0,3:0:0:0:
439,285,3593,1,0,0:0:0:0:
428,364,3837,1,0,0:0:0:0:
364,315,4081,2,0,P|326:304|253:368,1,130,2|8,0:0|0:0,0:0:0:0:
186,315,4813,2,0,L|177:240,1,65,2|12,0:0|0:0,0:0:0:0:
222,184,5301,6,0,L|226:47,2,130,2|2|2,0:0|0:0|0:0,0:0:0:0:
178,249,6520,1,0,0:0:0:0:
245,294,6764,2,0,L|253:341,2,32.5,12|8|0,0:0|0:0|0:0,0:0:0:0:
223,185,7252,6,0,P|264:198|321:187,1,77.999997619629,6|8,0:0|0:0,0:0:0:0:
400,285,7740,2,0,P|359:272|302:283,1,77.999997619629,8|8,0:0|0:0,0:0:0:0:
324,274,8106,1,0,0:0:0:0:
324,274,8228,1,2,0:0:0:0:
247,335,8471,2,0,L|255:378,2,38.9999988098145,8|8|2,0:0|0:0|0:0,0:0:0:0:
185,264,8959,1,2,0:0:0:0:
99,311,9203,6,0,L|112:139,1,155.999995239258,6|8,0:0|0:0,0:0:0:0:
82,61,9935,2,0,P|132:74|177:62,1,77.999997619629,0|2,0:0|0:0,0:0:0:0:
157,70,10301,1,8,0:0:0:0:
157,70,10423,1,0,0:0:0:0:
200,158,10667,2,0,P|238:154|275:167,1,77.999997619629,8|0,0:0|0:0,0:0:0:0:
351,231,11154,6,0,B|385:257|385:257|360:112,1,155.999995239258,2|8,0:0|0:0,0:0:0:0:
275,167,11886,1,0,0:0:0:0:
351,231,12130,2,0,L|341:286,2,38.9999988098145,2|8|0,0:0|0:0|0:0,0:0:0:0:
275,167,12618,2,0,L|293:81,1,77.999997619629,8|0,0:0|0:0,0:0:0:0:
219,26,13106,6,0,B|177:14|144:40|144:40|113:60|69:45,1,155.999995239258,2|10,0:0|0:0,0:0:0:0:
198,114,13837,2,0,P|209:159|194:205,1,77.999997619629,0|2,0:0|0:0,0:0:0:0:
202,189,14203,1,8,0:0:0:0:
202,189,14325,1,0,0:0:0:0:
131,255,14569,2,0,P|124:293|135:330,1,77.999997619629,8|0,0:0|0:0,0:0:0:0:
135,330,14935,1,0,0:0:0:0:
135,330,15057,6,0,L|301:310,1,155.999995239258,2|8,0:0|0:0,0:0:0:0:
371,256,15789,1,0,0:0:0:0:
302,185,16032,1,2,0:0:0:0:
302,185,16154,1,8,0:0:0:0:
302,185,16276,2,0,L|308:88,1,77.999997619629,0|12,0:0|0:0,0:0:0:0:
393,55,16764,1,8,0:0:0:0:
393,55,16886,1,8,0:0:0:0:
393,55,17008,6,0,L|407:133,2,77.999997619629,6|2|8,0:0|0:0|0:0,0:0:0:0:
306,107,17740,2,0,B|264:119|231:93|231:93|200:73|156:88,1,155.999995239258,6|2,0:0|0:0,0:0:0:0:
191,177,18471,1,8,0:0:0:0:
191,177,18715,1,6,0:0:0:0:
256,192,18837,12,0,20423,0:0:0:0:
75,85,20911,6,0,L|225:99,1,130,2|0,0:0|0:0,0:0:0:0:
268,147,21642,2,0,L|418:133,1,130,0|2,0:0|0:0,0:0:0:0:
461,88,22374,2,0,P|475:131|469:172,1,65,0|0,0:0|0:0,0:0:0:0:
448,225,22862,6,0,L|535:232,2,65,2|0|0,0:0|0:0|0:0,0:0:0:0:
399,163,23593,2,0,B|370:153|335:168|335:168|300:188|252:169,1,130,2|2,0:0|0:0,0:0:0:0:
216,118,24325,2,0,P|174:108|139:120,1,65,0|0,0:0|0:0,0:0:0:0:
85,153,24813,6,0,L|101:303,2,130,2|2|2,0:0|0:0|0:0,0:0:0:0:
131,88,26032,2,0,P|176:75|240:143,1,130,2|0,0:0|0:0,0:0:0:0:
279,191,26764,6,0,B|316:219|316:219|421:203,1,130,2|0,0:0|0:0,0:0:0:0:
467,165,27496,2,0,P|480:205|473:234,1,65,0|2,0:0|0:0,0:0:0:0:
421,285,27984,2,0,L|283:305,1,130
212,333,28715,6,0,L|203:256,1,71.5000021820069,2|0,0:0|0:0,0:0:0:0:
203,261,29081,1,0,0:0:0:0:
203,261,29203,1,2,0:0:0:0:
262,199,29447,2,0,L|271:122,1,71.5000021820069,0|2,0:0|0:0,0:0:0:0:
209,68,29935,1,0,0:0:0:0:
209,68,30057,1,0,0:0:0:0:
209,68,30179,2,0,P|170:63|130:87,1,71.5000021820069,2|0,0:0|0:0,0:0:0:0:
82,139,30667,6,0,L|92:217,1,71.5000021820069,2|0,0:0|0:0,0:0:0:0:
91,209,31032,1,0,0:0:0:0:
91,209,31154,1,2,0:0:0:0:
165,257,31398,2,0,L|155:335,1,71.5000021820069,0|2,0:0|0:0,0:0:0:0:
72,344,31886,1,0,0:0:0:0:
28,270,32130,1,2,0:0:0:0:
91,209,32374,1,0,0:0:0:0:
165,257,32618,6,0,P|216:265|253:261,1,71.5000021820069,2|0,0:0|0:0,0:0:0:0:
235,263,32984,1,0,0:0:0:0:
235,263,33106,2,0,L|243:183,1,71.5000021820069,2|0,0:0|0:0,0:0:0:0:
302,128,33593,2,0,P|353:136|390:132,1,71.5000021820069,2|0,0:0|0:0,0:0:0:0:
372,134,33959,1,0,0:0:0:0:
372,134,34081,2,0,L|379:53,1,71.5000021820069,2|0,0:0|0:0,0:0:0:0:
433,201,34569,6,0,L|443:282,1,71.5000021820069,2|0,0:0|0:0,0:0:0:0:
441,271,34935,1,0,0:0:0:0:
441,271,35057,1,2,0:0:0:0:
367,315,35301,2,0,L|363:363,2,35.7500010910034,0|0|2,0:0|0:0|0:0,0:0:0:0:
295,268,35789,1,0,0:0:0:0:
295,268,36032,2,0,P|243:259|201:299,1,107.25000327301,8|0,0:0|0:0,0:0:0:0:
193,308,36520,6,0,L|178:160,1,143.000004364014,6|0,0:0|0:0,0:0:0:0:
92,146,37252,2,0,L|107:294,1,143.000004364014,8|2,0:0|0:0,0:0:0:0:
193,308,37984,1,2,0:0:0:0:
193,308,38228,1,2,0:0:0:0:
258,225,38471,6,0,P|322:244|390:189,1,143.000004364014,2|2,0:0|0:0,0:0:0:0:
366,118,39203,2,0,P|302:99|234:154,1,143.000004364014,8|8,0:0|0:0,0:0:0:0:
178,194,39935,2,0,P|138:194|103:168,1,71.5000021820069,8|0,0:0|0:0,0:0:0:0:
241,138,40423,6,0,B|264:113|264:113|277:253,1,143.000004364014,2|2,0:0|0:0,0:0:0:0:
343,278,41154,2,0,L|333:361,2,71.5000021820069,8|2|2,0:0|0:0|0:0,0:0:0:0:
393,207,41886,2,0,P|434:209|467:228,1,71.5000021820069,2|2,0:0|0:0,0:0:0:0:
512,155,42374,6,0,P|449:123|358:130,2,143.000004364014,6|2|2,0:0|0:0|0:0,0:0:0:0:
460,222,43593,1,8,0:0:0:0:
460,222,43837,2,0,P|428:207|393:207,1,71.5000021820069,8|2,0:0|0:0,0:0:0:0:
333,292,44325,6,0,P|267:310|205:255,1,143.000004364014,6|0,0:0|0:0,0:0:0:0:
282,226,45057,2,0,P|223:186|140:225,1,143.000004364014,8|2,0:0|0:0,0:0:0:0:
142,290,45789,2,0,L|227:282,1,71.5000021820069,2|2,0:0|0:0,0:0:0:0:
302,346,46276,6,0,B|296:302|296:302|314:254|314:254|303:190,1,143.000004364014,2|2,0:0|0:0,0:0:0:0:
255,138,47008,2,0,P|296:123|333:128,1,71.5000021820069,8|2,0:0|0:0,0:0:0:0:
374,194,47496,1,8,0:0:0:0:
374,194,47740,2,0,P|333:209|296:204,1,71.5000021820069,8|0,0:0|0:0,0:0:0:0:
241,291,48228,6,0,P|175:260|91:285,1,143.000004364014,2|2,0:0|0:0,0:0:0:0:
23,258,48959,2,0,L|36:335,2,71.5000021820069,8|2|2,0:0|0:0|0:0,0:0:0:0:
80,193,49691,2,0,L|68:122,1,71.5000021820069,2|2,0:0|0:0,0:0:0:0:
142,76,50179,6,0,L|170:244,1,143.000004364014,6|2,0:0|0:0,0:0:0:0:
152,310,50911,2,0,P|195:291|232:297,1,71.5000021820069,8|2,0:0|0:0,0:0:0:0:
257,212,51398,1,8,0:0:0:0:
257,212,51520,1,8,0:0:0:0:
257,212,51642,2,0,P|292:211|323:194,1,71.5000021820069,2|2,0:0|0:0,0:0:0:0:
374,67,52130,6,0,L|383:132,1,65,6|8,0:0|0:0,0:0:0:0:
332,258,52618,2,0,L|323:193,1,65,8|8,0:0|0:0,0:0:0:0:
225,110,53106,5,8,0:0:0:0:
160,165,53350,1,8,0:0:0:0:
76,159,53593,1,8,0:0:0:0:
21,91,53837,1,8,0:0:0:0:
126,29,54081,5,2,0:0:0:0:
151,59,54325,1,2,0:0:0:0:
122,85,54569,1,2,0:0:0:0:
96,54,54813,1,2,0:0:0:0:
96,54,55301,6,0,L|105:138,1,77.999997619629,2|8,0:0|0:0,0:0:0:0:
12,204,55789,1,8,0:0:0:0:
17,185,55911,1,8,0:0:0:0:
21,167,56032,6,0,B|64:153|100:176|100:176|148:207|201:173,1,168.999992263794,6|8,0:0|0:0,0:0:0:0:
289,107,56764,1,0,0:0:0:0:
277,203,57008,1,2,0:0:0:0:
277,203,57130,1,8,0:0:0:0:
277,203,57252,2,0,L|269:300,2,84.4999961318971,0|8|0,0:0|0:0|0:0,0:0:0:0:
332,112,57984,6,0,P|265:122|171:78,1,168.999992263794,2|8,0:0|0:0,0:0:0:0:
113,199,58715,2,0,P|160:185|212:194,1,84.4999961318971,0|2,0:0|0:0,0:0:0:0:
194,188,59081,1,8,0:0:0:0:
194,188,59203,1,0,0:0:0:0:
247,273,59447,2,0,P|200:287|148:278,1,84.4999961318971,8|0,0:0|0:0,0:0:0:0:
290,352,59935,6,0,B|295:292|295:292|272:250|272:250|278:161,1,168.999992263794,2|8,0:0|0:0,0:0:0:0:
389,165,60667,1,0,0:0:0:0:
378,265,60911,1,2,0:0:0:0:
378,265,61032,1,8,0:0:0:0:
378,265,61154,2,0,L|370:370,2,84.4999961318971,0|8|0,0:0|0:0|0:0,0:0:0:0:
389,165,61886,6,0,P|319:185|235:120,1,168.999992263794,2|8,0:0|0:0,0:0:0:0:
156,186,62618,2,0,P|143:122|162:78,1,84.4999961318971,0|2,0:0|0:0,0:0:0:0:
156,93,62984,1,8,0:0:0:0:
163,81,63106,2,0,P|167:39|154:0,2,84.4999961318971,0|8|0,0:0|0:0|0:0,0:0:0:0:
77,218,63837,6,0,L|258:201,1,168.999992263794,6|8,0:0|0:0,0:0:0:0:
338,231,64569,2,0,L|323:119,1,84.4999961318971,0|2,0:0|0:0,0:0:0:0:
326,147,64935,1,8,0:0:0:0:
326,147,65057,1,0,0:0:0:0:
228,162,65301,2,0,L|243:274,1,84.4999961318971,8|0,0:0|0:0,0:0:0:0:
273,340,65789,6,0,B|230:354|194:331|194:331|146:300|93:334,2,168.999992263794,2|8|2,0:0|0:0|0:0,0:0:0:0:
273,340,66886,1,8,0:0:0:0:
273,340,67008,1,0,0:0:0:0:
239,245,67252,2,0,P|235:193|264:149,1,84.4999961318971,8|0,0:0|0:0,0:0:0:0:
248,164,67618,1,0,0:0:0:0:
248,164,67740,6,0,L|163:157,1,84.4999961318971,6|0,0:0|0:0,0:0:0:0:
174,58,68228,2,0,L|259:65,1,84.4999961318971,8|0,0:0|0:0,0:0:0:0:
337,126,68715,1,2,0:0:0:0:
337,126,68837,1,8,0:0:0:0:
337,126,68959,2,0,L|422:118,1,84.4999961318971,0|8,0:0|0:0,0:0:0:0:
411,216,69447,1,8,0:0:0:0:
411,216,69569,1,8,0:0:0:0:
411,216,69691,2,0,L|354:221,2,42.2499980659486,2|8|8,0:0|0:0|0:0,0:0:0:0:
398,312,70179,5,8,0:0:0:0:
398,312,70423,2,0,L|302:304,1,84.4999961318971,8|2,0:0|0:0,0:0:0:0:
145,290,70911,2,0,L|334:306,1,168.999992263794,8|8,0:0|0:0,0:0:0:0:
324,290,71520,1,8,0:0:0:0:
335,279,71642,6,0,B|361:246|335:196|335:196|315:158|333:116,1,168.999992263794,6|8,0:0|0:0,0:0:0:0:
222,40,72374,1,0,0:0:0:0:
238,138,72618,1,2,0:0:0:0:
238,138,72740,1,8,0:0:0:0:
238,138,72862,2,0,L|250:228,2,84.4999961318971,0|8|0,0:0|0:0|0:0,0:0:0:0:
250,36,73593,6,0,P|179:70|65:62,1,168.999992263794,2|8,0:0|0:0,0:0:0:0:
76,178,74325,2,0,P|126:161|173:163,1,84.4999961318971,0|2,0:0|0:0,0:0:0:0:
157,160,74691,1,8,0:0:0:0:
157,160,74813,1,0,0:0:0:0:
220,238,75057,2,0,P|170:255|123:253,1,84.4999961318971,8|0,0:0|0:0,0:0:0:0:
288,171,75545,6,0,B|324:140|324:140|309:291,1,168.999992263794,6|8,0:0|0:0,0:0:0:0:
211,356,76276,1,0,0:0:0:0:
311,359,76520,1,2,0:0:0:0:
311,359,76642,1,8,0:0:0:0:
311,359,76764,2,0,L|428:368,2,84.4999961318971,0|8|0,0:0|0:0|0:0,0:0:0:0:
219,253,77496,6,0,P|196:208|250:99,1,168.999992263794,2|8,0:0|0:0,0:0:0:0:
292,190,78228,1,0,0:0:0:0:
219,253,78471,1,2,0:0:0:0:
219,253,78593,1,8,0:0:0:0:
219,253,78715,2,0,L|123:244,1,84.4999961318971,0|12,0:0|0:0,0:0:0:0:
283,326,79203,5,0,0:0:0:0:
219,253,79447,2,0,L|23:233,1,168.999992263794,6|8,0:0|0:0,0:0:0:0:
23,141,80179,2,0,L|126:131,1,84.4999961318971,0|2,0:0|0:0,0:0:0:0:
107,132,80545,1,8,0:0:0:0:
107,132,80667,1,0,0:0:0:0:
190,82,80911,2,0,P|205:128|199:166,1,84.4999961318971,8|0,0:0|0:0,0:0:0:0:
128,227,81398,6,0,P|123:268|138:308,2,84.4999961318971,2|0|8,0:0|0:0|0:0,0:0:0:0:
199,162,82130,2,0,L|302:152,1,84.4999961318971,0|2,0:0|0:0,0:0:0:0:
283,153,82496,1,8,0:0:0:0:
283,153,82618,1,0,0:0:0:0:
353,39,82862,5,8,0:0:0:0:
353,39,83106,2,0,B|349:90|349:90|367:144|367:144|357:227,1,168.999992263794,12|0,0:0|0:0,0:0:0:0:
293,318,83837,1,8,0:0:0:0:
202,287,84081,1,8,0:0:0:0:
202,287,84203,1,0,0:0:0:0:
202,287,84325,2,0,L|207:236,2,42.2499980659486,2|2|2,0:0|0:0|0:0,0:0:0:0:
286,192,84813,2,0,L|281:141,2,42.2499980659486,8|8|2,0:0|0:0|0:0,0:0:0:0:
308,57,85301,6,0,P|251:71|210:61,1,84.4999961318971,6|8,0:0|0:0,0:0:0:0:
110,165,85789,2,0,P|167:151|208:161,1,84.4999961318971,8|8,0:0|0:0,0:0:0:0:
284,183,86276,5,8,0:0:0:0:
258,277,86520,1,8,0:0:0:0:
163,247,86764,1,10,0:0:0:0:
191,154,87008,2,0,L|213:58,1,84.4999961318971,8|0,0:0|0:0,0:0:0:0:
256,192,87374,12,0,92984,0:0:0:0:
