osu file format v14

[General]
AudioFilename: audio.mp3
AudioLeadIn: 0
PreviewTime: 54813
Countdown: 0
SampleSet: Soft
StackLeniency: 0.7
Mode: 0
LetterboxInBreaks: 0
WidescreenStoryboard: 0

[Editor]
DistanceSpacing: 1
BeatDivisor: 4
GridSize: 32
TimelineZoom: 1.1

[Metadata]
Title:From
TitleUnicode:フロム
Artist:TRUE
ArtistUnicode:TRUE
Creator:[C u r i]
Version:Easy
Source:終末なにしてますか?忙しいですか?救ってもらっていいですか?
Tags:Left Shumatsu nani shitemasu ka? Isogashidesu ka? Sukutte moratte iidesu ka? ED Ending TV Size
BeatmapID:1277087
BeatmapSetID:600519

[Difficulty]
HPDrainRate:2
CircleSize:3
OverallDifficulty:2
ApproachRate:2
SliderMultiplier:0.9
SliderTickRate:1

[Events]
//Background and Video events
0,0,"cropped-1920-1080-806829.png",0,0
//Break Periods
//Storyboard Layer 0 (Background)
//Storyboard Layer 1 (Fail)
//Storyboard Layer 2 (Pass)
//Storyboard Layer 3 (Foreground)
//Storyboard Sound Samples

[TimingPoints]
1398.82182459677,487.80487804878,4,2,2,50,1,0
3350,-100,4,2,2,60,0,0
4081,-100,4,2,1,60,0,0
5301,-100,4,2,1,70,0,0
9203,-100,4,2,1,80,0,0
18715,-100,4,2,1,50,0,0
20911,-100,4,2,2,60,0,0
28715,-100,4,2,1,70,0,0
36520,-100,4,2,1,65,0,0
52130,-100,4,2,1,70,0,0
53106,-100,4,2,1,80,0,0
54081,-100,4,2,2,60,0,0
55301,-100,4,2,1,60,0,0
55545,-100,4,2,1,70,0,0
56032,-100,4,2,1,90,0,1
87252,-100,4,2,1,100,0,0
89203,-100,4,2,1,50,0,0
91154,-100,4,2,1,30,0,0
92984,-100,4,2,1,10,0,0

[Colours]
Combo1 : 30,30,255
Combo2 : 0,255,255
Combo3 : 18,124,255
Combo4 : 209,209,209

[HitObjects]
135,117,1398,6,0,B|224:97|224:97|294:116,2,135,2|2|2,0:0|0:0|0:0,0:0:0:0:
69,179,3350,2,0,P|56:250|105:311,2,135,0|2|2,3:0|0:0|0:0,0:0:0:0:
135,117,5301,6,0,L|246:128,1,90,2|2,0:0|0:0,0:0:0:0:
288,189,6276,2,0,L|399:178,1,90,2|12,0:0|0:0,0:0:0:0:
467,173,7252,2,0,P|508:249|458:331,1,180,6|2,0:0|0:0,0:0:0:0:
381,352,8715,1,2,0:0:0:0:
293,329,9203,6,0,P|221:319|98:309,1,180,6|2,0:0|0:0,0:0:0:0:
24,315,10667,1,8,0:0:0:0:
25,225,11154,2,0,L|30:123,1,90,2|8,0:0|0:0,0:0:0:0:
72,55,12130,2,0,P|131:45|189:81,1,90,2|8,0:0|0:0,0:0:0:0:
223,116,13106,6,0,P|302:143|376:52,1,180,2|2,0:0|0:0,0:0:0:0:
433,22,14569,1,8,0:0:0:0:
462,107,15057,2,0,P|459:171|456:210,1,90,2|8,0:0|0:0,0:0:0:0:
399,266,16032,2,0,P|335:263|296:260,1,90,2|12,0:0|0:0,0:0:0:0:
246,196,17008,6,0,P|168:201|80:210,1,135,6|6,0:0|0:0,0:0:0:0:
21,214,18228,1,2,0:0:0:0:
73,286,18715,1,6,0:0:0:0:
73,286,20911,6,0,P|104:204|48:130,2,180,2|0|2,0:0|0:0|0:0,0:0:0:0:
21,359,23350,1,0,0:0:0:0:
110,369,23837,2,0,L|212:357,1,90,0|0,0:0|0:0,0:0:0:0:
269,301,24813,6,0,L|475:314,2,180,2|2|2,0:0|0:0|0:0,0:0:0:0:
181,280,27252,1,0,0:0:0:0:
131,204,27740,2,0,P|126:155|148:93,1,90,2|0,0:0|0:0,0:0:0:0:
215,74,28715,6,0,P|264:69|326:91,2,90,2|2|2,0:0|0:0|0:0,0:0:0:0:
135,115,30179,1,2,0:0:0:0:
209,166,30667,2,0,P|252:175|297:170,1,90,2|2,0:0|0:0,0:0:0:0:
377,130,31642,2,0,P|420:120|465:125,1,90,2|2,0:0|0:0,0:0:0:0:
508,204,32618,6,0,P|517:247|512:292,2,90,2|2|2,0:0|0:0|0:0,0:0:0:0:
465,125,34081,1,2,0:0:0:0:
377,130,34569,2,0,L|187:122,1,180,2|2,0:0|0:0,0:0:0:0:
107,115,36032,1,8,0:0:0:0:
27,156,36520,6,0,P|9:225|44:282,2,135,6|8|2,0:0|0:0|0:0,0:0:0:0:
107,115,38471,2,0,L|249:122,2,135,2|8|8,0:0|0:0|0:0,0:0:0:0:
26,155,40423,6,0,P|45:244|61:348,1,180,2|2,0:0|0:0,0:0:0:0:
134,381,41886,1,2,0:0:0:0:
221,358,42374,2,0,L|318:347,1,90,6|2,0:0|0:0,0:0:0:0:
389,303,43350,2,0,P|397:237|373:201,1,90,2|8,0:0|0:0,0:0:0:0:
310,171,44325,6,0,P|291:103|333:46,2,135,6|8|2,0:0|0:0|0:0,0:0:0:0:
387,217,46276,2,0,B|476:204|476:204|505:163,2,135,2|0|8,0:0|0:0|0:0,0:0:0:0:
310,171,48228,6,0,B|222:155|222:155|128:189,1,180,2|2,0:0|0:0,0:0:0:0:
92,264,49691,1,2,0:0:0:0:
50,184,50179,2,0,P|37:114|85:58,2,135,6|8|2,0:0|0:0|0:0,0:0:0:0:
92,264,52130,6,0,P|107:314|87:370,2,90,6|8|8,0:0|0:0|0:0,0:0:0:0:
50,184,53593,1,8,0:0:0:0:
76,98,54081,1,2,0:0:0:0:
207,73,54813,2,0,L|378:84,1,135,2|8,0:0|0:0,0:0:0:0:
429,100,56032,6,0,P|469:181|414:284,1,180,6|2,0:0|0:0,0:0:0:0:
358,297,57496,1,8,0:0:0:0:
268,291,57984,2,0,L|125:271,2,135,2|0|8,0:0|0:0|0:0,0:0:0:0:
358,297,59935,6,0,P|355:240|349:186,1,90,2|8,0:0|0:0,0:0:0:0:
278,154,60911,2,0,P|280:109|284:64,1,90,2|8,0:0|0:0,0:0:0:0:
361,18,61886,2,0,P|444:24|481:102,2,135,2|0|8,0:0|0:0|0:0,0:0:0:0:
283,64,63837,6,0,L|89:79,1,180,6|2,0:0|0:0,0:0:0:0:
13,79,65301,1,8,0:0:0:0:
51,160,65789,2,0,P|57:212|58:258,1,90,2|8,0:0|0:0,0:0:0:0:
10,326,66764,2,0,P|69:340|108:321,1,90,2|8,0:0|0:0,0:0:0:0:
149,258,67740,6,0,P|148:204|142:163,1,90,4|8,0:0|0:0,0:0:0:0:
51,160,68715,2,0,P|53:115|58:71,1,90,2|8,0:0|0:0,0:0:0:0:
135,23,69691,2,0,P|207:36|246:102,1,135,2|8,0:0|0:0,0:0:0:0:
156,112,70911,1,8,0:0:0:0:
249,209,71642,6,0,P|310:251|417:202,1,180,6|2,0:0|0:0,0:0:0:0:
457,148,73106,1,8,0:0:0:0:
381,99,73593,2,0,L|232:122,2,135,2|0|8,0:0|0:0|0:0,0:0:0:0:
389,9,75545,6,0,L|183:40,1,180,6|2,0:0|0:0,0:0:0:0:
158,108,77008,1,8,0:0:0:0:
68,119,77496,2,0,P|33:180|59:255,2,135,2|0|12,0:0|0:0|0:0,0:0:0:0:
120,191,79447,6,0,L|315:173,1,180,6|2,0:0|0:0,0:0:0:0:
388,163,80911,1,8,0:0:0:0:
442,234,81398,2,0,P|431:301|429:343,2,90,2|8|2,0:0|0:0|0:0,0:0:0:0:
481,153,82862,1,8,0:0:0:0:
511,68,83350,6,0,P|451:68|415:91,1,90,2|8,0:0|0:0,0:0:0:0:
388,163,84325,2,0,P|328:163|292:140,1,90,2|8,0:0|0:0,0:0:0:0:
249,76,85301,2,0,P|189:76|153:99,1,90,6|8,0:0|0:0,0:0:0:0:
114,165,86276,2,0,L|138:330,1,135,8|8,0:0|0:0,0:0:0:0:
256,192,87252,12,0,92984,0:0:0:0:
