osu file format v14

[General]
AudioFilename: audio.mp3
AudioLeadIn: 0
PreviewTime: 56753
Countdown: 0
SampleSet: Normal
StackLeniency: 0.7
Mode: 1
LetterboxInBreaks: 0
WidescreenStoryboard: 0

[Editor]
Bookmarks: 19905,43905
DistanceSpacing: 0.8
BeatDivisor: 4
GridSize: 32
TimelineZoom: 1.9

[Metadata]
Title:Divine Spell (TV Size)
TitleUnicode:Divine Spell (TV Size)
Artist:TRUE
ArtistUnicode:TRUE
Creator:Fleure De Lapin
Version:Luqua's Oni
Source:レガリア The Three Sacred Stars
Tags:regalia opening anime japanese franklin_dejavu fdjv luqua
BeatmapID:2290195
BeatmapSetID:1095066

[Difficulty]
HPDrainRate:5.5
CircleSize:2
OverallDifficulty:5
ApproachRate:5
SliderMultiplier:1.4
SliderTickRate:1

[Events]
//Background and Video events
0,0,"Latarbelakang.jpg",0,70
//Break Periods
//Storyboard Layer 0 (Background)
//Storyboard Layer 1 (Fail)
//Storyboard Layer 2 (Pass)
//Storyboard Layer 3 (Foreground)
//Storyboard Layer 4 (Overlay)
//Storyboard Sound Samples

[TimingPoints]
1910,375,4,1,0,78,1,0
57410,-100,4,1,0,78,0,1
67910,-100,4,1,0,78,0,0
69410,-100,4,1,0,78,0,1
79722,-100,4,1,0,78,0,0
81410,-100,4,1,0,78,0,1
84410,-100,4,1,0,78,0,0
87410,-100,4,1,0,58,0,0
88160,-100,4,1,0,48,0,0
88910,-100,4,1,0,38,0,0
89285,-100,4,1,0,18,0,0

[HitObjects]
256,192,1910,5,4,0:0:0:0:
256,192,2160,1,8,0:0:0:0:
256,192,2285,1,0,0:0:0:0:
256,192,2535,1,0,0:0:0:0:
256,192,2660,1,8,0:0:0:0:
256,192,3035,1,0,0:0:0:0:
256,192,3160,1,0,0:0:0:0:
256,192,3285,1,0,0:0:0:0:
256,192,3410,1,8,0:0:0:0:
256,192,3691,1,0,0:0:0:0:
256,192,3972,1,8,0:0:0:0:
256,192,4160,1,8,0:0:0:0:
256,192,4535,1,12,0:0:0:0:
256,192,4910,1,4,0:0:0:0:
256,192,5285,1,0,0:0:0:0:
256,192,5472,1,0,0:0:0:0:
256,192,5660,1,8,0:0:0:0:
256,192,6035,1,8,0:0:0:0:
256,192,6222,1,0,0:0:0:0:
256,192,6316,1,0,0:0:0:0:
256,192,6410,1,0,0:0:0:0:
256,192,6597,1,0,0:0:0:0:
256,192,6785,1,8,0:0:0:0:
256,192,6972,1,0,0:0:0:0:
256,192,7160,1,8,0:0:0:0:
256,192,7535,1,0,0:0:0:0:
256,192,7722,1,8,0:0:0:0:
256,192,7816,1,8,0:0:0:0:
256,192,7910,1,8,0:0:0:0:
256,192,8097,1,0,0:0:0:0:
256,192,8285,1,8,0:0:0:0:
256,192,8472,1,0,0:0:0:0:
256,192,8660,1,8,0:0:0:0:
256,192,9035,1,8,0:0:0:0:
256,192,9222,1,0,0:0:0:0:
256,192,9316,1,0,0:0:0:0:
256,192,9410,1,8,0:0:0:0:
256,192,9597,1,0,0:0:0:0:
256,192,9785,1,8,0:0:0:0:
256,192,9972,1,0,0:0:0:0:
256,192,10347,1,0,0:0:0:0:
256,192,10535,1,8,0:0:0:0:
256,192,10628,1,0,0:0:0:0:
256,192,10722,1,0,0:0:0:0:
256,192,10910,1,4,0:0:0:0:
256,192,11285,1,8,0:0:0:0:
256,192,11472,1,8,0:0:0:0:
256,192,11566,1,8,0:0:0:0:
256,192,11660,1,0,0:0:0:0:
256,192,11847,1,0,0:0:0:0:
256,192,12035,1,8,0:0:0:0:
256,192,12222,1,0,0:0:0:0:
256,192,12316,1,0,0:0:0:0:
256,192,12410,1,8,0:0:0:0:
256,192,12785,1,8,0:0:0:0:
256,192,12972,1,0,0:0:0:0:
256,192,13347,1,0,0:0:0:0:
256,192,13535,1,8,0:0:0:0:
256,192,13722,1,0,0:0:0:0:
256,192,13816,1,0,0:0:0:0:
256,192,13910,1,0,0:0:0:0:
256,192,14285,1,8,0:0:0:0:
256,192,14472,1,8,0:0:0:0:
256,192,14566,1,8,0:0:0:0:
256,192,14660,1,8,0:0:0:0:
256,192,14847,1,0,0:0:0:0:
256,192,15035,1,8,0:0:0:0:
256,192,15222,1,8,0:0:0:0:
256,192,15410,1,4,0:0:0:0:
256,192,15691,1,4,0:0:0:0:
256,192,15972,1,4,0:0:0:0:
256,192,16535,1,12,0:0:0:0:
256,192,16816,1,12,0:0:0:0:
256,192,17097,1,4,0:0:0:0:
256,192,17660,1,4,0:0:0:0:
256,192,17941,1,4,0:0:0:0:
256,192,18222,1,12,0:0:0:0:
256,192,18410,1,0,0:0:0:0:
256,192,18503,1,0,0:0:0:0:
256,192,18597,1,8,0:0:0:0:
256,192,18785,1,0,0:0:0:0:
256,192,18972,1,8,0:0:0:0:
256,192,19066,1,0,0:0:0:0:
256,192,19160,1,8,0:0:0:0:
256,192,19347,1,0,0:0:0:0:
256,192,19535,1,8,0:0:0:0:
256,192,19628,1,8,0:0:0:0:
256,192,19722,1,8,0:0:0:0:
256,192,19910,1,4,0:0:0:0:
256,192,20285,1,8,0:0:0:0:
256,192,20660,1,0,0:0:0:0:
256,192,20941,1,8,0:0:0:0:
256,192,21222,1,8,0:0:0:0:
256,192,21410,1,0,0:0:0:0:
256,192,21785,1,8,0:0:0:0:
256,192,22160,1,8,0:0:0:0:
256,192,22441,1,0,0:0:0:0:
256,192,22722,1,0,0:0:0:0:
256,192,23285,1,0,0:0:0:0:
256,192,23660,1,8,0:0:0:0:
256,192,23941,1,0,0:0:0:0:
256,192,24222,1,0,0:0:0:0:
256,192,24410,1,8,0:0:0:0:
256,192,24785,1,0,0:0:0:0:
256,192,25160,1,0,0:0:0:0:
256,192,25441,1,8,0:0:0:0:
256,192,25722,1,8,0:0:0:0:
256,192,26097,1,0,0:0:0:0:
256,192,26660,1,8,0:0:0:0:
256,192,26941,1,8,0:0:0:0:
256,192,27410,1,0,0:0:0:0:
256,192,27785,1,8,0:0:0:0:
256,192,28066,1,0,0:0:0:0:
256,192,28535,1,0,0:0:0:0:
256,192,28910,1,8,0:0:0:0:
256,192,29191,1,8,0:0:0:0:
256,192,29472,1,0,0:0:0:0:
256,192,29847,1,8,0:0:0:0:
256,192,30035,1,8,0:0:0:0:
256,192,30410,1,4,0:0:0:0:
256,192,30691,1,4,0:0:0:0:
256,192,30972,1,4,0:0:0:0:
256,192,31910,1,4,0:0:0:0:
256,192,32285,1,8,0:0:0:0:
256,192,32472,1,0,0:0:0:0:
256,192,32660,1,0,0:0:0:0:
256,192,32847,1,8,0:0:0:0:
256,192,32941,1,8,0:0:0:0:
256,192,33222,1,0,0:0:0:0:
256,192,33410,1,8,0:0:0:0:
256,192,33785,1,8,0:0:0:0:
256,192,33972,1,0,0:0:0:0:
256,192,34066,1,0,0:0:0:0:
256,192,34160,1,0,0:0:0:0:
256,192,34347,1,0,0:0:0:0:
256,192,34535,1,8,0:0:0:0:
256,192,34722,1,0,0:0:0:0:
256,192,35097,1,8,0:0:0:0:
256,192,35285,1,8,0:0:0:0:
256,192,35472,1,0,0:0:0:0:
256,192,35660,1,0,0:0:0:0:
256,192,35847,1,8,0:0:0:0:
256,192,35941,1,8,0:0:0:0:
256,192,36222,1,0,0:0:0:0:
256,192,36410,1,8,0:0:0:0:
256,192,36785,1,8,0:0:0:0:
256,192,36972,1,0,0:0:0:0:
256,192,37160,1,0,0:0:0:0:
256,192,37347,1,8,0:0:0:0:
256,192,37441,1,8,0:0:0:0:
256,192,37535,1,8,0:0:0:0:
256,192,37722,1,8,0:0:0:0:
256,192,37910,1,4,0:0:0:0:
256,192,38285,1,8,0:0:0:0:
256,192,38472,1,0,0:0:0:0:
256,192,38660,1,8,0:0:0:0:
256,192,38847,1,0,0:0:0:0:
256,192,38941,1,8,0:0:0:0:
256,192,39222,1,8,0:0:0:0:
256,192,39410,1,0,0:0:0:0:
256,192,39597,1,0,0:0:0:0:
256,192,39785,1,8,0:0:0:0:
256,192,39972,1,8,0:0:0:0:
256,192,40066,1,0,0:0:0:0:
256,192,40347,1,0,0:0:0:0:
256,192,40535,1,8,0:0:0:0:
256,192,40910,1,0,0:0:0:0:
256,192,41097,1,0,0:0:0:0:
256,192,41285,1,8,0:0:0:0:
256,192,41472,1,0,0:0:0:0:
256,192,41847,1,8,0:0:0:0:
256,192,42035,1,8,0:0:0:0:
256,192,42222,1,0,0:0:0:0:
256,192,42316,1,0,0:0:0:0:
256,192,42410,1,8,0:0:0:0:
256,192,42597,1,8,0:0:0:0:
256,192,42691,1,8,0:0:0:0:
256,192,42785,1,0,0:0:0:0:
256,192,42972,1,8,0:0:0:0:
256,192,43160,1,0,0:0:0:0:
256,192,43347,1,0,0:0:0:0:
256,192,43535,1,8,0:0:0:0:
256,192,43628,1,8,0:0:0:0:
256,192,43722,1,8,0:0:0:0:
256,192,43910,1,4,0:0:0:0:
256,192,44285,1,0,0:0:0:0:
256,192,44472,1,0,0:0:0:0:
256,192,44660,1,8,0:0:0:0:
256,192,45035,1,0,0:0:0:0:
256,192,45410,1,4,0:0:0:0:
256,192,45785,1,8,0:0:0:0:
256,192,45972,1,8,0:0:0:0:
256,192,46160,1,0,0:0:0:0:
256,192,46910,1,4,0:0:0:0:
256,192,47191,1,0,0:0:0:0:
256,192,47472,1,0,0:0:0:0:
256,192,47660,1,8,0:0:0:0:
256,192,47941,1,8,0:0:0:0:
256,192,48222,1,8,0:0:0:0:
256,192,48410,1,4,0:0:0:0:
256,192,49910,1,4,0:0:0:0:
256,192,50285,1,8,0:0:0:0:
256,192,50472,1,0,0:0:0:0:
256,192,50660,1,8,0:0:0:0:
256,192,51035,1,0,0:0:0:0:
256,192,51410,1,4,0:0:0:0:
256,192,51785,1,0,0:0:0:0:
256,192,51972,1,8,0:0:0:0:
256,192,52160,1,0,0:0:0:0:
256,192,52910,1,4,0:0:0:0:
256,192,53191,1,0,0:0:0:0:
256,192,53472,1,8,0:0:0:0:
256,192,53660,1,0,0:0:0:0:
256,192,53941,1,8,0:0:0:0:
256,192,54222,1,0,0:0:0:0:
256,192,54410,1,12,0:0:0:0:
256,192,54597,12,0,55535,0:0:0:0:
256,192,55910,5,0,0:0:0:0:
256,192,56191,1,0,0:0:0:0:
256,192,56472,1,0,0:0:0:0:
256,192,56847,1,8,0:0:0:0:
256,192,57035,1,8,0:0:0:0:
256,192,57410,1,4,0:0:0:0:
256,192,57691,1,8,0:0:0:0:
256,192,57785,1,0,0:0:0:0:
256,192,57972,1,8,0:0:0:0:
256,192,58347,1,0,0:0:0:0:
256,192,58535,1,8,0:0:0:0:
256,192,58722,1,0,0:0:0:0:
256,192,58816,1,0,0:0:0:0:
256,192,58910,1,8,0:0:0:0:
256,192,59097,1,0,0:0:0:0:
256,192,59191,1,8,0:0:0:0:
256,192,59472,1,8,0:0:0:0:
256,192,59847,1,8,0:0:0:0:
256,192,60035,1,0,0:0:0:0:
256,192,60128,1,0,0:0:0:0:
256,192,60222,1,8,0:0:0:0:
256,192,60410,1,8,0:0:0:0:
256,192,60597,1,0,0:0:0:0:
256,192,60691,1,0,0:0:0:0:
256,192,60972,1,0,0:0:0:0:
256,192,61160,1,8,0:0:0:0:
256,192,61347,1,0,0:0:0:0:
256,192,61441,1,8,0:0:0:0:
256,192,61722,1,0,0:0:0:0:
256,192,61910,1,8,0:0:0:0:
256,192,62097,1,8,0:0:0:0:
256,192,62191,1,0,0:0:0:0:
256,192,62472,1,0,0:0:0:0:
256,192,62660,1,8,0:0:0:0:
256,192,63035,1,8,0:0:0:0:
256,192,63222,1,8,0:0:0:0:
256,192,63410,1,4,0:0:0:0:
256,192,63785,1,0,0:0:0:0:
256,192,63972,1,8,0:0:0:0:
256,192,64160,1,8,0:0:0:0:
256,192,64347,1,0,0:0:0:0:
256,192,64441,1,0,0:0:0:0:
256,192,64722,1,8,0:0:0:0:
256,192,64910,1,8,0:0:0:0:
256,192,65097,1,0,0:0:0:0:
256,192,65285,1,8,0:0:0:0:
256,192,65472,1,0,0:0:0:0:
256,192,65566,1,0,0:0:0:0:
256,192,65660,1,8,0:0:0:0:
256,192,65847,1,0,0:0:0:0:
256,192,66035,1,8,0:0:0:0:
256,192,66410,1,4,0:0:0:0:
256,192,66785,1,0,0:0:0:0:
256,192,66972,1,8,0:0:0:0:
256,192,67160,1,8,0:0:0:0:
256,192,67441,1,0,0:0:0:0:
256,192,67535,1,8,0:0:0:0:
256,192,67722,1,0,0:0:0:0:
256,192,67910,1,12,0:0:0:0:
256,192,68191,1,12,0:0:0:0:
256,192,68472,1,12,0:0:0:0:
256,192,68847,1,8,0:0:0:0:
256,192,69035,1,8,0:0:0:0:
256,192,69410,1,4,0:0:0:0:
256,192,69691,1,8,0:0:0:0:
256,192,69785,1,0,0:0:0:0:
256,192,69972,1,8,0:0:0:0:
256,192,70347,1,0,0:0:0:0:
256,192,70535,1,8,0:0:0:0:
256,192,70722,1,0,0:0:0:0:
256,192,70816,1,0,0:0:0:0:
256,192,70910,1,8,0:0:0:0:
256,192,71097,1,0,0:0:0:0:
256,192,71191,1,8,0:0:0:0:
256,192,71472,1,8,0:0:0:0:
256,192,71847,1,8,0:0:0:0:
256,192,72035,1,8,0:0:0:0:
256,192,72128,1,8,0:0:0:0:
256,192,72222,1,0,0:0:0:0:
256,192,72410,1,0,0:0:0:0:
256,192,72597,1,8,0:0:0:0:
256,192,72691,1,8,0:0:0:0:
256,192,72972,1,8,0:0:0:0:
256,192,73160,1,0,0:0:0:0:
256,192,73347,1,0,0:0:0:0:
256,192,73441,1,8,0:0:0:0:
256,192,73722,1,0,0:0:0:0:
256,192,73910,1,0,0:0:0:0:
256,192,74097,1,0,0:0:0:0:
256,192,74191,1,8,0:0:0:0:
256,192,74472,1,0,0:0:0:0:
256,192,74660,1,8,0:0:0:0:
256,192,75035,1,8,0:0:0:0:
256,192,75410,1,4,0:0:0:0:
256,192,75597,1,0,0:0:0:0:
256,192,75785,1,8,0:0:0:0:
256,192,75972,1,8,0:0:0:0:
256,192,76066,1,0,0:0:0:0:
256,192,76347,1,0,0:0:0:0:
256,192,76535,1,8,0:0:0:0:
256,192,76722,1,8,0:0:0:0:
256,192,76816,1,8,0:0:0:0:
256,192,76910,1,0,0:0:0:0:
256,192,77097,1,0,0:0:0:0:
256,192,77285,1,8,0:0:0:0:
256,192,77472,1,8,0:0:0:0:
256,192,77566,1,8,0:0:0:0:
256,192,78035,1,8,0:0:0:0:
256,192,78222,1,8,0:0:0:0:
256,192,78410,1,4,0:0:0:0:
256,192,78785,1,0,0:0:0:0:
256,192,78972,1,12,0:0:0:0:
256,192,79347,1,12,0:0:0:0:
256,192,79722,1,4,0:0:0:0:
256,192,80472,1,0,0:0:0:0:
256,192,80566,1,0,0:0:0:0:
256,192,80660,1,8,0:0:0:0:
256,192,80847,1,0,0:0:0:0:
256,192,81035,1,8,0:0:0:0:
256,192,81128,1,8,0:0:0:0:
256,192,81222,1,0,0:0:0:0:
256,192,81410,1,12,0:0:0:0:
256,192,81785,1,8,0:0:0:0:
256,192,81972,1,0,0:0:0:0:
256,192,82066,1,0,0:0:0:0:
256,192,82160,1,0,0:0:0:0:
256,192,82347,1,0,0:0:0:0:
256,192,82535,1,8,0:0:0:0:
256,192,82722,1,8,0:0:0:0:
256,192,82816,1,8,0:0:0:0:
256,192,82910,1,0,0:0:0:0:
256,192,83097,1,0,0:0:0:0:
256,192,83285,1,8,0:0:0:0:
256,192,83472,1,0,0:0:0:0:
256,192,83566,1,0,0:0:0:0:
256,192,83660,1,8,0:0:0:0:
256,192,83847,1,8,0:0:0:0:
256,192,83941,1,0,0:0:0:0:
256,192,84035,1,8,0:0:0:0:
256,192,84128,1,8,0:0:0:0:
256,192,84222,1,0,0:0:0:0:
256,192,84410,1,12,0:0:0:0:
256,192,84691,1,4,0:0:0:0:
256,192,84972,1,12,0:0:0:0:
256,192,85160,1,12,0:0:0:0:
256,192,85441,1,4,0:0:0:0:
256,192,85722,1,12,0:0:0:0:
256,192,85910,1,12,0:0:0:0:
256,192,87410,12,0,89378,0:0:0:0:
