osu file format v14

[General]
AudioFilename: audio.mp3
AudioLeadIn: 0
PreviewTime: 55770
Countdown: 0
SampleSet: Normal
StackLeniency: 0.7
Mode: 3
LetterboxInBreaks: 0
SpecialStyle: 0
WidescreenStoryboard: 0

[Editor]
Bookmarks: 56520,80520
DistanceSpacing: 0.8
BeatDivisor: 4
GridSize: 8
TimelineZoom: 2.1

[Metadata]
Title:Divine Spell
TitleUnicode:Divine Spell
Artist:TRUE
ArtistUnicode:TRUE
Creator:Lude
Version:Alecto 7K
Source:レガリア The Three Sacred Stars
Tags:Regalia opening Miho Karasawa
BeatmapID:1678251
BeatmapSetID:799308

[Difficulty]
HPDrainRate:7
CircleSize:7
OverallDifficulty:8
ApproachRate:5
SliderMultiplier:1.4
SliderTickRate:1

[Events]
//Background and Video events
0,0,"beeegeee.jpg",0,0
//Break Periods
//Storyboard Layer 0 (Background)
//Storyboard Layer 1 (Fail)
//Storyboard Layer 2 (Pass)
//Storyboard Layer 3 (Foreground)
//Storyboard Sound Samples

[TimingPoints]
1020,375,4,1,0,0,1,0
3645,-10,4,1,0,0,0,0
3668,-333.333333333333,4,1,0,0,0,0
4020,-100,4,1,0,0,0,0
56520,-100,4,1,0,0,0,1
80520,-100,4,1,0,0,0,0

[HitObjects]
36,192,1020,5,0,0:0:0:0:
109,192,1020,1,0,0:0:0:0:
402,192,1020,1,0,0:0:0:0:
475,192,1020,1,0,0:0:0:0:
256,192,1020,1,0,0:0:0:0:
182,192,1145,1,0,0:0:0:0:
329,192,1145,1,0,0:0:0:0:
256,192,1145,1,0,0:0:0:0:
109,192,1270,1,0,0:0:0:0:
402,192,1270,1,0,0:0:0:0:
256,192,1270,1,0,0:0:0:0:
182,192,1395,1,0,0:0:0:0:
329,192,1395,1,0,0:0:0:0:
256,192,1395,1,0,0:0:0:0:
36,192,1520,1,0,0:0:0:0:
475,192,1520,1,0,0:0:0:0:
256,192,1520,1,0,0:0:0:0:
182,192,1645,1,0,0:0:0:0:
329,192,1645,1,0,0:0:0:0:
256,192,1645,1,0,0:0:0:0:
109,192,1770,1,0,0:0:0:0:
402,192,1770,1,0,0:0:0:0:
256,192,1770,1,0,0:0:0:0:
329,192,1895,1,0,0:0:0:0:
182,192,1895,1,0,0:0:0:0:
256,192,1895,1,0,0:0:0:0:
109,192,2020,1,0,0:0:0:0:
402,192,2020,1,0,0:0:0:0:
256,192,2020,1,0,0:0:0:0:
36,192,2145,1,0,0:0:0:0:
475,192,2145,1,0,0:0:0:0:
256,192,2145,1,0,0:0:0:0:
182,192,2270,1,0,0:0:0:0:
329,192,2270,1,0,0:0:0:0:
256,192,2270,1,0,0:0:0:0:
402,192,2395,1,0,0:0:0:0:
109,192,2395,1,0,0:0:0:0:
256,192,2395,1,0,0:0:0:0:
36,192,2520,128,0,2770:0:0:0:0:
475,192,2520,128,0,2770:0:0:0:0:
256,192,2520,1,0,0:0:0:0:
182,192,2770,128,0,3020:0:0:0:0:
329,192,2770,128,0,3020:0:0:0:0:
256,192,2770,1,0,0:0:0:0:
36,192,3020,128,0,3270:0:0:0:0:
475,192,3020,128,0,3270:0:0:0:0:
256,192,3020,1,0,0:0:0:0:
182,192,3270,1,0,0:0:0:0:
329,192,3270,1,0,0:0:0:0:
256,192,3270,1,0,0:0:0:0:
36,192,3645,1,0,0:0:0:0:
182,192,3645,1,0,0:0:0:0:
329,192,3645,1,0,0:0:0:0:
475,192,3645,1,0,0:0:0:0:
36,192,4020,1,0,0:0:0:0:
109,192,4020,1,0,0:0:0:0:
256,192,4020,1,0,0:0:0:0:
402,192,4020,1,0,0:0:0:0:
475,192,4020,1,0,0:0:0:0:
182,192,4113,1,0,0:0:0:0:
329,192,4207,1,0,0:0:0:0:
182,192,4301,1,0,0:0:0:0:
402,192,4301,1,0,0:0:0:0:
109,192,4395,1,0,0:0:0:0:
36,192,4395,1,0,0:0:0:0:
256,192,4395,1,0,0:0:0:0:
475,192,4395,1,0,0:0:0:0:
402,192,4488,1,0,0:0:0:0:
329,192,4582,1,0,0:0:0:0:
109,192,4582,1,0,0:0:0:0:
256,192,4676,1,0,0:0:0:0:
182,192,4770,1,0,0:0:0:0:
36,192,4770,1,0,0:0:0:0:
402,192,4770,1,0,0:0:0:0:
475,192,4770,1,0,0:0:0:0:
329,192,4863,1,0,0:0:0:0:
109,192,4957,1,0,0:0:0:0:
256,192,5051,1,0,0:0:0:0:
329,192,5051,1,0,0:0:0:0:
182,192,5145,1,0,0:0:0:0:
36,192,5145,1,0,0:0:0:0:
402,192,5145,1,0,0:0:0:0:
475,192,5145,1,0,0:0:0:0:
256,192,5238,1,0,0:0:0:0:
329,192,5332,1,0,0:0:0:0:
109,192,5332,1,0,0:0:0:0:
402,192,5426,1,0,0:0:0:0:
475,192,5520,1,0,0:0:0:0:
182,192,5520,1,0,0:0:0:0:
36,192,5520,1,0,0:0:0:0:
256,192,5520,1,0,0:0:0:0:
329,192,5613,1,0,0:0:0:0:
109,192,5707,1,0,0:0:0:0:
256,192,5801,1,0,0:0:0:0:
329,192,5801,1,0,0:0:0:0:
182,192,5895,1,0,0:0:0:0:
36,192,5895,1,0,0:0:0:0:
402,192,5895,1,0,0:0:0:0:
475,192,5895,1,0,0:0:0:0:
329,192,5988,1,0,0:0:0:0:
109,192,6082,1,0,0:0:0:0:
402,192,6082,1,0,0:0:0:0:
182,192,6176,1,0,0:0:0:0:
109,192,6270,1,0,0:0:0:0:
36,192,6270,1,0,0:0:0:0:
329,192,6270,1,0,0:0:0:0:
475,192,6270,1,0,0:0:0:0:
256,192,6363,1,0,0:0:0:0:
182,192,6457,1,0,0:0:0:0:
329,192,6551,1,0,0:0:0:0:
109,192,6645,1,0,0:0:0:0:
36,192,6645,1,0,0:0:0:0:
402,192,6645,1,0,0:0:0:0:
475,192,6645,1,0,0:0:0:0:
182,192,6738,1,0,0:0:0:0:
256,192,6832,1,0,0:0:0:0:
109,192,6832,1,0,0:0:0:0:
329,192,6926,1,0,0:0:0:0:
182,192,6926,1,0,0:0:0:0:
109,192,7020,1,0,0:0:0:0:
36,192,7020,1,0,0:0:0:0:
256,192,7020,1,0,0:0:0:0:
402,192,7020,1,0,0:0:0:0:
329,192,7113,1,0,0:0:0:0:
256,192,7207,1,0,0:0:0:0:
109,192,7301,1,0,0:0:0:0:
329,192,7301,1,0,0:0:0:0:
182,192,7395,1,0,0:0:0:0:
36,192,7395,1,0,0:0:0:0:
402,192,7395,1,0,0:0:0:0:
475,192,7395,1,0,0:0:0:0:
329,192,7488,1,0,0:0:0:0:
256,192,7582,1,0,0:0:0:0:
402,192,7582,1,0,0:0:0:0:
182,192,7676,1,0,0:0:0:0:
109,192,7770,1,0,0:0:0:0:
36,192,7770,1,0,0:0:0:0:
402,192,7770,1,0,0:0:0:0:
475,192,7770,1,0,0:0:0:0:
329,192,7863,1,0,0:0:0:0:
182,192,7957,1,0,0:0:0:0:
256,192,8051,1,0,0:0:0:0:
109,192,8145,1,0,0:0:0:0:
36,192,8145,1,0,0:0:0:0:
402,192,8145,1,0,0:0:0:0:
475,192,8145,1,0,0:0:0:0:
329,192,8238,1,0,0:0:0:0:
256,192,8332,1,0,0:0:0:0:
182,192,8426,1,0,0:0:0:0:
109,192,8520,1,0,0:0:0:0:
36,192,8520,1,0,0:0:0:0:
329,192,8520,1,0,0:0:0:0:
475,192,8520,1,0,0:0:0:0:
182,192,8613,1,0,0:0:0:0:
329,192,8707,1,0,0:0:0:0:
402,192,8801,1,0,0:0:0:0:
256,192,8895,1,0,0:0:0:0:
109,192,8895,1,0,0:0:0:0:
36,192,8895,1,0,0:0:0:0:
475,192,8895,1,0,0:0:0:0:
329,192,8988,1,0,0:0:0:0:
182,192,9082,1,0,0:0:0:0:
402,192,9082,1,0,0:0:0:0:
256,192,9176,1,0,0:0:0:0:
109,192,9270,1,0,0:0:0:0:
36,192,9270,1,0,0:0:0:0:
329,192,9270,1,0,0:0:0:0:
475,192,9270,1,0,0:0:0:0:
182,192,9363,1,0,0:0:0:0:
256,192,9457,1,0,0:0:0:0:
402,192,9457,1,0,0:0:0:0:
182,192,9551,1,0,0:0:0:0:
109,192,9645,1,0,0:0:0:0:
36,192,9645,1,0,0:0:0:0:
329,192,9645,1,0,0:0:0:0:
475,192,9645,1,0,0:0:0:0:
182,192,9738,1,0,0:0:0:0:
402,192,9738,1,0,0:0:0:0:
329,192,9832,1,0,0:0:0:0:
109,192,9832,1,0,0:0:0:0:
402,192,9926,1,0,0:0:0:0:
182,192,9926,1,0,0:0:0:0:
36,192,10020,1,0,0:0:0:0:
329,192,10020,1,0,0:0:0:0:
109,192,10020,1,0,0:0:0:0:
475,192,10020,1,0,0:0:0:0:
256,192,10113,1,0,0:0:0:0:
182,192,10207,1,0,0:0:0:0:
329,192,10301,1,0,0:0:0:0:
109,192,10395,1,0,0:0:0:0:
36,192,10395,1,0,0:0:0:0:
256,192,10395,1,0,0:0:0:0:
475,192,10395,1,0,0:0:0:0:
402,192,10488,1,0,0:0:0:0:
109,192,10582,1,0,0:0:0:0:
182,192,10582,1,0,0:0:0:0:
109,192,10676,1,0,0:0:0:0:
182,192,10676,1,0,0:0:0:0:
109,192,10770,1,0,0:0:0:0:
182,192,10770,1,0,0:0:0:0:
329,192,10770,1,0,0:0:0:0:
475,192,10770,1,0,0:0:0:0:
256,192,10863,1,0,0:0:0:0:
182,192,10957,1,0,0:0:0:0:
402,192,10957,1,0,0:0:0:0:
329,192,11051,1,0,0:0:0:0:
109,192,11145,1,0,0:0:0:0:
36,192,11145,1,0,0:0:0:0:
256,192,11145,1,0,0:0:0:0:
475,192,11145,1,0,0:0:0:0:
182,192,11238,1,0,0:0:0:0:
329,192,11332,1,0,0:0:0:0:
109,192,11332,1,0,0:0:0:0:
182,192,11426,1,0,0:0:0:0:
402,192,11426,1,0,0:0:0:0:
256,192,11520,1,0,0:0:0:0:
475,192,11520,1,0,0:0:0:0:
109,192,11520,1,0,0:0:0:0:
36,192,11520,1,0,0:0:0:0:
329,192,11613,1,0,0:0:0:0:
256,192,11707,1,0,0:0:0:0:
182,192,11801,1,0,0:0:0:0:
109,192,11895,1,0,0:0:0:0:
36,192,11895,1,0,0:0:0:0:
329,192,11895,1,0,0:0:0:0:
475,192,11895,1,0,0:0:0:0:
256,192,11988,1,0,0:0:0:0:
182,192,12082,1,0,0:0:0:0:
402,192,12082,1,0,0:0:0:0:
329,192,12176,1,0,0:0:0:0:
109,192,12270,1,0,0:0:0:0:
36,192,12270,1,0,0:0:0:0:
256,192,12270,1,0,0:0:0:0:
475,192,12270,1,0,0:0:0:0:
182,192,12363,1,0,0:0:0:0:
329,192,12457,1,0,0:0:0:0:
256,192,12551,1,0,0:0:0:0:
109,192,12645,1,0,0:0:0:0:
36,192,12645,1,0,0:0:0:0:
402,192,12645,1,0,0:0:0:0:
475,192,12645,1,0,0:0:0:0:
182,192,12738,1,0,0:0:0:0:
256,192,12832,1,0,0:0:0:0:
329,192,12926,1,0,0:0:0:0:
402,192,13020,1,0,0:0:0:0:
475,192,13020,1,0,0:0:0:0:
36,192,13020,1,0,0:0:0:0:
182,192,13020,1,0,0:0:0:0:
329,192,13113,1,0,0:0:0:0:
256,192,13207,1,0,0:0:0:0:
109,192,13207,1,0,0:0:0:0:
182,192,13301,1,0,0:0:0:0:
109,192,13395,1,0,0:0:0:0:
36,192,13395,1,0,0:0:0:0:
329,192,13395,1,0,0:0:0:0:
475,192,13395,1,0,0:0:0:0:
256,192,13488,1,0,0:0:0:0:
402,192,13582,1,0,0:0:0:0:
329,192,13582,1,0,0:0:0:0:
329,192,13676,1,0,0:0:0:0:
402,192,13676,1,0,0:0:0:0:
329,192,13770,1,0,0:0:0:0:
402,192,13770,1,0,0:0:0:0:
36,192,13770,1,0,0:0:0:0:
182,192,13770,1,0,0:0:0:0:
256,192,13863,1,0,0:0:0:0:
182,192,13957,1,0,0:0:0:0:
402,192,13957,1,0,0:0:0:0:
329,192,14051,1,0,0:0:0:0:
475,192,14145,1,0,0:0:0:0:
402,192,14145,1,0,0:0:0:0:
256,192,14145,1,0,0:0:0:0:
36,192,14145,1,0,0:0:0:0:
182,192,14238,1,0,0:0:0:0:
109,192,14332,1,0,0:0:0:0:
402,192,14332,1,0,0:0:0:0:
329,192,14426,1,0,0:0:0:0:
182,192,14426,1,0,0:0:0:0:
36,192,14520,1,0,0:0:0:0:
109,192,14520,1,0,0:0:0:0:
256,192,14520,1,0,0:0:0:0:
475,192,14520,1,0,0:0:0:0:
109,192,14801,1,0,0:0:0:0:
182,192,14801,1,0,0:0:0:0:
329,192,14801,1,0,0:0:0:0:
402,192,14801,1,0,0:0:0:0:
36,192,15082,1,0,0:0:0:0:
256,192,15082,1,0,0:0:0:0:
475,192,15082,1,0,0:0:0:0:
329,192,15082,1,0,0:0:0:0:
36,192,15645,1,0,0:0:0:0:
109,192,15645,1,0,0:0:0:0:
256,192,15645,1,0,0:0:0:0:
329,192,15645,1,0,0:0:0:0:
402,192,15645,1,0,0:0:0:0:
109,192,15926,1,0,0:0:0:0:
182,192,15926,1,0,0:0:0:0:
329,192,15926,1,0,0:0:0:0:
402,192,15926,1,0,0:0:0:0:
475,192,15926,1,0,0:0:0:0:
256,192,16207,1,0,0:0:0:0:
402,192,16207,1,0,0:0:0:0:
475,192,16207,1,0,0:0:0:0:
109,192,16207,1,0,0:0:0:0:
36,192,16207,1,0,0:0:0:0:
36,192,16770,1,0,0:0:0:0:
109,192,16770,1,0,0:0:0:0:
256,192,16770,1,0,0:0:0:0:
329,192,16770,1,0,0:0:0:0:
402,192,16770,1,0,0:0:0:0:
475,192,16770,1,0,0:0:0:0:
182,192,17051,1,0,0:0:0:0:
109,192,17051,1,0,0:0:0:0:
36,192,17051,1,0,0:0:0:0:
329,192,17051,1,0,0:0:0:0:
402,192,17051,1,0,0:0:0:0:
475,192,17051,1,0,0:0:0:0:
256,192,17332,1,0,0:0:0:0:
402,192,17332,1,0,0:0:0:0:
475,192,17332,1,0,0:0:0:0:
109,192,17332,1,0,0:0:0:0:
36,192,17332,1,0,0:0:0:0:
182,192,17332,1,0,0:0:0:0:
36,192,17520,1,0,0:0:0:0:
109,192,17520,1,0,0:0:0:0:
256,192,17520,1,0,0:0:0:0:
402,192,17520,1,0,0:0:0:0:
475,192,17520,1,0,0:0:0:0:
182,192,17613,1,0,0:0:0:0:
329,192,17613,1,0,0:0:0:0:
402,192,17707,1,0,0:0:0:0:
109,192,17707,1,0,0:0:0:0:
329,192,17801,1,0,0:0:0:0:
36,192,17801,1,0,0:0:0:0:
182,192,17895,1,0,0:0:0:0:
475,192,17895,1,0,0:0:0:0:
329,192,17988,1,0,0:0:0:0:
109,192,17988,1,0,0:0:0:0:
182,192,18082,1,0,0:0:0:0:
402,192,18082,1,0,0:0:0:0:
329,192,18176,1,0,0:0:0:0:
36,192,18176,1,0,0:0:0:0:
182,192,18270,1,0,0:0:0:0:
475,192,18270,1,0,0:0:0:0:
329,192,18363,1,0,0:0:0:0:
109,192,18363,1,0,0:0:0:0:
182,192,18457,1,0,0:0:0:0:
402,192,18457,1,0,0:0:0:0:
329,192,18551,1,0,0:0:0:0:
36,192,18551,1,0,0:0:0:0:
182,192,18645,1,0,0:0:0:0:
475,192,18645,1,0,0:0:0:0:
402,192,18738,1,0,0:0:0:0:
109,192,18738,1,0,0:0:0:0:
182,192,18832,1,0,0:0:0:0:
329,192,18832,1,0,0:0:0:0:
109,192,18926,1,0,0:0:0:0:
402,192,18926,1,0,0:0:0:0:
475,192,19020,1,0,0:0:0:0:
36,192,19020,1,0,0:0:0:0:
256,192,19020,1,0,0:0:0:0:
402,192,19207,1,0,0:0:0:0:
109,192,19301,1,0,0:0:0:0:
329,192,19395,1,0,0:0:0:0:
402,192,19582,1,0,0:0:0:0:
182,192,19582,1,0,0:0:0:0:
329,192,19770,1,0,0:0:0:0:
36,192,19770,1,0,0:0:0:0:
475,192,19957,1,0,0:0:0:0:
182,192,19957,1,0,0:0:0:0:
329,192,20051,1,0,0:0:0:0:
109,192,20145,1,0,0:0:0:0:
402,192,20332,1,0,0:0:0:0:
182,192,20332,1,0,0:0:0:0:
475,192,20520,128,0,20895:0:0:0:0:
36,192,20520,1,0,0:0:0:0:
182,192,20801,1,0,0:0:0:0:
402,192,20895,128,0,21270:0:0:0:0:
109,192,21082,1,0,0:0:0:0:
329,192,21270,128,0,21551:0:0:0:0:
36,192,21270,1,0,0:0:0:0:
182,192,21457,1,0,0:0:0:0:
402,192,21551,128,0,21832:0:0:0:0:
109,192,21551,1,0,0:0:0:0:
36,192,21645,1,0,0:0:0:0:
256,192,21738,1,0,0:0:0:0:
475,192,21832,128,0,22020:0:0:0:0:
182,192,21832,1,0,0:0:0:0:
109,192,21926,1,0,0:0:0:0:
36,192,22020,1,0,0:0:0:0:
402,192,22020,1,0,0:0:0:0:
182,192,22207,1,0,0:0:0:0:
329,192,22301,1,0,0:0:0:0:
36,192,22395,1,0,0:0:0:0:
109,192,22582,1,0,0:0:0:0:
402,192,22582,1,0,0:0:0:0:
182,192,22770,1,0,0:0:0:0:
36,192,22957,1,0,0:0:0:0:
475,192,22957,1,0,0:0:0:0:
182,192,23051,1,0,0:0:0:0:
329,192,23145,1,0,0:0:0:0:
36,192,23332,1,0,0:0:0:0:
402,192,23332,1,0,0:0:0:0:
182,192,23520,128,0,23895:0:0:0:0:
475,192,23520,1,0,0:0:0:0:
402,192,23801,1,0,0:0:0:0:
109,192,23895,128,0,24270:0:0:0:0:
329,192,24082,1,0,0:0:0:0:
36,192,24270,128,0,24551:0:0:0:0:
402,192,24457,1,0,0:0:0:0:
182,192,24551,128,0,24832:0:0:0:0:
329,192,24551,1,0,0:0:0:0:
475,192,24645,1,0,0:0:0:0:
402,192,24738,1,0,0:0:0:0:
109,192,24832,128,0,25020:0:0:0:0:
329,192,24832,1,0,0:0:0:0:
402,192,24926,1,0,0:0:0:0:
475,192,25020,1,0,0:0:0:0:
36,192,25020,1,0,0:0:0:0:
329,192,25207,1,0,0:0:0:0:
109,192,25301,1,0,0:0:0:0:
329,192,25582,1,0,0:0:0:0:
182,192,25582,1,0,0:0:0:0:
402,192,25770,1,0,0:0:0:0:
329,192,25957,1,0,0:0:0:0:
109,192,25957,1,0,0:0:0:0:
475,192,26051,1,0,0:0:0:0:
36,192,26145,1,0,0:0:0:0:
402,192,26332,1,0,0:0:0:0:
182,192,26332,1,0,0:0:0:0:
329,192,26520,1,0,0:0:0:0:
109,192,26520,1,0,0:0:0:0:
402,192,26707,1,0,0:0:0:0:
109,192,26801,1,0,0:0:0:0:
475,192,26895,1,0,0:0:0:0:
475,192,27082,1,0,0:0:0:0:
182,192,27082,1,0,0:0:0:0:
329,192,27176,1,0,0:0:0:0:
329,192,27457,1,0,0:0:0:0:
109,192,27457,1,0,0:0:0:0:
182,192,27645,1,0,0:0:0:0:
402,192,27645,1,0,0:0:0:0:
36,192,27832,1,0,0:0:0:0:
329,192,27832,1,0,0:0:0:0:
182,192,28020,1,0,0:0:0:0:
475,192,28020,1,0,0:0:0:0:
109,192,28301,1,0,0:0:0:0:
402,192,28301,1,0,0:0:0:0:
36,192,28582,1,0,0:0:0:0:
329,192,28582,1,0,0:0:0:0:
182,192,28957,1,0,0:0:0:0:
402,192,28957,1,0,0:0:0:0:
329,192,29145,1,0,0:0:0:0:
109,192,29145,1,0,0:0:0:0:
182,192,29332,1,0,0:0:0:0:
329,192,29332,1,0,0:0:0:0:
329,192,29426,1,0,0:0:0:0:
182,192,29426,1,0,0:0:0:0:
109,192,29520,1,0,0:0:0:0:
36,192,29520,1,0,0:0:0:0:
256,192,29520,1,0,0:0:0:0:
402,192,29520,1,0,0:0:0:0:
475,192,29520,1,0,0:0:0:0:
109,192,29801,1,0,0:0:0:0:
182,192,29801,1,0,0:0:0:0:
256,192,29801,1,0,0:0:0:0:
329,192,29801,1,0,0:0:0:0:
402,192,29801,1,0,0:0:0:0:
36,192,30082,1,0,0:0:0:0:
109,192,30082,1,0,0:0:0:0:
182,192,30082,1,0,0:0:0:0:
329,192,30082,1,0,0:0:0:0:
475,192,30082,1,0,0:0:0:0:
182,192,30457,128,0,30645:0:0:0:0:
329,192,30457,128,0,30645:0:0:0:0:
109,192,30645,1,0,0:0:0:0:
402,192,30645,1,0,0:0:0:0:
329,192,30832,128,0,31020:0:0:0:0:
182,192,30832,128,0,31020:0:0:0:0:
36,192,31020,1,0,0:0:0:0:
109,192,31020,1,0,0:0:0:0:
256,192,31020,1,0,0:0:0:0:
402,192,31020,1,0,0:0:0:0:
475,192,31020,1,0,0:0:0:0:
182,192,31113,1,0,0:0:0:0:
329,192,31207,1,0,0:0:0:0:
109,192,31207,1,0,0:0:0:0:
256,192,31301,1,0,0:0:0:0:
182,192,31395,1,0,0:0:0:0:
36,192,31395,1,0,0:0:0:0:
402,192,31395,1,0,0:0:0:0:
475,192,31395,1,0,0:0:0:0:
256,192,31488,1,0,0:0:0:0:
329,192,31582,1,0,0:0:0:0:
36,192,31582,1,0,0:0:0:0:
182,192,31676,1,0,0:0:0:0:
109,192,31770,1,0,0:0:0:0:
402,192,31770,1,0,0:0:0:0:
475,192,31770,1,0,0:0:0:0:
329,192,31863,1,0,0:0:0:0:
109,192,31957,1,0,0:0:0:0:
256,192,31957,1,0,0:0:0:0:
182,192,32051,1,0,0:0:0:0:
329,192,32051,1,0,0:0:0:0:
256,192,32145,1,0,0:0:0:0:
402,192,32145,1,0,0:0:0:0:
475,192,32145,1,0,0:0:0:0:
36,192,32145,1,0,0:0:0:0:
182,192,32238,1,0,0:0:0:0:
109,192,32332,1,0,0:0:0:0:
329,192,32332,1,0,0:0:0:0:
256,192,32426,1,0,0:0:0:0:
182,192,32520,1,0,0:0:0:0:
36,192,32520,1,0,0:0:0:0:
402,192,32520,1,0,0:0:0:0:
475,192,32613,1,0,0:0:0:0:
329,192,32707,1,0,0:0:0:0:
182,192,32707,1,0,0:0:0:0:
109,192,32801,1,0,0:0:0:0:
36,192,32895,1,0,0:0:0:0:
256,192,32895,1,0,0:0:0:0:
402,192,32895,1,0,0:0:0:0:
475,192,32895,1,0,0:0:0:0:
182,192,32988,1,0,0:0:0:0:
109,192,33082,1,0,0:0:0:0:
329,192,33082,1,0,0:0:0:0:
256,192,33176,1,0,0:0:0:0:
182,192,33270,1,0,0:0:0:0:
402,192,33270,1,0,0:0:0:0:
36,192,33270,1,0,0:0:0:0:
329,192,33363,1,0,0:0:0:0:
256,192,33457,1,0,0:0:0:0:
475,192,33457,1,0,0:0:0:0:
182,192,33551,1,0,0:0:0:0:
402,192,33551,1,0,0:0:0:0:
109,192,33645,1,0,0:0:0:0:
36,192,33645,1,0,0:0:0:0:
329,192,33645,128,0,33738:0:0:0:0:
475,192,33645,1,0,0:0:0:0:
256,192,33738,128,0,33832:0:0:0:0:
182,192,33832,128,0,33926:0:0:0:0:
402,192,33832,1,0,0:0:0:0:
109,192,33926,128,0,34020:0:0:0:0:
36,192,34020,1,0,0:0:0:0:
329,192,34020,1,0,0:0:0:0:
475,192,34020,1,0,0:0:0:0:
256,192,34113,1,0,0:0:0:0:
182,192,34207,1,0,0:0:0:0:
402,192,34207,1,0,0:0:0:0:
256,192,34301,1,0,0:0:0:0:
109,192,34395,1,0,0:0:0:0:
329,192,34395,1,0,0:0:0:0:
475,192,34395,1,0,0:0:0:0:
36,192,34395,1,0,0:0:0:0:
182,192,34488,1,0,0:0:0:0:
256,192,34582,1,0,0:0:0:0:
109,192,34582,1,0,0:0:0:0:
329,192,34676,1,0,0:0:0:0:
182,192,34770,1,0,0:0:0:0:
36,192,34770,1,0,0:0:0:0:
402,192,34770,1,0,0:0:0:0:
329,192,34863,1,0,0:0:0:0:
109,192,34957,1,0,0:0:0:0:
256,192,34957,1,0,0:0:0:0:
182,192,35051,1,0,0:0:0:0:
329,192,35051,1,0,0:0:0:0:
36,192,35145,1,0,0:0:0:0:
109,192,35145,1,0,0:0:0:0:
475,192,35145,1,0,0:0:0:0:
402,192,35145,1,0,0:0:0:0:
182,192,35238,1,0,0:0:0:0:
256,192,35332,1,0,0:0:0:0:
402,192,35332,1,0,0:0:0:0:
329,192,35426,1,0,0:0:0:0:
475,192,35520,1,0,0:0:0:0:
36,192,35520,1,0,0:0:0:0:
182,192,35520,1,0,0:0:0:0:
256,192,35613,1,0,0:0:0:0:
329,192,35707,1,0,0:0:0:0:
109,192,35707,1,0,0:0:0:0:
182,192,35801,1,0,0:0:0:0:
256,192,35895,1,0,0:0:0:0:
402,192,35895,1,0,0:0:0:0:
475,192,35895,1,0,0:0:0:0:
36,192,35895,1,0,0:0:0:0:
329,192,35988,1,0,0:0:0:0:
109,192,36082,1,0,0:0:0:0:
402,192,36082,1,0,0:0:0:0:
182,192,36176,1,0,0:0:0:0:
329,192,36270,1,0,0:0:0:0:
475,192,36270,1,0,0:0:0:0:
36,192,36270,1,0,0:0:0:0:
256,192,36363,1,0,0:0:0:0:
182,192,36457,1,0,0:0:0:0:
109,192,36551,1,0,0:0:0:0:
329,192,36551,1,0,0:0:0:0:
36,192,36645,1,0,0:0:0:0:
256,192,36645,1,0,0:0:0:0:
402,192,36645,1,0,0:0:0:0:
475,192,36645,1,0,0:0:0:0:
182,192,36738,1,0,0:0:0:0:
109,192,36832,1,0,0:0:0:0:
402,192,36832,1,0,0:0:0:0:
329,192,36926,1,0,0:0:0:0:
182,192,37020,1,0,0:0:0:0:
256,192,37020,1,0,0:0:0:0:
36,192,37020,1,0,0:0:0:0:
475,192,37020,1,0,0:0:0:0:
329,192,37113,1,0,0:0:0:0:
402,192,37207,1,0,0:0:0:0:
109,192,37207,1,0,0:0:0:0:
182,192,37301,1,0,0:0:0:0:
256,192,37395,1,0,0:0:0:0:
402,192,37395,1,0,0:0:0:0:
36,192,37395,1,0,0:0:0:0:
475,192,37395,1,0,0:0:0:0:
182,192,37488,1,0,0:0:0:0:
109,192,37582,1,0,0:0:0:0:
329,192,37582,1,0,0:0:0:0:
256,192,37676,1,0,0:0:0:0:
182,192,37770,1,0,0:0:0:0:
36,192,37770,1,0,0:0:0:0:
402,192,37770,1,0,0:0:0:0:
329,192,37863,1,0,0:0:0:0:
109,192,37957,1,0,0:0:0:0:
182,192,37957,1,0,0:0:0:0:
329,192,38051,1,0,0:0:0:0:
402,192,38051,1,0,0:0:0:0:
256,192,38145,1,0,0:0:0:0:
36,192,38145,1,0,0:0:0:0:
109,192,38145,1,0,0:0:0:0:
475,192,38145,1,0,0:0:0:0:
329,192,38238,1,0,0:0:0:0:
182,192,38332,1,0,0:0:0:0:
402,192,38332,1,0,0:0:0:0:
109,192,38426,1,0,0:0:0:0:
36,192,38520,1,0,0:0:0:0:
256,192,38520,1,0,0:0:0:0:
475,192,38520,1,0,0:0:0:0:
182,192,38613,1,0,0:0:0:0:
109,192,38707,1,0,0:0:0:0:
402,192,38707,1,0,0:0:0:0:
329,192,38801,1,0,0:0:0:0:
256,192,38895,1,0,0:0:0:0:
36,192,38895,1,0,0:0:0:0:
182,192,38895,1,0,0:0:0:0:
475,192,38895,1,0,0:0:0:0:
402,192,38988,1,0,0:0:0:0:
109,192,39082,1,0,0:0:0:0:
182,192,39082,1,0,0:0:0:0:
329,192,39176,1,0,0:0:0:0:
402,192,39176,1,0,0:0:0:0:
256,192,39270,1,0,0:0:0:0:
36,192,39270,1,0,0:0:0:0:
475,192,39270,1,0,0:0:0:0:
182,192,39363,1,0,0:0:0:0:
329,192,39457,1,0,0:0:0:0:
36,192,39457,1,0,0:0:0:0:
256,192,39551,1,0,0:0:0:0:
475,192,39645,1,0,0:0:0:0:
109,192,39645,1,0,0:0:0:0:
182,192,39645,1,0,0:0:0:0:
402,192,39645,1,0,0:0:0:0:
329,192,39738,1,0,0:0:0:0:
36,192,39832,1,0,0:0:0:0:
182,192,39832,1,0,0:0:0:0:
256,192,39926,1,0,0:0:0:0:
109,192,40020,1,0,0:0:0:0:
329,192,40020,1,0,0:0:0:0:
475,192,40020,1,0,0:0:0:0:
256,192,40113,1,0,0:0:0:0:
182,192,40207,1,0,0:0:0:0:
329,192,40301,1,0,0:0:0:0:
109,192,40301,1,0,0:0:0:0:
36,192,40395,1,0,0:0:0:0:
256,192,40395,1,0,0:0:0:0:
402,192,40395,1,0,0:0:0:0:
475,192,40395,1,0,0:0:0:0:
182,192,40488,1,0,0:0:0:0:
109,192,40582,1,0,0:0:0:0:
402,192,40582,1,0,0:0:0:0:
329,192,40676,1,0,0:0:0:0:
256,192,40770,1,0,0:0:0:0:
36,192,40770,1,0,0:0:0:0:
475,192,40770,1,0,0:0:0:0:
182,192,40863,1,0,0:0:0:0:
109,192,40957,1,0,0:0:0:0:
402,192,40957,1,0,0:0:0:0:
256,192,41051,1,0,0:0:0:0:
182,192,41145,1,0,0:0:0:0:
36,192,41145,1,0,0:0:0:0:
329,192,41145,1,0,0:0:0:0:
475,192,41145,1,0,0:0:0:0:
402,192,41238,1,0,0:0:0:0:
329,192,41332,1,0,0:0:0:0:
182,192,41332,1,0,0:0:0:0:
109,192,41426,1,0,0:0:0:0:
36,192,41520,1,0,0:0:0:0:
256,192,41520,1,0,0:0:0:0:
475,192,41520,1,0,0:0:0:0:
329,192,41613,1,0,0:0:0:0:
182,192,41707,1,0,0:0:0:0:
402,192,41707,1,0,0:0:0:0:
109,192,41801,1,0,0:0:0:0:
329,192,41801,1,0,0:0:0:0:
256,192,41895,5,0,0:0:0:0:
402,192,41895,1,0,0:0:0:0:
475,192,41895,1,0,0:0:0:0:
36,192,41895,1,0,0:0:0:0:
182,192,41988,1,0,0:0:0:0:
109,192,42082,1,0,0:0:0:0:
402,192,42082,1,0,0:0:0:0:
329,192,42176,1,0,0:0:0:0:
36,192,42270,128,0,42363:0:0:0:0:
109,192,42270,128,0,42363:0:0:0:0:
256,192,42270,1,0,0:0:0:0:
182,192,42363,1,0,0:0:0:0:
475,192,42457,128,0,42551:0:0:0:0:
402,192,42457,128,0,42551:0:0:0:0:
329,192,42457,1,0,0:0:0:0:
256,192,42551,1,0,0:0:0:0:
36,192,42645,1,0,0:0:0:0:
182,192,42645,1,0,0:0:0:0:
402,192,42645,1,0,0:0:0:0:
109,192,42645,1,0,0:0:0:0:
329,192,42738,1,0,0:0:0:0:
475,192,42738,1,0,0:0:0:0:
36,192,42832,1,0,0:0:0:0:
109,192,42832,1,0,0:0:0:0:
402,192,42926,1,0,0:0:0:0:
475,192,42926,1,0,0:0:0:0:
329,192,43020,128,0,43582:0:0:0:0:
182,192,43020,128,0,43770:0:0:0:0:
36,192,43020,1,0,0:0:0:0:
109,192,43020,1,0,0:0:0:0:
256,192,43020,1,0,0:0:0:0:
475,192,43582,128,0,43676:0:0:0:0:
402,192,43676,128,0,43770:0:0:0:0:
329,192,43770,128,0,44145:0:0:0:0:
36,192,43770,128,0,44520:0:0:0:0:
182,192,44145,128,0,44520:0:0:0:0:
329,192,44520,128,0,45270:0:0:0:0:
109,192,44520,1,0,0:0:0:0:
402,192,44520,1,0,0:0:0:0:
475,192,44520,128,0,45082:0:0:0:0:
36,192,45082,128,0,45176:0:0:0:0:
109,192,45176,128,0,45270:0:0:0:0:
182,192,45270,128,0,46020:0:0:0:0:
402,192,45270,128,0,46020:0:0:0:0:
256,192,45645,128,0,46020:0:0:0:0:
475,192,46020,128,0,46582:0:0:0:0:
36,192,46020,128,0,46301:0:0:0:0:
109,192,46020,1,0,0:0:0:0:
329,192,46020,1,0,0:0:0:0:
329,192,46301,128,0,46582:0:0:0:0:
109,192,46301,128,0,46770:0:0:0:0:
182,192,46582,128,0,46770:0:0:0:0:
402,192,46582,128,0,47051:0:0:0:0:
36,192,46770,128,0,47332:0:0:0:0:
329,192,46770,128,0,47051:0:0:0:0:
182,192,47051,128,0,47332:0:0:0:0:
475,192,47051,128,0,47332:0:0:0:0:
329,192,47332,128,0,47520:0:0:0:0:
109,192,47332,128,0,47520:0:0:0:0:
256,192,47520,128,0,49020:0:0:0:0:
36,192,47520,1,0,0:0:0:0:
182,192,47520,1,0,0:0:0:0:
402,192,47520,1,0,0:0:0:0:
475,192,47520,1,0,0:0:0:0:
329,192,49020,128,0,49770:0:0:0:0:
182,192,49020,128,0,49582:0:0:0:0:
36,192,49020,1,0,0:0:0:0:
109,192,49020,1,0,0:0:0:0:
402,192,49020,1,0,0:0:0:0:
475,192,49020,1,0,0:0:0:0:
36,192,49582,128,0,49676:0:0:0:0:
109,192,49676,128,0,49770:0:0:0:0:
182,192,49770,128,0,50520:0:0:0:0:
475,192,49770,128,0,50520:0:0:0:0:
36,192,50145,128,0,50520:0:0:0:0:
256,192,50145,128,0,50520:0:0:0:0:
329,192,50520,128,0,51082:0:0:0:0:
109,192,50520,128,0,51270:0:0:0:0:
402,192,50520,1,0,0:0:0:0:
475,192,51082,128,0,51176:0:0:0:0:
402,192,51176,128,0,51270:0:0:0:0:
329,192,51270,128,0,52020:0:0:0:0:
36,192,51270,128,0,52020:0:0:0:0:
182,192,52020,128,0,52582:0:0:0:0:
402,192,52020,128,0,52582:0:0:0:0:
109,192,52020,1,0,0:0:0:0:
256,192,52020,1,0,0:0:0:0:
475,192,52020,1,0,0:0:0:0:
109,192,52301,128,0,52582:0:0:0:0:
475,192,52301,128,0,52582:0:0:0:0:
36,192,52582,128,0,53051:0:0:0:0:
256,192,52582,128,0,53051:0:0:0:0:
329,192,52770,128,0,53051:0:0:0:0:
109,192,52770,128,0,53051:0:0:0:0:
182,192,53051,128,0,53332:0:0:0:0:
402,192,53051,128,0,53332:0:0:0:0:
329,192,53332,128,0,53520:0:0:0:0:
109,192,53332,128,0,53520:0:0:0:0:
256,192,53520,128,0,55020:0:0:0:0:
36,192,53520,1,0,0:0:0:0:
182,192,53520,1,0,0:0:0:0:
402,192,53520,1,0,0:0:0:0:
475,192,53520,1,0,0:0:0:0:
182,192,55020,1,0,0:0:0:0:
109,192,55020,1,0,0:0:0:0:
329,192,55207,1,0,0:0:0:0:
182,192,55301,1,0,0:0:0:0:
402,192,55488,1,0,0:0:0:0:
256,192,55582,1,0,0:0:0:0:
329,192,55770,1,0,0:0:0:0:
182,192,55863,1,0,0:0:0:0:
36,192,55957,1,0,0:0:0:0:
109,192,55957,1,0,0:0:0:0:
402,192,55957,1,0,0:0:0:0:
475,192,55957,1,0,0:0:0:0:
109,192,56145,1,0,0:0:0:0:
36,192,56145,1,0,0:0:0:0:
402,192,56145,1,0,0:0:0:0:
475,192,56145,1,0,0:0:0:0:
329,192,56191,1,0,0:0:0:0:
256,192,56238,1,0,0:0:0:0:
182,192,56285,1,0,0:0:0:0:
109,192,56332,1,0,0:0:0:0:
402,192,56332,1,0,0:0:0:0:
329,192,56379,1,0,0:0:0:0:
256,192,56426,1,0,0:0:0:0:
182,192,56473,1,0,0:0:0:0:
109,192,56520,1,0,0:0:0:0:
36,192,56520,1,0,0:0:0:0:
475,192,56520,1,0,0:0:0:0:
402,192,56520,1,0,0:0:0:0:
329,192,56613,1,0,0:0:0:0:
109,192,56707,1,0,0:0:0:0:
36,192,56707,1,0,0:0:0:0:
182,192,56801,1,0,0:0:0:0:
256,192,56801,1,0,0:0:0:0:
402,192,56801,1,0,0:0:0:0:
36,192,56895,1,0,0:0:0:0:
109,192,56895,1,0,0:0:0:0:
329,192,56895,1,0,0:0:0:0:
475,192,56895,1,0,0:0:0:0:
256,192,56988,1,0,0:0:0:0:
182,192,57082,1,0,0:0:0:0:
329,192,57082,1,0,0:0:0:0:
402,192,57082,1,0,0:0:0:0:
36,192,57082,1,0,0:0:0:0:
256,192,57176,1,0,0:0:0:0:
182,192,57270,1,0,0:0:0:0:
109,192,57270,1,0,0:0:0:0:
475,192,57270,1,0,0:0:0:0:
329,192,57363,1,0,0:0:0:0:
36,192,57457,128,0,57645:0:0:0:0:
256,192,57457,1,0,0:0:0:0:
402,192,57457,1,0,0:0:0:0:
329,192,57551,1,0,0:0:0:0:
182,192,57645,128,0,57832:0:0:0:0:
109,192,57645,1,0,0:0:0:0:
475,192,57645,1,0,0:0:0:0:
402,192,57645,1,0,0:0:0:0:
256,192,57738,1,0,0:0:0:0:
329,192,57832,128,0,58020:0:0:0:0:
109,192,57832,1,0,0:0:0:0:
36,192,57832,1,0,0:0:0:0:
402,192,57832,1,0,0:0:0:0:
182,192,57926,1,0,0:0:0:0:
109,192,58020,1,0,0:0:0:0:
36,192,58020,1,0,0:0:0:0:
256,192,58020,1,0,0:0:0:0:
402,192,58020,1,0,0:0:0:0:
182,192,58113,1,0,0:0:0:0:
256,192,58207,1,0,0:0:0:0:
402,192,58207,1,0,0:0:0:0:
109,192,58301,1,0,0:0:0:0:
182,192,58301,1,0,0:0:0:0:
329,192,58301,1,0,0:0:0:0:
475,192,58301,1,0,0:0:0:0:
36,192,58395,1,0,0:0:0:0:
256,192,58395,1,0,0:0:0:0:
402,192,58395,1,0,0:0:0:0:
182,192,58488,1,0,0:0:0:0:
109,192,58582,1,0,0:0:0:0:
329,192,58582,1,0,0:0:0:0:
402,192,58582,1,0,0:0:0:0:
475,192,58582,1,0,0:0:0:0:
256,192,58676,1,0,0:0:0:0:
36,192,58770,1,0,0:0:0:0:
182,192,58770,1,0,0:0:0:0:
475,192,58770,1,0,0:0:0:0:
329,192,58863,1,0,0:0:0:0:
109,192,58957,1,0,0:0:0:0:
182,192,58957,1,0,0:0:0:0:
402,192,58957,1,0,0:0:0:0:
256,192,59051,1,0,0:0:0:0:
329,192,59145,1,0,0:0:0:0:
475,192,59145,1,0,0:0:0:0:
109,192,59145,1,0,0:0:0:0:
36,192,59145,1,0,0:0:0:0:
182,192,59238,1,0,0:0:0:0:
402,192,59332,1,0,0:0:0:0:
109,192,59332,1,0,0:0:0:0:
329,192,59332,1,0,0:0:0:0:
256,192,59426,1,0,0:0:0:0:
182,192,59520,1,0,0:0:0:0:
36,192,59520,1,0,0:0:0:0:
475,192,59520,1,0,0:0:0:0:
329,192,59613,1,0,0:0:0:0:
109,192,59707,1,0,0:0:0:0:
182,192,59707,1,0,0:0:0:0:
36,192,59707,1,0,0:0:0:0:
109,192,59801,1,0,0:0:0:0:
182,192,59801,1,0,0:0:0:0:
36,192,59801,1,0,0:0:0:0:
256,192,59895,1,0,0:0:0:0:
402,192,59895,1,0,0:0:0:0:
475,192,59895,1,0,0:0:0:0:
329,192,59895,1,0,0:0:0:0:
182,192,59988,1,0,0:0:0:0:
109,192,60082,1,0,0:0:0:0:
329,192,60082,1,0,0:0:0:0:
475,192,60082,1,0,0:0:0:0:
256,192,60176,1,0,0:0:0:0:
182,192,60270,1,0,0:0:0:0:
36,192,60270,1,0,0:0:0:0:
402,192,60270,1,0,0:0:0:0:
475,192,60270,1,0,0:0:0:0:
329,192,60363,1,0,0:0:0:0:
256,192,60457,1,0,0:0:0:0:
109,192,60457,1,0,0:0:0:0:
182,192,60551,1,0,0:0:0:0:
329,192,60551,1,0,0:0:0:0:
402,192,60551,1,0,0:0:0:0:
256,192,60645,1,0,0:0:0:0:
109,192,60645,1,0,0:0:0:0:
36,192,60645,1,0,0:0:0:0:
475,192,60645,1,0,0:0:0:0:
329,192,60738,1,0,0:0:0:0:
402,192,60832,1,0,0:0:0:0:
182,192,60832,1,0,0:0:0:0:
109,192,60832,1,0,0:0:0:0:
256,192,60926,1,0,0:0:0:0:
36,192,61020,1,0,0:0:0:0:
329,192,61020,1,0,0:0:0:0:
475,192,61020,1,0,0:0:0:0:
109,192,61020,1,0,0:0:0:0:
256,192,61113,1,0,0:0:0:0:
182,192,61207,1,0,0:0:0:0:
402,192,61207,1,0,0:0:0:0:
109,192,61301,1,0,0:0:0:0:
256,192,61301,1,0,0:0:0:0:
36,192,61301,1,0,0:0:0:0:
182,192,61395,1,0,0:0:0:0:
329,192,61395,1,0,0:0:0:0:
402,192,61395,1,0,0:0:0:0:
475,192,61395,1,0,0:0:0:0:
36,192,61488,1,0,0:0:0:0:
109,192,61582,1,0,0:0:0:0:
329,192,61582,1,0,0:0:0:0:
402,192,61582,1,0,0:0:0:0:
182,192,61676,1,0,0:0:0:0:
256,192,61770,1,0,0:0:0:0:
402,192,61770,1,0,0:0:0:0:
475,192,61770,1,0,0:0:0:0:
36,192,61770,1,0,0:0:0:0:
182,192,61863,1,0,0:0:0:0:
109,192,61957,1,0,0:0:0:0:
329,192,61957,1,0,0:0:0:0:
402,192,62051,1,0,0:0:0:0:
256,192,62145,1,0,0:0:0:0:
475,192,62145,1,0,0:0:0:0:
109,192,62145,1,0,0:0:0:0:
36,192,62145,1,0,0:0:0:0:
182,192,62238,1,0,0:0:0:0:
256,192,62332,1,0,0:0:0:0:
402,192,62332,1,0,0:0:0:0:
329,192,62426,1,0,0:0:0:0:
182,192,62426,1,0,0:0:0:0:
256,192,62520,1,0,0:0:0:0:
109,192,62520,1,0,0:0:0:0:
36,192,62520,1,0,0:0:0:0:
475,192,62520,1,0,0:0:0:0:
402,192,62613,1,0,0:0:0:0:
329,192,62707,1,0,0:0:0:0:
109,192,62707,1,0,0:0:0:0:
182,192,62707,1,0,0:0:0:0:
256,192,62801,1,0,0:0:0:0:
182,192,62895,1,0,0:0:0:0:
36,192,62895,1,0,0:0:0:0:
402,192,62895,1,0,0:0:0:0:
475,192,62895,128,0,63270:0:0:0:0:
329,192,62988,1,0,0:0:0:0:
256,192,63082,1,0,0:0:0:0:
109,192,63082,1,0,0:0:0:0:
182,192,63176,1,0,0:0:0:0:
256,192,63270,1,0,0:0:0:0:
402,192,63270,1,0,0:0:0:0:
36,192,63270,1,0,0:0:0:0:
182,192,63363,1,0,0:0:0:0:
109,192,63457,1,0,0:0:0:0:
329,192,63457,1,0,0:0:0:0:
36,192,63457,1,0,0:0:0:0:
256,192,63551,1,0,0:0:0:0:
182,192,63645,1,0,0:0:0:0:
36,192,63645,1,0,0:0:0:0:
402,192,63645,1,0,0:0:0:0:
475,192,63645,1,0,0:0:0:0:
256,192,63738,1,0,0:0:0:0:
182,192,63832,1,0,0:0:0:0:
329,192,63926,1,0,0:0:0:0:
109,192,63926,1,0,0:0:0:0:
36,192,64020,128,0,64395:0:0:0:0:
256,192,64020,1,0,0:0:0:0:
475,192,64020,1,0,0:0:0:0:
402,192,64113,1,0,0:0:0:0:
329,192,64207,1,0,0:0:0:0:
182,192,64207,1,0,0:0:0:0:
256,192,64301,1,0,0:0:0:0:
109,192,64395,128,0,64770:0:0:0:0:
329,192,64395,1,0,0:0:0:0:
475,192,64395,1,0,0:0:0:0:
402,192,64395,1,0,0:0:0:0:
182,192,64488,1,0,0:0:0:0:
256,192,64582,1,0,0:0:0:0:
402,192,64582,1,0,0:0:0:0:
329,192,64676,1,0,0:0:0:0:
182,192,64770,128,0,65145:0:0:0:0:
402,192,64770,1,0,0:0:0:0:
475,192,64770,1,0,0:0:0:0:
36,192,64770,1,0,0:0:0:0:
256,192,64863,1,0,0:0:0:0:
329,192,64957,1,0,0:0:0:0:
475,192,64957,1,0,0:0:0:0:
402,192,65051,1,0,0:0:0:0:
36,192,65145,128,0,65520:0:0:0:0:
475,192,65145,1,0,0:0:0:0:
256,192,65145,1,0,0:0:0:0:
109,192,65145,1,0,0:0:0:0:
329,192,65238,1,0,0:0:0:0:
402,192,65332,1,0,0:0:0:0:
182,192,65332,1,0,0:0:0:0:
475,192,65426,1,0,0:0:0:0:
256,192,65520,128,0,65895:0:0:0:0:
109,192,65520,1,0,0:0:0:0:
182,192,65520,1,0,0:0:0:0:
329,192,65520,1,0,0:0:0:0:
402,192,65613,1,0,0:0:0:0:
109,192,65707,1,0,0:0:0:0:
36,192,65707,1,0,0:0:0:0:
182,192,65801,1,0,0:0:0:0:
109,192,65895,1,0,0:0:0:0:
36,192,65895,1,0,0:0:0:0:
329,192,65895,1,0,0:0:0:0:
475,192,65895,1,0,0:0:0:0:
182,192,65988,1,0,0:0:0:0:
256,192,66082,1,0,0:0:0:0:
402,192,66082,1,0,0:0:0:0:
109,192,66082,1,0,0:0:0:0:
182,192,66176,1,0,0:0:0:0:
36,192,66270,1,0,0:0:0:0:
329,192,66270,1,0,0:0:0:0:
475,192,66270,1,0,0:0:0:0:
256,192,66363,1,0,0:0:0:0:
182,192,66457,1,0,0:0:0:0:
402,192,66457,1,0,0:0:0:0:
329,192,66551,1,0,0:0:0:0:
109,192,66551,1,0,0:0:0:0:
256,192,66551,1,0,0:0:0:0:
182,192,66645,1,0,0:0:0:0:
402,192,66645,1,0,0:0:0:0:
475,192,66645,1,0,0:0:0:0:
36,192,66645,1,0,0:0:0:0:
256,192,66738,1,0,0:0:0:0:
182,192,66832,1,0,0:0:0:0:
329,192,66832,1,0,0:0:0:0:
329,192,66926,1,0,0:0:0:0:
182,192,66926,1,0,0:0:0:0:
109,192,67020,1,0,0:0:0:0:
36,192,67020,1,0,0:0:0:0:
475,192,67020,1,0,0:0:0:0:
402,192,67020,1,0,0:0:0:0:
256,192,67020,1,0,0:0:0:0:
109,192,67301,1,0,0:0:0:0:
182,192,67301,1,0,0:0:0:0:
256,192,67301,1,0,0:0:0:0:
329,192,67301,1,0,0:0:0:0:
402,192,67301,1,0,0:0:0:0:
36,192,67582,1,0,0:0:0:0:
109,192,67582,1,0,0:0:0:0:
329,192,67582,1,0,0:0:0:0:
402,192,67582,1,0,0:0:0:0:
475,192,67582,1,0,0:0:0:0:
182,192,67582,1,0,0:0:0:0:
182,192,67957,1,0,0:0:0:0:
329,192,67957,1,0,0:0:0:0:
329,192,68051,1,0,0:0:0:0:
182,192,68051,1,0,0:0:0:0:
36,192,68145,1,0,0:0:0:0:
402,192,68145,1,0,0:0:0:0:
475,192,68145,1,0,0:0:0:0:
109,192,68145,128,0,68238:0:0:0:0:
182,192,68191,128,0,68285:0:0:0:0:
256,192,68238,128,0,68332:0:0:0:0:
329,192,68285,128,0,68379:0:0:0:0:
402,192,68332,128,0,68426:0:0:0:0:
109,192,68332,1,0,0:0:0:0:
182,192,68379,1,0,0:0:0:0:
256,192,68426,1,0,0:0:0:0:
329,192,68473,1,0,0:0:0:0:
36,192,68520,128,0,68613:0:0:0:0:
109,192,68520,128,0,68613:0:0:0:0:
402,192,68520,128,0,68613:0:0:0:0:
475,192,68520,128,0,68613:0:0:0:0:
182,192,68613,128,0,68707:0:0:0:0:
402,192,68707,128,0,68801:0:0:0:0:
329,192,68707,128,0,68801:0:0:0:0:
256,192,68801,128,0,68895:0:0:0:0:
109,192,68801,128,0,68895:0:0:0:0:
36,192,68801,128,0,68895:0:0:0:0:
182,192,68801,128,0,68895:0:0:0:0:
329,192,68895,128,0,68988:0:0:0:0:
402,192,68895,128,0,68988:0:0:0:0:
475,192,68895,128,0,68988:0:0:0:0:
182,192,68988,128,0,69082:0:0:0:0:
256,192,69082,128,0,69176:0:0:0:0:
475,192,69082,128,0,69176:0:0:0:0:
402,192,69082,128,0,69176:0:0:0:0:
329,192,69082,128,0,69176:0:0:0:0:
182,192,69176,128,0,69270:0:0:0:0:
36,192,69270,1,0,0:0:0:0:
109,192,69270,1,0,0:0:0:0:
402,192,69270,1,0,0:0:0:0:
475,192,69270,1,0,0:0:0:0:
329,192,69363,1,0,0:0:0:0:
256,192,69457,1,0,0:0:0:0:
402,192,69457,1,0,0:0:0:0:
36,192,69457,1,0,0:0:0:0:
182,192,69551,1,0,0:0:0:0:
109,192,69645,1,0,0:0:0:0:
36,192,69645,1,0,0:0:0:0:
329,192,69645,1,0,0:0:0:0:
475,192,69645,1,0,0:0:0:0:
256,192,69738,1,0,0:0:0:0:
182,192,69832,1,0,0:0:0:0:
109,192,69832,1,0,0:0:0:0:
402,192,69832,1,0,0:0:0:0:
329,192,69926,1,0,0:0:0:0:
36,192,70020,128,0,70113:0:0:0:0:
109,192,70020,128,0,70113:0:0:0:0:
402,192,70020,128,0,70113:0:0:0:0:
475,192,70020,128,0,70113:0:0:0:0:
329,192,70113,128,0,70207:0:0:0:0:
109,192,70207,128,0,70301:0:0:0:0:
182,192,70207,128,0,70301:0:0:0:0:
402,192,70301,128,0,70395:0:0:0:0:
475,192,70301,128,0,70395:0:0:0:0:
329,192,70301,128,0,70395:0:0:0:0:
256,192,70301,128,0,70395:0:0:0:0:
182,192,70395,128,0,70488:0:0:0:0:
36,192,70395,128,0,70488:0:0:0:0:
109,192,70395,128,0,70488:0:0:0:0:
475,192,70488,128,0,70582:0:0:0:0:
402,192,70488,128,0,70582:0:0:0:0:
109,192,70582,128,0,70676:0:0:0:0:
182,192,70582,128,0,70676:0:0:0:0:
256,192,70582,128,0,70676:0:0:0:0:
36,192,70582,128,0,70676:0:0:0:0:
329,192,70676,1,0,0:0:0:0:
182,192,70770,1,0,0:0:0:0:
36,192,70770,1,0,0:0:0:0:
475,192,70770,1,0,0:0:0:0:
402,192,70770,1,0,0:0:0:0:
329,192,70863,1,0,0:0:0:0:
256,192,70957,1,0,0:0:0:0:
402,192,70957,1,0,0:0:0:0:
109,192,70957,1,0,0:0:0:0:
182,192,71051,1,0,0:0:0:0:
329,192,71145,1,0,0:0:0:0:
256,192,71145,1,0,0:0:0:0:
36,192,71145,1,0,0:0:0:0:
475,192,71145,1,0,0:0:0:0:
182,192,71238,1,0,0:0:0:0:
109,192,71332,1,0,0:0:0:0:
329,192,71332,1,0,0:0:0:0:
402,192,71332,1,0,0:0:0:0:
256,192,71426,1,0,0:0:0:0:
182,192,71520,1,0,0:0:0:0:
36,192,71520,1,0,0:0:0:0:
475,192,71520,1,0,0:0:0:0:
402,192,71520,1,0,0:0:0:0:
109,192,71613,1,0,0:0:0:0:
256,192,71613,1,0,0:0:0:0:
329,192,71707,128,0,71801:0:0:0:0:
402,192,71707,128,0,71801:0:0:0:0:
475,192,71707,128,0,71801:0:0:0:0:
109,192,71801,128,0,71895:0:0:0:0:
36,192,71801,128,0,71895:0:0:0:0:
182,192,71801,128,0,71895:0:0:0:0:
256,192,71895,1,0,0:0:0:0:
329,192,71895,1,0,0:0:0:0:
402,192,71895,1,0,0:0:0:0:
475,192,71895,1,0,0:0:0:0:
182,192,71988,1,0,0:0:0:0:
329,192,72082,128,0,72176:0:0:0:0:
402,192,72082,128,0,72176:0:0:0:0:
475,192,72082,128,0,72176:0:0:0:0:
256,192,72176,1,0,0:0:0:0:
36,192,72270,128,0,72363:0:0:0:0:
182,192,72270,128,0,72363:0:0:0:0:
402,192,72270,128,0,72363:0:0:0:0:
475,192,72270,128,0,72363:0:0:0:0:
329,192,72363,1,0,0:0:0:0:
256,192,72457,1,0,0:0:0:0:
109,192,72457,1,0,0:0:0:0:
36,192,72457,1,0,0:0:0:0:
182,192,72551,128,0,72645:0:0:0:0:
402,192,72551,128,0,72645:0:0:0:0:
475,192,72551,128,0,72645:0:0:0:0:
36,192,72645,1,0,0:0:0:0:
109,192,72645,1,0,0:0:0:0:
256,192,72645,1,0,0:0:0:0:
329,192,72645,1,0,0:0:0:0:
182,192,72738,1,0,0:0:0:0:
475,192,72832,1,0,0:0:0:0:
109,192,72832,128,0,72926:0:0:0:0:
329,192,72832,128,0,72926:0:0:0:0:
402,192,72832,128,0,72926:0:0:0:0:
256,192,72926,1,0,0:0:0:0:
36,192,73020,128,0,73301:0:0:0:0:
402,192,73020,128,0,73113:0:0:0:0:
182,192,73020,128,0,73113:0:0:0:0:
475,192,73020,128,0,73113:0:0:0:0:
329,192,73113,128,0,73207:0:0:0:0:
256,192,73207,128,0,73301:0:0:0:0:
182,192,73207,128,0,73301:0:0:0:0:
109,192,73301,128,0,73582:0:0:0:0:
402,192,73301,128,0,73395:0:0:0:0:
329,192,73395,128,0,73488:0:0:0:0:
256,192,73395,128,0,73488:0:0:0:0:
475,192,73395,128,0,73488:0:0:0:0:
402,192,73488,128,0,73582:0:0:0:0:
182,192,73582,128,0,74145:0:0:0:0:
329,192,73582,128,0,73676:0:0:0:0:
256,192,73582,128,0,73676:0:0:0:0:
402,192,73676,128,0,73770:0:0:0:0:
36,192,73770,128,0,74145:0:0:0:0:
109,192,73770,128,0,73863:0:0:0:0:
256,192,73770,128,0,73863:0:0:0:0:
475,192,73770,128,0,73863:0:0:0:0:
329,192,73863,128,0,73957:0:0:0:0:
402,192,73957,128,0,74051:0:0:0:0:
329,192,74051,128,0,74145:0:0:0:0:
402,192,74145,128,0,74238:0:0:0:0:
109,192,74145,128,0,74238:0:0:0:0:
256,192,74145,128,0,74238:0:0:0:0:
475,192,74145,128,0,74238:0:0:0:0:
182,192,74238,128,0,74332:0:0:0:0:
329,192,74332,128,0,74426:0:0:0:0:
36,192,74332,128,0,74426:0:0:0:0:
109,192,74332,128,0,74426:0:0:0:0:
256,192,74426,128,0,74520:0:0:0:0:
109,192,74520,1,0,0:0:0:0:
36,192,74520,1,0,0:0:0:0:
402,192,74520,1,0,0:0:0:0:
475,192,74520,1,0,0:0:0:0:
182,192,74613,1,0,0:0:0:0:
256,192,74707,1,0,0:0:0:0:
402,192,74707,1,0,0:0:0:0:
36,192,74707,1,0,0:0:0:0:
182,192,74801,1,0,0:0:0:0:
109,192,74895,1,0,0:0:0:0:
36,192,74895,1,0,0:0:0:0:
329,192,74895,1,0,0:0:0:0:
475,192,74895,1,0,0:0:0:0:
256,192,74988,1,0,0:0:0:0:
182,192,75082,1,0,0:0:0:0:
36,192,75082,1,0,0:0:0:0:
109,192,75082,1,0,0:0:0:0:
256,192,75176,1,0,0:0:0:0:
402,192,75176,1,0,0:0:0:0:
475,192,75176,1,0,0:0:0:0:
109,192,75270,1,0,0:0:0:0:
36,192,75270,1,0,0:0:0:0:
182,192,75270,1,0,0:0:0:0:
329,192,75363,1,0,0:0:0:0:
256,192,75457,1,0,0:0:0:0:
402,192,75457,1,0,0:0:0:0:
475,192,75457,1,0,0:0:0:0:
182,192,75551,1,0,0:0:0:0:
109,192,75645,1,0,0:0:0:0:
36,192,75645,1,0,0:0:0:0:
329,192,75645,1,0,0:0:0:0:
475,192,75645,1,0,0:0:0:0:
256,192,75738,1,0,0:0:0:0:
182,192,75832,1,0,0:0:0:0:
109,192,75832,1,0,0:0:0:0:
329,192,75832,1,0,0:0:0:0:
256,192,75926,1,0,0:0:0:0:
402,192,75926,1,0,0:0:0:0:
329,192,76020,1,0,0:0:0:0:
475,192,76020,1,0,0:0:0:0:
36,192,76020,1,0,0:0:0:0:
109,192,76020,1,0,0:0:0:0:
182,192,76113,1,0,0:0:0:0:
256,192,76207,1,0,0:0:0:0:
402,192,76207,1,0,0:0:0:0:
36,192,76207,1,0,0:0:0:0:
182,192,76301,1,0,0:0:0:0:
109,192,76395,1,0,0:0:0:0:
329,192,76395,1,0,0:0:0:0:
475,192,76395,1,0,0:0:0:0:
36,192,76395,1,0,0:0:0:0:
256,192,76488,1,0,0:0:0:0:
182,192,76582,1,0,0:0:0:0:
109,192,76582,1,0,0:0:0:0:
329,192,76582,1,0,0:0:0:0:
256,192,76676,1,0,0:0:0:0:
402,192,76676,1,0,0:0:0:0:
475,192,76676,1,0,0:0:0:0:
182,192,76770,1,0,0:0:0:0:
36,192,76770,1,0,0:0:0:0:
109,192,76770,1,0,0:0:0:0:
329,192,76863,1,0,0:0:0:0:
256,192,76957,1,0,0:0:0:0:
475,192,76957,1,0,0:0:0:0:
109,192,76957,1,0,0:0:0:0:
182,192,77051,1,0,0:0:0:0:
109,192,77145,1,0,0:0:0:0:
36,192,77145,1,0,0:0:0:0:
329,192,77145,1,0,0:0:0:0:
475,192,77145,1,0,0:0:0:0:
256,192,77238,1,0,0:0:0:0:
109,192,77332,1,0,0:0:0:0:
402,192,77332,1,0,0:0:0:0:
182,192,77332,1,0,0:0:0:0:
256,192,77426,1,0,0:0:0:0:
329,192,77426,1,0,0:0:0:0:
182,192,77520,1,0,0:0:0:0:
109,192,77520,1,0,0:0:0:0:
36,192,77520,1,0,0:0:0:0:
402,192,77520,1,0,0:0:0:0:
475,192,77520,1,0,0:0:0:0:
256,192,77613,1,0,0:0:0:0:
329,192,77707,1,0,0:0:0:0:
402,192,77707,1,0,0:0:0:0:
109,192,77707,1,0,0:0:0:0:
36,192,77707,1,0,0:0:0:0:
182,192,77801,1,0,0:0:0:0:
256,192,77895,1,0,0:0:0:0:
475,192,77895,1,0,0:0:0:0:
402,192,77895,1,0,0:0:0:0:
36,192,77895,1,0,0:0:0:0:
109,192,78082,1,0,0:0:0:0:
36,192,78082,1,0,0:0:0:0:
182,192,78082,1,0,0:0:0:0:
329,192,78082,1,0,0:0:0:0:
475,192,78082,1,0,0:0:0:0:
109,192,78457,1,0,0:0:0:0:
182,192,78457,1,0,0:0:0:0:
329,192,78457,1,0,0:0:0:0:
402,192,78457,1,0,0:0:0:0:
475,192,78457,1,0,0:0:0:0:
36,192,78832,1,0,0:0:0:0:
109,192,78832,1,0,0:0:0:0:
256,192,78832,1,0,0:0:0:0:
402,192,78832,1,0,0:0:0:0:
475,192,78832,1,0,0:0:0:0:
182,192,79582,1,0,0:0:0:0:
329,192,79582,1,0,0:0:0:0:
329,192,79676,1,0,0:0:0:0:
182,192,79676,1,0,0:0:0:0:
109,192,79770,1,0,0:0:0:0:
402,192,79770,1,0,0:0:0:0:
182,192,79957,1,0,0:0:0:0:
329,192,79957,1,0,0:0:0:0:
109,192,80145,1,0,0:0:0:0:
182,192,80145,1,0,0:0:0:0:
329,192,80191,1,0,0:0:0:0:
402,192,80191,1,0,0:0:0:0:
109,192,80238,1,0,0:0:0:0:
182,192,80238,1,0,0:0:0:0:
329,192,80332,1,0,0:0:0:0:
402,192,80332,1,0,0:0:0:0:
109,192,80426,1,0,0:0:0:0:
182,192,80426,1,0,0:0:0:0:
36,192,80520,128,0,80613:0:0:0:0:
475,192,80520,128,0,80613:0:0:0:0:
329,192,80520,128,0,80613:0:0:0:0:
256,192,80520,128,0,80613:0:0:0:0:
182,192,80613,128,0,80707:0:0:0:0:
402,192,80613,128,0,80707:0:0:0:0:
329,192,80707,128,0,80801:0:0:0:0:
109,192,80707,128,0,80801:0:0:0:0:
36,192,80801,128,0,80895:0:0:0:0:
256,192,80801,128,0,80895:0:0:0:0:
182,192,80895,128,0,80988:0:0:0:0:
402,192,80895,128,0,80988:0:0:0:0:
475,192,80895,128,0,80988:0:0:0:0:
329,192,80988,128,0,81082:0:0:0:0:
109,192,80988,128,0,81082:0:0:0:0:
36,192,81082,128,0,81176:0:0:0:0:
256,192,81082,128,0,81176:0:0:0:0:
182,192,81176,128,0,81270:0:0:0:0:
402,192,81176,128,0,81270:0:0:0:0:
36,192,81270,128,0,81363:0:0:0:0:
109,192,81270,128,0,81363:0:0:0:0:
329,192,81270,128,0,81363:0:0:0:0:
256,192,81363,128,0,81457:0:0:0:0:
475,192,81363,128,0,81457:0:0:0:0:
402,192,81457,128,0,81551:0:0:0:0:
182,192,81457,128,0,81551:0:0:0:0:
329,192,81551,128,0,81645:0:0:0:0:
109,192,81551,128,0,81645:0:0:0:0:
36,192,81645,128,0,81738:0:0:0:0:
475,192,81645,128,0,81738:0:0:0:0:
256,192,81645,128,0,81738:0:0:0:0:
402,192,81738,128,0,81832:0:0:0:0:
182,192,81738,128,0,81832:0:0:0:0:
329,192,81832,128,0,81926:0:0:0:0:
109,192,81832,128,0,81926:0:0:0:0:
36,192,81832,128,0,81926:0:0:0:0:
256,192,81926,128,0,82020:0:0:0:0:
36,192,82020,128,0,82113:0:0:0:0:
182,192,82020,128,0,82113:0:0:0:0:
475,192,82020,128,0,82113:0:0:0:0:
329,192,82113,128,0,82207:0:0:0:0:
402,192,82113,128,0,82207:0:0:0:0:
256,192,82207,128,0,82301:0:0:0:0:
182,192,82207,128,0,82301:0:0:0:0:
109,192,82301,128,0,82395:0:0:0:0:
36,192,82301,128,0,82395:0:0:0:0:
329,192,82395,128,0,82488:0:0:0:0:
402,192,82395,128,0,82488:0:0:0:0:
475,192,82395,128,0,82488:0:0:0:0:
256,192,82488,128,0,82582:0:0:0:0:
182,192,82488,128,0,82582:0:0:0:0:
109,192,82582,128,0,82676:0:0:0:0:
36,192,82582,128,0,82676:0:0:0:0:
402,192,82676,128,0,82770:0:0:0:0:
475,192,82676,128,0,82770:0:0:0:0:
36,192,82770,1,0,0:0:0:0:
182,192,82770,1,0,0:0:0:0:
256,192,82770,1,0,0:0:0:0:
329,192,82863,1,0,0:0:0:0:
402,192,82863,1,0,0:0:0:0:
475,192,82863,1,0,0:0:0:0:
36,192,82957,1,0,0:0:0:0:
109,192,82957,1,0,0:0:0:0:
182,192,82957,1,0,0:0:0:0:
256,192,83051,1,0,0:0:0:0:
402,192,83051,1,0,0:0:0:0:
475,192,83051,1,0,0:0:0:0:
182,192,83145,1,0,0:0:0:0:
109,192,83145,1,0,0:0:0:0:
36,192,83145,1,0,0:0:0:0:
329,192,83145,1,0,0:0:0:0:
256,192,83238,1,0,0:0:0:0:
402,192,83238,1,0,0:0:0:0:
475,192,83238,1,0,0:0:0:0:
182,192,83332,1,0,0:0:0:0:
36,192,83332,1,0,0:0:0:0:
109,192,83332,1,0,0:0:0:0:
329,192,83426,1,0,0:0:0:0:
402,192,83426,1,0,0:0:0:0:
475,192,83426,1,0,0:0:0:0:
256,192,83520,1,0,0:0:0:0:
182,192,83520,1,0,0:0:0:0:
109,192,83520,1,0,0:0:0:0:
36,192,83520,1,0,0:0:0:0:
109,192,83801,1,0,0:0:0:0:
182,192,83801,1,0,0:0:0:0:
256,192,83801,1,0,0:0:0:0:
329,192,83801,1,0,0:0:0:0:
182,192,84082,1,0,0:0:0:0:
256,192,84082,1,0,0:0:0:0:
329,192,84082,1,0,0:0:0:0:
402,192,84082,1,0,0:0:0:0:
36,192,84270,1,0,0:0:0:0:
109,192,84270,1,0,0:0:0:0:
182,192,84270,1,0,0:0:0:0:
256,192,84270,1,0,0:0:0:0:
329,192,84270,1,0,0:0:0:0:
109,192,84551,1,0,0:0:0:0:
182,192,84551,1,0,0:0:0:0:
256,192,84551,1,0,0:0:0:0:
329,192,84551,1,0,0:0:0:0:
402,192,84551,1,0,0:0:0:0:
182,192,84832,1,0,0:0:0:0:
256,192,84832,1,0,0:0:0:0:
329,192,84832,1,0,0:0:0:0:
402,192,84832,1,0,0:0:0:0:
475,192,84832,1,0,0:0:0:0:
109,192,85020,1,0,0:0:0:0:
36,192,85020,1,0,0:0:0:0:
182,192,85020,1,0,0:0:0:0:
256,192,85020,1,0,0:0:0:0:
329,192,85020,1,0,0:0:0:0:
402,192,85020,1,0,0:0:0:0:
329,192,85770,1,0,0:0:0:0:
182,192,85957,1,0,0:0:0:0:
329,192,86145,1,0,0:0:0:0:
182,192,86332,1,0,0:0:0:0:
256,192,86395,1,0,0:0:0:0:
329,192,86457,1,0,0:0:0:0:
402,192,86551,1,0,0:0:0:0:
475,192,86582,1,0,0:0:0:0:
