osu file format v14

[General]
AudioFilename: audio.mp3
AudioLeadIn: 0
PreviewTime: 233573
Countdown: 0
SampleSet: Soft
StackLeniency: 0.7
Mode: 0
LetterboxInBreaks: 0
WidescreenStoryboard: 0

[Editor]
Bookmarks: 198323,199823,201323,204323
DistanceSpacing: 1
BeatDivisor: 4
GridSize: 4
TimelineZoom: 1.6

[Metadata]
Title:Divine Spell
TitleUnicode:Divine Spell
Artist:TRUE
ArtistUnicode:TRUE
Creator:CelsiusLK
Version:Easy
Source:レガリア The Three Sacred Stars
Tags:Regalia opening full version Miho Karasawa
BeatmapID:1105179
BeatmapSetID:494710

[Difficulty]
HPDrainRate:3
CircleSize:3
OverallDifficulty:3
ApproachRate:3
SliderMultiplier:0.899999999999999
SliderTickRate:1

[Events]
//Background and Video events
0,0,"irrelevant.jpg",0,0
//Break Periods
2,183523,194258
//Storyboard Layer 0 (Background)
//Storyboard Layer 1 (Fail)
//Storyboard Layer 2 (Pass)
//Storyboard Layer 3 (Foreground)
//Storyboard Sound Samples

[TimingPoints]
1823,375,4,2,1,50,1,0
6323,-100,4,1,1,60,0,0
8573,-100,4,1,1,60,0,0
8948,-100,4,1,1,60,0,0
9323,-100,4,1,1,65,0,0
16729,-100,4,1,1,45,0,0
17573,-100,4,1,1,65,0,0
19823,-100,4,1,1,50,0,0
20104,-100,4,1,1,50,0,0
20385,-100,4,1,1,50,0,0
20948,-100,4,1,1,50,0,0
21229,-100,4,1,1,50,0,0
21510,-100,4,1,1,50,0,0
22823,-100,4,1,1,40,0,0
23948,-100,4,1,1,45,0,0
24323,-100,4,2,1,40,0,0
34823,-100,4,2,1,50,0,0
36323,-100,4,2,1,60,0,0
48323,-100,4,2,1,45,0,0
61260,-100,4,2,1,50,0,0
61448,-100,4,2,1,50,0,0
61823,-100,4,1,1,65,0,1
72323,-100,4,1,1,65,0,0
73260,-100,4,1,1,50,0,0
73448,-100,4,1,1,50,0,0
73823,-100,4,1,1,65,0,1
84135,-100,4,1,1,60,0,0
88823,-100,4,2,1,75,0,0
90323,-100,4,2,1,50,0,0
91823,-100,4,2,1,60,0,0
92198,-100,4,2,1,60,0,0
92573,-100,4,2,1,60,0,0
94448,-100,4,2,1,60,0,0
94823,-100,4,2,1,60,0,0
100073,-100,4,2,1,60,0,0
100823,-100,4,2,1,60,0,0
102323,-100,4,2,1,50,0,0
103823,-100,4,1,1,35,0,0
115073,-100,4,1,1,60,0,0
115635,-100,4,2,1,60,0,0
116198,-100,4,2,1,60,0,0
120323,-100,4,2,1,60,0,0
121823,-100,4,2,1,60,0,0
127823,-100,4,2,1,45,0,0
139448,-100,4,2,1,50,0,0
139823,-100,4,2,1,60,0,0
148823,-100,4,2,1,70,0,0
150323,-100,4,2,1,70,0,0
151823,-100,4,2,1,60,0,0
152760,-100,4,2,1,50,0,0
152948,-100,4,2,1,50,0,0
153323,-100,4,1,1,65,0,1
163823,-100,4,1,1,65,0,0
164760,-100,4,1,1,50,0,0
164948,-100,4,1,1,50,0,0
165323,-100,4,1,1,65,0,1
175635,-100,4,1,1,60,0,0
180323,-100,4,2,1,75,0,0
181823,-100,4,2,1,50,0,0
192323,-100,4,1,1,60,0,0
198323,-100,4,1,1,40,0,0
199073,-100,4,1,1,55,0,0
199823,-100,4,1,1,60,0,0
201510,-100,4,1,1,50,0,0
204323,-100,4,1,1,60,0,0
207323,-100,4,2,1,45,0,0
210323,-100,4,2,1,60,0,0
214916,-100,4,2,1,50,0,0
216323,-100,4,2,1,50,0,0
220823,-100,4,1,1,50,0,0
221948,-100,4,1,1,50,0,0
222323,-100,4,1,1,65,0,1
232823,-100,4,1,1,75,0,0
234323,-100,4,1,1,70,0,1
244823,-100,4,1,1,80,0,0
245760,-100,4,1,1,50,0,0
245948,-100,4,1,1,50,0,0
246323,-100,4,1,1,65,0,1
256635,-100,4,1,1,60,0,0
261323,-100,4,2,1,75,0,0
265823,-100,4,1,1,60,0,0
267323,-100,4,1,1,60,0,0

[Colours]
Combo1 : 255,128,255
Combo2 : 255,255,128
Combo3 : 128,128,255
Combo4 : 255,128,128

[HitObjects]
152,128,1823,6,0,B|200:108|200:108|344:120,1,180,2|0,0:0|1:0,0:0:0:0:
460,240,3323,2,0,P|472:280|464:340,1,89.9999999999999,0|0,1:0|1:0,0:0:0:0:
380,348,4073,2,0,L|284:344,1,89.9999999999999,0|0,1:0|1:0,0:0:0:0:
224,284,4823,6,0,L|235:194,2,89.9999999999999,2|2|2,0:0|0:0|0:0,0:0:0:0:
152,336,5948,1,2,0:0:0:0:
76,292,6323,6,0,B|60:248|60:248|72:188,1,89.9999999999999,4|4,1:0|0:0,0:0:0:0:
120,132,7073,2,0,B|164:108|164:108|224:112,1,89.9999999999999,4|0,0:0|0:0,0:0:0:0:
284,152,7823,2,0,B|340:164|340:164|400:148|400:148|459:159,1,180,8|4,0:3|0:3,0:0:0:0:
484,244,8948,1,8,2:1:0:0:
396,264,9323,6,0,L|384:360,1,89.9999999999999,4|8,1:2|0:0,0:0:0:0:
295,355,10073,2,0,P|264:324|254:281,1,89.9999999999999,2|8,0:0|0:0,0:0:0:0:
288,196,10823,1,2,0:0:0:0:
208,156,11198,2,0,L|100:152,1,89.9999999999999,8|2,0:0|0:0,0:0:0:0:
40,112,11948,1,8,0:0:0:0:
92,36,12323,6,0,P|128:16|184:12,2,89.9999999999999,2|8|2,0:0|0:0|0:0,0:0:0:0:
156,100,13448,1,8,0:0:0:0:
232,144,13823,2,0,L|340:136,1,89.9999999999999,2|8,0:0|0:0,0:0:0:0:
412,120,14573,2,0,P|428:164|424:212,1,89.9999999999999,2|8,0:0|0:0,0:0:0:0:
360,268,15323,6,0,B|249:295|289:239|181:263,1,180,4|2,0:2|0:0,0:0:0:0:
116,324,16448,1,8,0:0:0:0:
48,264,16823,2,0,P|32:179|96:121,1,180,0|2,0:0|0:0,0:0:0:0:
184,144,17948,1,8,0:0:0:0:
264,104,18323,6,0,B|308:92|308:92|354:104,1,89.9999999999999,4|8,0:0|0:0,0:0:0:0:
396,184,19073,2,0,P|439:192|484:184,1,89.9999999999999,2|8,0:0|0:0,0:0:0:0:
500,96,19823,6,0,L|512:16,2,67.4999999999999,4|4|4,0:2|0:2|0:2,0:0:0:0:
432,212,20948,2,0,L|438:279,2,67.5,4|4|4,0:2|0:2|0:2,0:0:0:0:
368,92,22073,1,4,0:2:0:0:
263,240,22823,6,0,P|160:202|249:138,1,270,4|2,1:0|0:2,0:0:0:0:
330,180,24323,6,0,B|380:192|380:192|432:160|508:184,1,180,4|2,0:0|0:0,0:0:0:0:
356,276,25823,2,0,L|260:252,1,89.9999999999999,2|2,0:0|0:0,0:0:0:0:
180,268,26573,2,0,P|164:228|184:172,1,89.9999999999999,2|2,0:0|0:0,0:0:0:0:
204,100,27323,6,0,L|396:100,1,180,2|2,0:0|0:0,0:0:0:0:
484,252,28823,2,0,P|488:292|464:348,1,89.9999999999999,2|2,0:0|0:0,0:0:0:0:
388,308,29573,2,0,P|371:266|375:221,1,89.9999999999999,2|2,0:0|0:0,0:0:0:0:
444,164,30323,6,0,B|392:136|392:136|264:149,1,180,2|2,0:0|0:0,0:0:0:0:
108,228,31823,2,0,P|72:248|12:240,1,89.9999999999999,2|2,0:0|0:0,0:0:0:0:
0,160,32573,2,0,L|104:136,1,89.9999999999999,2|2,0:0|0:0,0:0:0:0:
172,112,33323,6,0,L|160:12,2,89.9999999999999,2|2|2,0:0|0:0|0:0,0:0:0:0:
176,200,34448,1,2,0:0:0:0:
256,156,34823,2,0,B|308:128|308:128|404:140,1,135,4|4,1:2|0:0,0:0:0:0:
444,208,35760,2,0,L|436:260,1,45
364,308,36323,6,0,P|316:312|276:276,1,89.9999999999999,4|0,0:0|1:0,0:0:0:0:
228,220,37073,2,0,L|232:128,1,89.9999999999999,2|0,0:1|1:0,0:0:0:0:
300,72,37823,2,0,P|343:62|378:34,2,89.9999999999999,2|0|2,0:1|1:0|0:1,0:0:0:0:
220,32,38948,1,0,1:0:0:0:
140,72,39323,6,0,L|48:84,1,89.9999999999999,2|0,0:1|1:0,0:0:0:0:
20,168,40073,2,0,L|120:176,1,89.9999999999999,2|0,0:1|1:0,0:0:0:0:
192,208,40823,2,0,P|204:164|208:112,2,89.9999999999999,4|4|2,0:0|1:2|0:1,0:0:0:0:
132,276,41948,1,0,1:0:0:0:
216,312,42323,6,0,P|268:312|312:300,1,89.9999999999999,4|0,0:0|1:0,0:0:0:0:
392,272,43073,2,0,L|380:172,1,89.9999999999999,2|0,0:1|1:0,0:0:0:0:
360,96,43823,2,0,P|324:108|272:116,1,89.9999999999999,2|0,0:1|1:0,0:0:0:0:
188,84,44573,1,2,0:1:0:0:
112,132,44948,1,0,1:0:0:0:
160,208,45323,6,0,L|168:304,1,89.9999999999999,2|0,0:1|1:0,0:0:0:0:
244,344,46073,2,0,P|286:356|329:345,1,89.9999999999999,2|0,0:1|1:0,0:0:0:0:
396,284,46823,2,0,L|403:194,1,89.9999999999999,2|0,0:1|1:0,0:0:0:0:
440,112,47573,1,2,0:1:0:0:
384,40,47948,1,0,1:0:0:0:
300,68,48323,6,0,B|260:88|260:88|120:72,1,180,4|0,3:0|0:0,0:0:0:0:
12,220,49823,2,0,P|95:243|148:177,1,180,4|2,0:0|0:0,0:0:0:0:
268,44,51323,6,0,P|273:91|280:144,1,89.9999999999999,4|0,0:0|0:0,0:0:0:0:
264,224,52073,2,0,P|308:216|364:212,1,89.9999999999999,4|0,0:0|0:0,0:0:0:0:
424,268,52823,2,0,B|424:324|384:360|384:360|304:312|224:350,1,270,4|0,0:0|0:0,0:0:0:0:
136,364,54323,6,0,P|150:275|155:185,1,180,4|2,0:0|0:0,0:0:0:0:
336,212,55823,2,0,P|321:123|316:33,1,180,4|2,0:0|0:0,0:0:0:0:
448,156,57323,6,0,L|436:264,1,89.9999999999999,4|0,0:0|0:0,0:0:0:0:
372,304,58073,2,0,L|268:300,1,89.9999999999999,4|0,0:0|0:0,0:0:0:0:
200,264,58823,2,0,B|183:218|183:218|203:174|203:174|159:138|179:50|256:57,1,270,4|0,0:0|0:0,0:0:0:0:
320,120,60323,5,0,0:0:0:0:
88,260,61448,1,0,1:0:0:0:
164,308,61823,6,0,L|268:308,1,89.9999999999999,4|8,0:2|0:0,0:0:0:0:
340,280,62573,2,0,P|352:238|340:195,1,89.9999999999999,2|8,0:0|0:0,0:0:0:0:
251,167,63323,2,0,P|239:125|251:82,1,89.9999999999999,2|8,0:0|0:0,0:0:0:0:
336,44,64073,1,2,0:0:0:0:
416,80,64448,1,8,0:0:0:0:
432,168,64823,6,0,L|324:176,1,89.9999999999999,2|8,0:0|0:0,0:0:0:0:
256,152,65573,1,2,0:0:0:0:
204,228,65948,2,0,L|100:224,1,89.9999999999999,8|2,0:0|0:0,0:0:0:0:
28,196,66698,1,8,0:0:0:0:
88,128,67073,2,0,L|96:36,1,89.9999999999999,2|8,0:0|0:0,0:0:0:0:
184,12,67823,5,2,0:0:0:0:
260,60,68198,2,0,P|300:78|344:75,1,89.9999999999999,4|2,0:2|0:0,0:0:0:0:
424,32,68948,1,8,0:0:0:0:
504,72,69323,2,0,L|496:164,1,89.9999999999999,4|4,0:2|0:2,0:0:0:0:
420,208,70073,2,0,L|428:300,1,89.9999999999999,4|4,0:2|0:2,0:0:0:0:
340,284,70823,6,0,P|291:282|251:298,1,89.9999999999999,4|8,0:2|0:0,0:0:0:0:
184,356,71573,1,2,0:0:0:0:
108,312,71948,1,8,0:0:0:0:
152,232,72323,2,0,L|164:152,2,67.4999999999999,4|4|4,0:2|0:2|0:2,0:0:0:0:
236,260,73260,2,0,L|288:252,1,45
368,236,73823,6,0,P|384:192|376:140,1,89.9999999999999,4|8,0:2|0:0,0:0:0:0:
348,64,74573,2,0,B|300:60|300:60|248:80,1,89.9999999999999,2|8,0:0|0:0,0:0:0:0:
172,96,75323,2,0,P|136:96|76:88,1,89.9999999999999,2|8,0:0|0:0,0:0:0:0:
0,48,76073,1,2,0:0:0:0:
8,136,76448,1,8,0:0:0:0:
72,200,76823,6,0,L|168:188,1,89.9999999999999,2|8,0:0|0:0,0:0:0:0:
248,216,77573,2,0,P|292:192|336:188,1,89.9999999999999,2|8,0:0|0:0,0:0:0:0:
412,228,78323,2,0,L|404:320,1,89.9999999999999,2|8,0:0|0:0,0:0:0:0:
319,348,79073,2,0,P|278:364|234:357,1,89.9999999999999,2|8,0:0|0:0,0:0:0:0:
148,328,79823,6,0,L|144:224,1,89.9999999999999,6|8,0:0|0:0,0:0:0:0:
116,152,80573,1,2,0:0:0:0:
180,88,80948,1,8,0:0:0:0:
248,148,81323,2,0,B|292:164|292:164|334:154,1,89.9999999999999,2|8,0:0|0:0,0:0:0:0:
420,128,82073,2,0,L|412:217,1,89.9999999999999,2|8,0:0|0:0,0:0:0:0:
404,308,82823,5,4,0:2:0:0:
324,348,83198,2,0,L|276:356,1,45,8|4,0:0|2:0,0:0:0:0:
200,316,83760,2,0,P|160:304|100:304,1,89.9999999999999,4|4,2:0|2:0,0:0:0:0:
112,302,85823,6,0,P|156:225|136:139,1,180,4|2,0:2|0:0,0:0:0:0:
64,88,86948,1,8,0:0:0:0:
144,52,87323,2,0,L|248:60,1,89.9999999999999,2|8,0:0|0:0,0:0:0:0:
316,88,88073,2,0,L|408:76,1,89.9999999999999,0|8,0:0|0:0,0:0:0:0:
492,52,88823,6,0,B|504:112|504:112|484:144|484:144|504:180|491:222,1,180,4|4,0:0|0:0,0:0:0:0:
372,356,90323,2,0,L|272:352,1,89.9999999999999,4|0,0:0|0:0,0:0:0:0:
44,220,91823,6,0,B|36:176|36:176|44:131,1,89.9999999999999,4|2,0:0|0:0,0:0:0:0:
132,128,92573,2,0,P|184:140|264:108,1,135,0|0,1:0|1:0,0:0:0:0:
324,52,93510,2,0,P|389:41|444:76,1,135,0|2,1:0|0:0,0:0:0:0:
488,156,94448,1,4,0:0:0:0:
428,224,94823,6,0,L|332:216,1,89.9999999999999,4|2,2:0|0:0,0:0:0:0:
256,180,95573,2,0,B|260:240|260:240|236:324,1,135,0|0,1:0|1:0,0:0:0:0:
152,288,96510,2,0,L|128:188,1,89.9999999999999,0|0,1:0|1:0,0:0:0:0:
296,47,97823,6,0,P|344:48|388:72,1,89.9999999999999,4|2,0:0|0:0,0:0:0:0:
408,152,98573,2,0,B|368:168|368:168|256:160,1,135,4|0,1:2|1:0,0:0:0:0:
188,140,99510,2,0,L|200:288,1,135,0|8,1:0|1:3,0:0:0:0:
236,356,100448,1,8,1:3:0:0:
316,320,100823,6,0,L|412:324,1,89.9999999999999,4|4,0:3|0:3,0:0:0:0:
476,268,101573,2,0,P|491:226|484:182,1,89.9999999999999,4|4,0:3|0:3,0:0:0:0:
428,112,102323,2,0,L|324:116,1,89.9999999999999,2|2,0:1|0:1,0:0:0:0:
256,156,103073,2,0,B|212:168|212:168|164:160,1,89.9999999999999,2|2,0:1|0:1,0:0:0:0:
80,144,103823,6,0,L|68:52,2,89.9999999999999,4|0|0,0:0|0:0|0:0,0:0:0:0:
96,232,104948,1,0,0:0:0:0:
104,320,105323,2,0,P|64:341|16:341,2,89.9999999999999,0|0|0,0:0|0:0|0:0,0:0:0:0:
184,276,106448,1,0,0:0:0:0:
264,236,106823,6,0,P|296:272|316:316,2,89.9999999999999,0|0|0,0:0|0:0|0:0,0:0:0:0:
192,184,107948,1,0,0:0:0:0:
264,128,108323,2,0,P|317:120|364:120,1,89.9999999999999,0|0,0:0|0:0,0:0:0:0:
436,152,109073,2,0,P|446:196|450:240,1,89.9999999999999,0|0,0:0|0:0,0:0:0:0:
408,320,109823,5,0,0:0:0:0:
324,288,110198,2,0,L|228:280,1,89.9999999999999,0|0,0:0|0:0,0:0:0:0:
160,332,110948,1,0,0:0:0:0:
84,284,111323,2,0,P|69:195|71:105,1,180,0|0,0:0|0:0,0:0:0:0:
128,36,112448,1,0,0:0:0:0:
216,60,112823,6,0,P|260:64|316:56,1,89.9999999999999,0|0,0:0|0:0,0:0:0:0:
396,48,113573,2,0,P|400:82|396:138,1,89.9999999999999,0|0,0:0|0:0,0:0:0:0:
372,224,114323,1,0,0:0:0:0:
284,204,114698,1,0,0:0:0:0:
200,232,115073,2,0,L|112:240,2,67.4999999999999,4|4|4,0:2|0:2|0:2,0:0:0:0:
256,108,116198,6,0,B|316:88|316:88|432:112,1,180,4|0,0:0|1:0,0:0:0:0:
476,188,117323,2,0,P|480:236|464:280,1,89.9999999999999,2|0,0:1|1:0,0:0:0:0:
400,336,118073,2,0,L|304:328,1,89.9999999999999,2|0,0:1|1:0,0:0:0:0:
228,296,118823,5,2,0:1:0:0:
140,316,119198,2,0,P|96:332|48:328,2,89.9999999999999,0|2|0,1:0|0:1|1:0,0:0:0:0:
160,228,120323,2,0,L|148:132,1,89.9999999999999,4|4,0:0|0:0,0:0:0:0:
240,144,121073,2,0,L|248:44,1,89.9999999999999,2|0,0:1|1:0,0:0:0:0:
332,19,121823,6,0,P|376:24|416:60,1,89.9999999999999,4|0,0:0|1:0,0:0:0:0:
444,136,122573,1,2,0:1:0:0:
436,224,122948,1,0,1:0:0:0:
348,212,123323,2,0,B|304:208|304:208|258:219,1,89.9999999999999,2|0,0:1|1:0,0:0:0:0:
175,255,124073,2,0,P|156:216|156:171,1,89.9999999999999,2|0,0:1|1:0,0:0:0:0:
180,84,124823,6,0,L|80:64,2,89.9999999999999,2|0|2,0:1|1:0|0:1,0:0:0:0:
264,48,125948,1,0,1:0:0:0:
332,104,126323,2,0,L|436:92,1,89.9999999999999,2|0,0:1|1:0,0:0:0:0:
476,164,127073,2,0,P|491:205|487:250,1,89.9999999999999,2|0,0:1|1:0,0:0:0:0:
432,320,127823,6,0,B|320:348|360:292|256:308,1,180,4|2,0:0|0:0,0:0:0:0:
80,352,129323,2,0,P|48:264|96:184,1,180,4|2,0:0|0:0,0:0:0:0:
196,48,130823,6,0,L|209:136,1,89.9999999999999,4|0,0:0|0:0,0:0:0:0:
288,180,131573,2,0,L|304:88,1,89.9999999999999,4|0,0:0|0:0,0:0:0:0:
380,44,132323,2,0,B|420:92|420:92|432:148|411:207,1,180,4|0,0:0|0:0,0:0:0:0:
260,308,133823,6,0,B|212:332|212:332|84:324,1,180,4|2,0:0|0:0,0:0:0:0:
32,152,135323,2,0,B|80:128|80:128|208:136,1,180,4|2,0:0|0:0,0:0:0:0:
380,180,136823,6,0,L|392:76,1,89.9999999999999,4|0,0:0|0:0,0:0:0:0:
476,124,137573,2,0,L|465:213,1,89.9999999999999,4|0,0:0|0:0,0:0:0:0:
424,296,138323,2,0,P|384:316|324:316,1,89.9999999999999,4|2,0:0|0:0,0:0:0:0:
256,288,139073,2,0,P|216:268|160:272,1,89.9999999999999,2|4,0:0|0:0,0:0:0:0:
84,292,139823,6,0,L|96:100,1,180,4|0,0:0|1:0,0:0:0:0:
268,60,141323,2,0,B|340:36|392:72|392:72|456:48,1,180,4|0,0:0|1:0,0:0:0:0:
360,216,142823,6,0,P|274:221|222:152,1,180,4|4,0:0|1:2,0:0:0:0:
96,24,144323,2,0,B|76:88|76:88|88:216,1,180,4|0,1:2|1:0,0:0:0:0:
236,300,145823,6,0,B|288:288|288:288|352:300|352:300|411:285,1,180,4|0,0:0|1:0,0:0:0:0:
476,220,146948,1,2,0:0:0:0:
440,136,147323,2,0,P|356:114|291:172,1,180,4|0,0:0|1:0,0:0:0:0:
400,316,148823,6,0,B|356:292|356:292|320:308|320:308|280:292|220:308,1,180,4|4,0:0|0:0,0:0:0:0:
64,372,150323,1,4,0:0:0:0:
175,27,151823,6,0,P|248:79|336:77,1,180,0|0,1:0|1:0,0:0:0:0:
420,40,152948,1,0,1:0:0:0:
476,112,153323,6,0,L|464:216,1,89.9999999999999,4|8,0:2|0:0,0:0:0:0:
424,280,154073,2,0,P|380:276|324:292,1,89.9999999999999,2|8,0:0|0:0,0:0:0:0:
248,308,154823,2,0,L|256:208,1,89.9999999999999,2|8,0:0|0:0,0:0:0:0:
288,132,155573,1,2,0:0:0:0:
212,84,155948,1,8,0:0:0:0:
132,124,156323,6,0,L|140:228,1,89.9999999999999,2|8,0:0|0:0,0:0:0:0:
140,304,157073,1,2,0:0:0:0:
220,264,157448,2,0,P|264:260|309:274,1,89.9999999999999,8|2,0:0|0:0,0:0:0:0:
376,328,158198,1,8,0:0:0:0:
452,280,158573,2,0,B|464:240|464:240|464:188,1,89.9999999999999,2|8,0:0|0:0,0:0:0:0:
432,108,159323,5,2,0:0:0:0:
356,156,159698,2,0,P|312:172|267:170,1,89.9999999999999,4|2,0:2|0:0,0:0:0:0:
204,108,160448,1,8,0:0:0:0:
132,164,160823,2,0,L|144:268,1,89.9999999999999,4|4,0:2|0:2,0:0:0:0:
168,340,161573,2,0,L|276:328,1,89.9999999999999,4|4,0:2|0:2,0:0:0:0:
344,348,162323,6,0,P|356:292|344:248,1,89.9999999999999,4|8,0:2|0:0,0:0:0:0:
304,184,163073,1,2,0:0:0:0:
348,104,163448,1,8,0:0:0:0:
412,40,163823,2,0,L|492:32,2,67.4999999999999,4|4|4,2:0|2:0|2:0,0:0:0:0:
324,12,164760,2,0,L|260:4,1,45
196,44,165323,6,0,L|180:148,1,89.9999999999999,4|8,0:2|0:0,0:0:0:0:
160,220,166073,2,0,P|204:228|248:221,1,89.9999999999999,2|8,0:0|0:0,0:0:0:0:
332,185,166823,2,0,P|353:221|361:285,1,89.9999999999999,2|8,0:0|0:0,0:0:0:0:
344,356,167573,1,2,0:0:0:0:
256,332,167948,1,8,0:0:0:0:
172,360,168323,6,0,L|80:352,1,89.9999999999999,2|8,0:0|0:0,0:0:0:0:
23,283,169073,2,0,P|18:239|30:196,1,89.9999999999999,2|8,0:0|0:0,0:0:0:0:
108,152,169823,2,0,L|197:159,1,89.9999999999999,2|8,0:0|0:0,0:0:0:0:
276,204,170573,2,0,L|384:200,1,89.9999999999999,2|8,0:0|0:0,0:0:0:0:
452,176,171323,6,0,B|458:225|458:225|450:265,1,89.9999999999999,6|8,0:0|0:0,0:0:0:0:
396,336,172073,1,2,0:0:0:0:
312,304,172448,1,8,0:0:0:0:
236,352,172823,2,0,L|140:340,1,89.9999999999999,2|8,0:0|0:0,0:0:0:0:
68,296,173573,2,0,P|60:252|80:204,1,89.9999999999999,2|8,0:0|0:0,0:0:0:0:
136,144,174323,5,4,0:2:0:0:
212,192,174698,2,0,L|276:188,1,45,8|4,0:0|2:0,0:0:0:0:
340,152,175260,2,0,B|348:196|348:196|336:252,1,89.9999999999999,4|4,2:2|2:0,0:0:0:0:
338,240,177323,6,0,B|226:216|274:268|154:248,1,180,4|2,0:2|0:0,0:0:0:0:
100,184,178448,1,8,0:0:0:0:
172,132,178823,2,0,L|184:28,1,89.9999999999999,0|8,0:0|0:0,0:0:0:0:
268,20,179573,2,0,P|312:40|376:44,1,89.9999999999999,2|0,0:0|0:0,0:0:0:0:
436,12,180323,6,0,B|472:56|472:56|448:96|448:96|468:128|461:170,1,180,4|4,0:0|0:0,0:0:0:0:
320,280,181823,2,0,L|140:291,1,180,4|0,0:0|0:0,0:0:0:0:
24,152,183323,1,4,0:0:0:0:
188,184,195698,6,0,B|296:168|248:220|364:197,1,180,4|8,0:2|0:0,0:0:0:0:
440,152,196823,2,0,P|448:108|432:56,1,89.9999999999999,0|8,0:0|0:0,0:0:0:0:
348,56,197573,2,0,L|256:48,1,89.9999999999999,2|8,0:0|0:0,0:0:0:0:
168,36,198323,6,0,B|148:108|148:108|176:156|162:210,1,180,2|2,0:0|0:0,0:0:0:0:
112,284,199448,1,8,0:0:0:0:
140,368,199823,2,0,L|240:376,1,89.9999999999999,2|8,0:0|0:0,0:0:0:0:
312,340,200573,2,0,P|360:328|404:340,1,89.9999999999999,2|8,0:0|0:0,0:0:0:0:
480,376,201323,6,0,B|488:304|488:304|456:268|472:192,1,180,4|2,0:2|0:0,0:0:0:0:
488,112,202448,1,8,0:0:0:0:
404,84,202823,2,0,B|344:92|344:92|296:80|296:80|224:88,1,180,2|2,0:0|0:0,0:0:0:0:
160,148,203948,1,8,0:0:0:0:
76,112,204323,6,0,P|52:197|64:286,1,180,2|2,0:0|0:0,0:0:0:0:
136,340,205448,1,8,0:0:0:0:
184,264,205823,2,0,P|224:252|273:258,1,89.9999999999999,2|8,0:0|0:0,0:0:0:0:
356,288,206573,2,0,P|400:292|444:283,1,89.9999999999999,2|8,0:0|0:0,0:0:0:0:
496,208,207323,6,0,B|456:152|456:152|408:176|347:159,1,180,4|0,0:0|0:0,0:0:0:0:
176,104,208823,2,0,B|136:160|136:160|88:136|27:152,1,180,4|0,0:0|0:0,0:0:0:0:
136,296,210323,5,4,0:0:0:0:
404,72,211823,1,4,0:0:0:0:
56,156,213323,5,4,0:0:0:0:
224,92,214073,1,4,0:0:0:0:
208,272,214823,2,0,P|296:264|312:176,1,180,4|0,0:0|0:0,0:0:0:0:
136,196,216323,6,0,L|124:92,1,89.9999999999999,4|0,0:2|1:0,0:0:0:0:
168,28,217073,2,0,B|208:20|208:20|272:36,1,89.9999999999999,2|0,1:0|1:0,0:0:0:0:
336,76,217823,2,0,P|364:48|376:-4,2,89.9999999999999
260,120,218948,1,0,0:0:0:0:
320,188,219323,6,0,L|508:196,1,180,0|0,0:0|0:0,0:0:0:0:
352,292,220823,2,0,L|276:288,2,67.4999999999999,4|4|4,0:2|0:2|0:2,0:0:0:0:
440,276,221760,2,0,L|448:232,1,45,0|0,0:0|0:0,0:0:0:0:
460,144,222323,6,0,P|424:136|370:144,1,89.9999999999999,4|8,0:2|0:0,0:0:0:0:
300,196,223073,2,0,L|210:192,1,89.9999999999999,2|8,0:0|0:0,0:0:0:0:
124,168,223823,2,0,P|136:120|120:64,1,89.9999999999999,2|8,0:0|0:0,0:0:0:0:
44,56,224573,1,2,0:0:0:0:
12,140,224948,1,8,0:0:0:0:
40,224,225323,6,0,L|56:328,1,89.9999999999999,2|8,0:0|0:0,0:0:0:0:
144,304,226073,2,0,P|184:300|233:314,1,89.9999999999999,2|8,0:0|0:0,0:0:0:0:
312,356,226823,2,0,P|356:351|395:329,1,89.9999999999999,2|8,0:0|0:0,0:0:0:0:
440,252,227573,2,0,L|428:156,1,89.9999999999999,2|8,0:0|0:0,0:0:0:0:
376,88,228323,5,6,0:0:0:0:
308,148,228698,1,8,0:0:0:0:
236,92,229073,2,0,B|192:84|192:84|140:100,1,89.9999999999999,2|8,0:0|0:0,0:0:0:0:
84,160,229823,2,0,L|69:248,1,89.9999999999999,2|8,0:0|0:0,0:0:0:0:
112,328,230573,2,0,P|156:320|216:316,1,89.9999999999999,2|8,0:0|0:0,0:0:0:0:
292,328,231323,6,0,P|336:344|381:334,1,89.9999999999999,2|8,0:0|0:0,0:0:0:0:
448,280,232073,1,2,0:0:0:0:
416,196,232448,1,8,0:0:0:0:
340,144,232823,2,0,L|364:4,2,135,0|0|0,0:0|0:0|0:0,0:0:0:0:
300,224,234323,6,0,P|260:232|210:217,1,89.9999999999999,4|8,0:2|0:0,0:0:0:0:
124,204,235073,2,0,L|132:304,1,89.9999999999999,2|8,0:0|0:0,0:0:0:0:
204,348,235823,2,0,P|248:336|296:344,1,89.9999999999999,2|8,0:0|0:0,0:0:0:0:
380,344,236573,1,2,0:0:0:0:
388,260,236948,1,8,0:0:0:0:
364,172,237323,6,0,L|256:184,1,89.9999999999999,2|8,0:0|0:0,0:0:0:0:
200,232,238073,1,2,0:0:0:0:
136,168,238448,2,0,L|152:76,1,89.9999999999999,8|2,0:0|0:0,0:0:0:0:
232,40,239198,1,8,0:0:0:0:
312,76,239573,2,0,L|320:180,1,89.9999999999999,2|8,0:0|0:0,0:0:0:0:
324,256,240323,5,2,0:0:0:0:
239,219,240698,2,0,P|199:201|154:204,1,89.9999999999999,4|2,0:2|0:0,0:0:0:0:
92,272,241448,1,8,0:0:0:0:
132,352,241823,2,0,B|176:360|176:360|232:344,1,89.9999999999999,4|4,0:2|0:2,0:0:0:0:
296,300,242573,2,0,B|344:300|344:300|384:316,1,89.9999999999999,4|4,0:2|0:2,0:0:0:0:
468,344,243323,6,0,L|476:236,1,89.9999999999999,4|8,0:2|0:0,0:0:0:0:
480,164,244073,1,2,0:0:0:0:
412,104,244448,1,8,0:0:0:0:
332,148,244823,2,0,L|252:124,2,67.4999999999999,4|4|4,0:2|0:2|0:2,0:0:0:0:
360,232,245760,2,0,L|362:276,1,45,0|0,0:0|0:0,0:0:0:0:
288,328,246323,6,0,P|252:328|188:316,1,89.9999999999999,4|8,0:2|0:0,0:0:0:0:
112,344,247073,2,0,P|96:304|88:240,1,89.9999999999999,2|8,0:0|0:0,0:0:0:0:
40,180,247823,2,0,P|84:164|133:156,1,89.9999999999999,2|8,0:0|0:0,0:0:0:0:
212,184,248573,1,2,0:0:0:0:
296,152,248948,1,8,0:0:0:0:
372,196,249323,6,0,P|420:208|468:196,1,89.9999999999999,2|8,0:0|0:0,0:0:0:0:
500,120,250073,2,0,B|484:80|484:80|444:56,1,89.9999999999999,2|8,0:0|0:0,0:0:0:0:
356,72,250823,2,0,L|252:80,1,89.9999999999999,2|8,0:0|0:0,0:0:0:0:
176,80,251573,2,0,L|194:168,1,89.9999999999999,2|8,0:0|0:0,0:0:0:0:
212,256,252323,5,6,0:0:0:0:
280,196,252698,2,0,P|332:200|368:210,1,89.9999999999999,8|2,0:0|0:0,0:0:0:0:
440,264,253448,1,8,0:0:0:0:
396,344,253823,2,0,L|304:348,1,89.9999999999999,2|8,0:0|0:0,0:0:0:0:
216,356,254573,2,0,P|216:320|196:264,1,89.9999999999999,2|8,0:0|0:0,0:0:0:0:
120,224,255323,5,4,0:2:0:0:
176,156,255698,2,0,L|224:148,1,45,8|4,0:0|2:0,0:0:0:0:
304,112,256260,2,0,B|348:112|348:112|396:144,1,89.9999999999999,4|4,2:0|2:0,0:0:0:0:
386,137,258323,6,0,B|274:157|314:113|206:129,1,180,4|2,0:2|0:0,0:0:0:0:
132,180,259448,1,8,0:0:0:0:
44,160,259823,2,0,P|32:202|44:250,1,89.9999999999999,0|8,0:0|0:0,0:0:0:0:
120,288,260573,2,0,L|220:288,1,89.9999999999999,0|0,0:0|0:0,0:0:0:0:
296,316,261323,6,0,B|312:260|312:260|300:228|300:228|324:196|313:143,1,180,4|4,0:0|0:0,0:0:0:0:
148,76,262823,2,0,B|137:128|161:160|161:160|149:192|149:192|165:248,1,180,4|4,0:0|0:0,0:0:0:0:
288,304,264135,1,4,0:0:0:0:
287,303,265823,6,0,P|394:279|310:210,1,270,4|0,0:2|0:0,0:0:0:0:
220,228,267323,6,0,L|204:124,1,89.9999999999999,4|8,0:2|0:0,0:0:0:0:
220,48,268073,2,0,P|264:44|320:60,1,89.9999999999999,2|8,0:0|0:0,0:0:0:0:
372,116,268823,2,0,B|384:180|384:180|364:295,1,180,2|2,0:0|0:0,0:0:0:0:
292,348,269948,1,8,0:0:0:0:
228,284,270323,6,0,P|188:288|142:312,1,89.9999999999999,2|8,0:0|0:0,0:0:0:0:
56,336,271073,2,0,L|64:244,1,89.9999999999999,2|8,0:0|0:0,0:0:0:0:
68,156,271823,2,0,P|112:140|172:144,1,89.9999999999999,2|8,0:0|0:0,0:0:0:0:
232,184,272573,1,0,0:0:0:0:
304,132,272948,1,0,0:0:0:0:
376,184,273323,6,0,P|383:258|383:318,1,135,4|4,0:2|0:2,0:0:0:0:
308,364,274260,1,2,0:2:0:0:
224,328,274635,2,0,L|216:220,1,89.9999999999999,4|2,0:2|0:2,0:0:0:0:
272,168,275385,2,0,B|280:120|280:120|256:16,1,135,4|8,0:2|0:0,0:0:0:0:
172,60,276323,6,0,P|152:104|160:152,1,89.9999999999999,4|8,0:0|0:0,0:0:0:0:
164,236,277073,2,0,B|208:224|208:224|244:256|296:252,1,135,0|4,0:0|0:2,0:0:0:0:
368,204,278010,2,0,L|380:148,2,45,8|8|4,0:0|0:0|1:2,0:0:0:0:
