osu file format v14

[General]
AudioFilename: audio.mp3
AudioLeadIn: 0
PreviewTime: 54243
Countdown: 0
SampleSet: Soft
StackLeniency: 0.4
Mode: 0
LetterboxInBreaks: 0
WidescreenStoryboard: 0

[Editor]
Bookmarks: 14902,26399,37896,55141,66638,83884
DistanceSpacing: 1.5
BeatDivisor: 4
GridSize: 32
TimelineZoom: 1.1

[Metadata]
Title:DREAM SOLISTER (TV Size)
TitleUnicode:DREAM SOLISTER (TV Size)
Artist:TRUE
ArtistUnicode:TRUE
Creator:gary00737
Version:Pata-Mon's Euphonium
Source:響け!ユーフォニアム
Tags:hibike! euphonium opening Maboyu walaowey Pata-Mon
BeatmapID:1454378
BeatmapSetID:675521

[Difficulty]
HPDrainRate:6
CircleSize:3.8
OverallDifficulty:8.5
ApproachRate:9
SliderMultiplier:1.6
SliderTickRate:1

[Events]
//Background and Video events
0,0,"yuri.png",0,0
Video,338,"optc.flv"
//Break Periods
//Storyboard Layer 0 (Background)
//Storyboard Layer 1 (Fail)
//Storyboard Layer 2 (Pass)
//Storyboard Layer 3 (Foreground)
//Storyboard Sound Samples

[TimingPoints]
531,359.281437125748,4,2,23,50,1,0
531,-142.857142857143,4,2,23,50,0,0
6279,-100,4,2,23,50,0,0
6548,-100,4,2,23,5,0,0
6638,-100,4,2,23,50,0,0
7267,-100,4,2,23,5,0,0
7357,-100,4,2,23,50,0,0
7986,-100,4,2,23,5,0,0
8075,-100,4,2,23,50,0,0
8345,-100,4,2,23,5,0,0
8435,-100,4,2,23,50,0,0
14004,-142.857142857143,4,2,23,50,0,0
14722,-142.857142857143,4,2,23,5,0,0
14902,-125,4,2,23,30,0,0
26039,-83.3333333333333,4,2,23,40,0,0
26399,-100,4,2,23,50,0,0
36818,-142.857142857143,4,2,23,50,0,0
37896,-142.857142857143,4,2,23,30,0,0
46519,-117.647058823529,4,2,23,50,0,0
49393,-100,4,2,23,50,0,0
54063,-125,4,2,23,50,0,0
54782,-66.6666666666667,4,2,23,50,0,0
55141,-100,4,2,23,50,0,1
55411,-100,4,2,23,5,0,1
55501,-100,4,2,23,50,0,1
60441,-100,4,2,23,5,0,1
60530,-100,4,2,23,50,0,1
60800,-100,4,2,23,5,0,1
60890,-100,4,2,23,50,0,1
65830,-100,4,2,23,5,0,1
65920,-100,4,2,23,50,0,1
66998,-100,4,2,23,50,0,1
71938,-100,4,2,23,5,0,1
72028,-100,4,2,23,50,0,1
72297,-100,4,2,23,5,0,1
72387,-100,4,2,23,50,0,1
77596,-100,4,2,23,5,0,1
77686,-100,4,2,23,50,0,1
77866,-100,4,2,23,5,0,1
77956,-100,4,2,23,50,0,1
78045,-100,4,2,23,5,0,1
78135,-100,4,2,23,50,0,1
82986,-142.857142857143,4,2,23,50,0,1
83884,-100,4,2,23,50,0,0
84153,-100,4,2,23,5,0,0
84243,-100,4,2,23,50,0,0
86848,-100,4,2,23,5,0,0
86938,-100,4,2,23,50,0,0
87656,-100,4,2,23,45,0,0
87836,-100,4,2,23,40,0,0
88016,-100,4,2,23,35,0,0
88195,-100,4,2,23,30,0,0
88375,-100,4,2,23,25,0,0
88554,-100,4,2,23,20,0,0
88734,-100,4,2,23,15,0,0
88914,-100,4,2,23,10,0,0
89093,-100,4,2,23,5,0,0

[Colours]
Combo1 : 0,0,94
Combo2 : 166,54,0
Combo3 : 217,217,0
Combo4 : 141,141,71

[HitObjects]
174,192,531,6,0,B|240:220|272:164|338:192,1,167.999994873047,6|0,0:0|0:0,0:0:0:0:
411,233,1249,1,2,0:0:0:0:
213,117,1429,1,0,1:0:0:0:
299,267,1608,1,8,0:0:0:0:
306,46,1788,6,0,P|251:38|146:38,1,111.999996582031,6|0,0:0|0:0,0:0:0:0:
369,101,2327,1,0,1:0:0:0:
449,75,2507,1,8,0:0:0:0:
270,166,2686,1,8,0:0:0:0:
352,183,2866,1,8,0:0:0:0:
152,172,3045,1,0,1:0:0:0:
183,200,3135,1,8,0:0:0:0:
214,228,3225,1,8,0:0:0:0:
46,118,3405,6,0,P|54:239|122:287,1,167.999994873047,6|0,0:0|0:0,0:0:0:0:
164,290,4123,1,2,0:0:0:0:
342,151,4303,1,0,1:0:0:0:
152,172,4482,1,8,0:0:0:0:
354,269,4662,6,0,P|351:327|329:403,1,111.999996582031,6|0,0:0|0:0,0:0:0:0:
311,196,5201,1,0,1:0:0:0:
354,269,5381,1,8,0:0:0:0:
436,123,5560,1,8,0:0:0:0:
395,196,5740,1,8,0:0:0:0:
309,50,5920,1,0,1:0:0:0:
330,86,6010,1,0,1:0:0:0:
352,123,6100,1,0,1:0:0:0:
373,159,6189,1,0,1:0:0:0:
395,196,6279,6,0,P|398:249|363:338,1,120,6|0,0:0|0:0,0:0:0:0:
332,350,6638,2,0,L|447:354,1,80,8|0,0:0|0:0,0:0:0:0:
246,233,6998,2,0,L|108:237,1,120,6|0,0:0|0:0,0:0:0:0:
191,153,7357,1,0,1:0:0:0:
193,109,7447,1,0,1:0:0:0:
178,68,7536,1,0,1:0:0:0:
148,35,7626,1,0,1:0:0:0:
109,17,7716,6,0,L|247:21,1,120,6|0,0:0|0:0,0:0:0:0:
406,84,8075,2,0,L|268:88,1,120,6|0,0:0|0:0,0:0:0:0:
109,151,8435,2,0,L|178:153,1,40,6|0,0:0|0:0,0:0:0:0:
253,115,8614,1,0,1:0:0:0:
237,156,8704,1,0,1:0:0:0:
243,199,8794,1,0,1:0:0:0:
269,234,8884,1,0,1:0:0:0:
309,252,8974,1,0,1:0:0:0:
353,250,9063,1,0,1:0:0:0:
390,226,9153,6,0,P|412:153|386:102,1,80,6|0,0:0|0:0,0:0:0:0:
208,140,9513,1,0,1:0:0:0:
325,166,9692,1,0,0:0:0:0:
172,25,9872,1,8,0:0:0:0:
127,229,10051,1,8,0:0:0:0:
325,166,10231,1,0,1:0:0:0:
91,114,10411,6,0,P|58:108|-9:108,1,80,2|0,0:0|0:0,0:0:0:0:
244,255,10770,1,8,0:0:0:0:
91,114,10950,1,0,1:0:0:0:
299,155,11129,2,0,P|331:149|399:149,1,80,2|0,0:0|0:0,0:0:0:0:
146,296,11488,1,8,0:0:0:0:
299,155,11668,1,0,1:0:0:0:
263,270,11848,2,0,P|259:301|267:342,1,40,2|2,0:0|0:0,0:0:0:0:
218,67,12028,6,0,P|162:57|46:57,1,160,6|0,0:0|1:0,0:0:0:0:
299,155,12566,2,0,P|337:77|327:18,1,80,2|0,0:0|0:0,0:0:0:0:
182,182,12926,1,0,1:0:0:0:
414,191,13105,1,8,0:0:0:0:
218,67,13285,6,0,P|135:71|87:108,1,80,6|0,0:0|0:0,0:0:0:0:
263,270,13644,1,2,0:0:0:0:
336,86,13824,1,0,1:0:0:0:
179,258,14004,6,0,P|261:354|346:256,1,223.999993164063,6|0,0:0|0:0,0:0:0:0:
336,86,14902,6,0,P|332:126|318:176,1,64,12|0,0:0|0:0,0:0:0:0:
263,270,15261,2,0,P|259:230|245:180,1,64,8|0,0:0|0:0,0:0:0:0:
190,86,15620,2,0,P|186:126|172:176,1,64,8|0,0:0|0:0,0:0:0:0:
117,270,15980,2,0,P|113:230|99:180,1,64,8|0,0:0|0:0,0:0:0:0:
31,110,16339,6,0,L|94:115,1,64,8|0,0:0|0:0,0:0:0:0:
245,144,16698,2,0,L|182:149,1,64,8|0,0:0|0:0,0:0:0:0:
108,207,17057,1,8,0:0:0:0:
121,299,17237,1,0,1:0:0:0:
194,241,17417,1,8,0:0:0:0:
207,333,17596,1,0,1:0:0:0:
343,282,17776,6,0,P|310:276|270:275,1,64,8|0,0:0|0:0,0:0:0:0:
420,333,18135,2,0,P|453:327|493:326,1,64,8|0,0:0|0:0,0:0:0:0:
349,190,18495,2,0,P|316:184|276:183,1,64,8|0,0:0|0:0,0:0:0:0:
426,241,18854,2,0,P|459:235|499:234,1,64,8|0,0:0|0:0,0:0:0:0:
355,98,19213,5,8,0:0:0:0:
264,117,19393,2,0,L|236:99,2,32,2|2|8,0:0|0:0|0:0,0:0:0:0:
283,208,19752,1,0,1:0:0:0:
195,179,19932,1,8,0:0:0:0:
166,267,20111,1,0,1:0:0:0:
104,198,20291,1,8,0:0:0:0:
35,260,20471,1,8,0:0:0:0:
92,135,20650,6,0,P|100:167|104:206,1,64,8|0,0:0|0:0,0:0:0:0:
157,68,21010,2,0,P|165:36|169:-3,1,64,8|0,0:0|0:0,0:0:0:0:
222,135,21369,2,0,P|230:167|234:206,1,64,8|0,0:0|0:0,0:0:0:0:
287,68,21728,2,0,P|295:36|299:-3,1,64,8|0,0:0|0:0,0:0:0:0:
421,117,22087,6,0,P|389:125|350:129,1,64,8|0,0:0|0:0,0:0:0:0:
287,68,22447,1,8,0:0:0:0:
431,25,22626,2,0,P|463:17|502:13,1,64,0|0,1:0|0:0,0:0:0:0:
433,180,22986,2,0,P|425:148|421:109,1,64,8|0,0:0|0:0,0:0:0:0:
431,25,23345,1,8,0:0:0:0:
333,147,23525,6,0,P|301:155|262:159,1,64,12|0,0:0|0:0,0:0:0:0:
136,206,23884,2,0,P|168:214|207:218,1,64,8|0,0:0|0:0,0:0:0:0:
333,265,24243,2,0,P|301:273|262:277,1,64,8|0,0:0|0:0,0:0:0:0:
136,324,24602,1,8,0:0:0:0:
199,218,24782,1,0,1:0:0:0:
194,236,24872,1,0,1:0:0:0:
189,254,24962,5,0,1:0:0:0:
114,148,25141,1,8,0:3:0:0:
119,166,25231,1,8,0:3:0:0:
124,184,25321,1,8,0:3:0:0:
199,78,25501,1,8,0:0:0:0:
194,96,25590,1,8,0:0:0:0:
189,114,25680,1,8,0:0:0:0:
124,44,25860,1,0,0:0:0:0:
264,148,26039,6,0,P|316:146|366:129,1,95.9999970703126,6|0,0:0|0:0,0:0:0:0:
124,44,26399,6,0,P|123:123|137:234,1,160,6|0,0:0|1:0,0:0:0:0:
161,319,26938,1,0,0:0:0:0:
217,120,27117,1,8,0:0:0:0:
15,170,27297,1,8,0:0:0:0:
247,236,27477,1,0,1:0:0:0:
187,4,27656,6,0,L|294:7,1,80,6|0,0:0|0:0,0:0:0:0:
327,112,28016,1,8,0:0:0:0:
142,169,28195,1,0,1:0:0:0:
247,110,28375,2,0,L|354:113,1,80,0|8,0:0|0:0,0:0:0:0:
447,116,28734,1,8,0:0:0:0:
264,214,28914,1,0,1:0:0:0:
270,6,29093,1,0,0:0:0:0:
384,218,29273,6,0,P|332:313|167:285,1,160,8|0,0:0|1:0,0:0:0:0:
150,176,29812,1,0,0:0:0:0:
264,214,29992,1,8,0:0:0:0:
60,256,30171,1,8,0:0:0:0:
126,58,30351,1,0,1:0:0:0:
174,294,30530,6,0,P|241:331|309:325,1,80,6|0,0:0|0:0,0:0:0:0:
264,214,30890,1,8,0:0:0:0:
60,256,31069,1,0,1:0:0:0:
150,176,31249,2,0,P|157:126|143:65,1,80
36,138,31608,1,8,0:0:0:0:
264,214,31788,1,0,1:0:0:0:
174,294,31968,1,0,0:0:0:0:
354,134,32147,6,0,P|373:264|249:333,1,160,6|0,0:0|1:0,0:0:0:0:
184,210,32686,2,0,P|223:210|263:214,1,80
354,134,33045,2,0,P|393:129|433:129,1,80,8|0,0:0|0:0,0:0:0:0:
442,277,33405,6,0,P|403:282|363:282,1,80,8|0,0:0|0:0,0:0:0:0:
264,214,33764,2,0,P|225:214|185:210,1,80,8|0,0:0|0:0,0:0:0:0:
69,176,34123,1,0,0:0:0:0:
151,13,34303,2,0,P|156:52|156:92,1,80,8|8,0:0|0:0,0:0:0:0:
97,293,34662,1,0,1:0:0:0:
69,176,34842,1,0,0:0:0:0:
212,327,35022,6,0,P|292:329|371:320,1,160,8|0,0:0|1:0,0:0:0:0:
485,283,35560,1,0,0:0:0:0:
301,223,35740,1,8,0:0:0:0:
485,163,35920,1,8,0:0:0:0:
371,320,36099,1,0,1:0:0:0:
371,126,36279,2,0,P|469:44|589:102,1,160,6|0,0:0|0:0,0:0:0:0:
407,240,36818,6,0,P|346:243|301:223,2,111.999996582031,2|0|0,0:0|0:0|0:0,0:0:0:0:
407,12,37896,6,0,P|346:9|301:29,1,111.999996582031,6|0,0:0|0:0,0:0:0:0:
243,91,38435,2,0,L|105:86,1,111.999996582031,2|0,0:0|0:0,0:0:0:0:
68,30,38974,2,0,L|-1:32,1,55.9999982910157,0|0,1:0|0:0,0:0:0:0:
127,191,39333,6,0,P|140:102|97:59,1,111.999996582031,2|0,0:0|0:0,0:0:0:0:
63,136,39872,2,0,L|201:141,1,111.999996582031,2|0,0:0|0:0,0:0:0:0:
238,197,40411,2,0,L|307:195,1,55.9999982910157,0|0,1:0|0:0,0:0:0:0:
394,141,40770,6,0,P|378:193|399:245,1,111.999996582031,6|0,0:0|0:0,0:0:0:0:
343,307,41309,2,0,L|205:302,1,111.999996582031,2|0,0:0|0:0,0:0:0:0:
149,276,41848,2,0,L|151:345,1,55.9999982910157,0|0,1:0|0:0,0:0:0:0:
65,294,42207,6,0,L|67:225,2,55.9999982910157,2|0|0,0:0|0:0|0:0,0:0:0:0:
137,192,42746,2,0,L|132:54,1,111.999996582031,2|0,0:0|0:0,0:0:0:0:
53,4,43285,2,0,L|51:73,1,55.9999982910157,0|0,1:0|0:0,0:0:0:0:
206,39,43644,6,0,P|258:40|337:70,1,111.999996582031,6|0,0:0|0:0,0:0:0:0:
364,125,44183,2,0,P|417:108|472:106,1,111.999996582031,2|0,0:0|0:0,0:0:0:0:
512,181,44722,2,0,L|510:250,1,55.9999982910157,0|0,1:0|0:0,0:0:0:0:
449,349,45081,6,0,L|447:280,2,55.9999982910157,2|0|0,0:0|0:0|0:0,0:0:0:0:
372,383,45620,2,0,P|320:382|241:352,1,111.999996582031,2|0,0:0|0:0,0:0:0:0:
203,305,46159,2,0,L|134:307,1,55.9999982910157,0|0,1:0|0:0,0:0:0:0:
114,143,46519,6,0,L|110:211,1,68.0000012969971,12|0,0:0|0:0,0:0:0:0:
45,290,46878,2,0,L|41:358,1,68.0000012969971,8|0,0:0|0:0,0:0:0:0:
147,307,47237,2,0,L|215:303,1,68.0000012969971,8|0,0:0|0:0,0:0:0:0:
309,342,47596,2,0,L|377:338,1,68.0000012969971,8|0,0:0|0:0,0:0:0:0:
300,173,47956,6,0,L|296:241,1,68.0000012969971,8|0,0:0|0:0,0:0:0:0:
189,129,48315,2,0,L|193:197,1,68.0000012969971,8|0,0:0|0:0,0:0:0:0:
86,85,48674,2,0,L|82:153,1,68.0000012969971,8|0,0:0|0:0,0:0:0:0:
197,265,49033,2,0,L|193:197,1,68.0000012969971,0|0,1:0|0:0,0:0:0:0:
6,245,49393,5,8,0:0:0:0:
70,346,49572,1,0,0:0:0:0:
82,153,49752,1,8,0:0:0:0:
193,197,49932,1,0,0:0:0:0:
90,34,50111,1,8,0:0:0:0:
205,4,50291,2,0,P|244:3|284:9,1,80
272,202,50650,6,0,P|233:203|193:197,1,80,2|0,0:0|0:0,0:0:0:0:
350,110,51010,1,0,0:0:0:0:
312,315,51189,1,0,1:0:0:0:
232,89,51369,2,0,P|295:3|333:-9,1,80,2|0,0:0|0:0,0:0:0:0:
390,223,51728,1,0,0:0:0:0:
194,294,51908,2,0,P|103:289|55:248,1,80,0|0,1:0|0:0,0:0:0:0:
122,65,52267,5,0,1:0:0:0:
154,181,52447,1,0,0:0:0:0:
238,33,52626,1,0,1:0:0:0:
270,213,52806,1,0,0:0:0:0:
354,1,52986,1,0,1:0:0:0:
386,245,53165,1,0,0:0:0:0:
354,1,53345,1,0,1:0:0:0:
301,329,53525,5,0,1:0:0:0:
238,33,53884,1,2,0:0:0:0:
238,33,54063,2,0,P|175:50|238:111,1,192,2|8,0:0|0:0,0:0:0:0:
260,105,54692,1,8,0:0:0:0:
282,99,54782,6,0,L|279:246,1,120.000004577637,4|0,1:2|0:0,0:0:0:0:
159,331,55141,6,0,L|162:184,1,120.000004577637,6|0,0:0|0:0,0:0:0:0:
145,169,55501,2,0,L|142:316,1,80,0|0,1:0|0:0,0:0:0:0:
196,61,55860,1,8,0:0:0:0:
76,71,56039,1,8,0:0:0:0:
265,159,56219,1,0,1:0:0:0:
25,179,56399,6,0,L|20:399,1,160,2|0,0:0|0:0,0:0:0:0:
265,159,56938,2,0,L|262:12,1,80,0|0,1:0|0:0,0:0:0:0:
162,221,57297,2,0,L|159:368,1,80,8|8,0:0|0:0,0:0:0:0:
329,341,57656,2,0,L|332:194,1,80,0|0,1:0|0:0,0:0:0:0:
130,105,58016,5,8,0:0:0:0:
162,221,58196,1,0,0:0:0:0:
246,73,58375,1,0,1:0:0:0:
179,238,58554,1,0,0:0:0:0:
362,41,58735,1,8,0:0:0:0:
196,255,58914,1,8,0:0:0:0:
93,4,59093,1,0,1:0:0:0:
340,196,59273,6,0,P|333:329|270:392,1,160,2|0,0:0|0:0,0:0:0:0:
267,86,59812,2,0,L|420:81,1,80,0|0,1:0|0:0,0:0:0:0:
196,255,60171,2,0,L|43:250,1,120,2|0,0:0|0:0,0:0:0:0:
34,264,60530,2,0,L|187:269,1,120,4|0,1:2|0:0,0:0:0:0:
243,186,60890,6,0,P|286:180|364:196,1,80,6|0,0:0|0:0,0:0:0:0:
154,268,61249,1,0,1:0:0:0:
218,68,61429,2,0,P|269:62|319:64,1,80,0|8,0:0|0:0,0:0:0:0:
154,268,61788,1,8,0:0:0:0:
104,32,61968,1,0,1:0:0:0:
129,150,62147,1,0,0:0:0:0:
297,62,62327,6,0,P|257:62|218:68,1,80,8|0,0:0|0:0,0:0:0:0:
74,262,62686,2,0,P|125:268|175:266,1,80,0|0,1:0|0:0,0:0:0:0:
351,198,63045,1,8,0:0:0:0:
233,176,63225,1,8,0:0:0:0:
262,369,63405,2,0,P|272:330|272:291,1,80,0|0,1:0|0:0,0:0:0:0:
115,154,63764,6,0,P|105:115|105:76,1,80,6|0,0:0|0:0,0:0:0:0:
375,134,64123,1,0,1:0:0:0:
262,369,64303,1,0,0:0:0:0:
239,69,64483,1,8,0:0:0:0:
386,284,64662,1,8,0:0:0:0:
126,304,64842,1,0,1:0:0:0:
375,134,65022,6,0,P|498:183|537:283,1,160,2|0,0:0|0:0,0:0:0:0:
251,219,65560,1,0,1:0:0:0:
290,10,65740,2,0,L|364:-7,1,40,2|0,0:0|0:0,0:0:0:0:
166,95,65920,1,8,0:0:0:0:
375,134,66099,1,0,1:0:0:0:
394,173,66189,1,0,1:0:0:0:
401,216,66279,1,0,1:0:0:0:
395,260,66369,1,0,1:0:0:0:
377,300,66459,1,0,1:0:0:0:
348,333,66548,1,0,1:0:0:0:
311,356,66638,6,0,P|225:367|164:341,1,120,6|0,0:0|0:0,0:0:0:0:
214,318,66998,2,0,P|253:325|291:316,1,80,0|0,1:0|0:0,0:0:0:0:
131,232,67357,1,8,0:0:0:0:
97,347,67536,1,8,0:0:0:0:
248,203,67716,1,0,1:0:0:0:
48,146,67896,6,0,P|19:202|10:312,1,160,2|0,0:0|0:0,0:0:0:0:
165,117,68435,2,0,L|156:2,1,80,0|0,1:0|0:0,0:0:0:0:
248,203,68794,2,0,L|239:318,1,80,8|0,0:0|0:0,0:0:0:0:
282,88,69153,2,0,L|273:-27,1,80,0|0,1:0|0:0,0:0:0:0:
87,108,69513,6,0,P|134:118|185:111,1,80,8|0,0:0|0:0,0:0:0:0:
399,59,69872,1,0,1:0:0:0:
248,203,70051,2,0,P|217:254|222:338,1,80,0|8,0:0|0:0,0:0:0:0:
365,174,70411,1,8,0:0:0:0:
165,117,70590,1,0,1:0:0:0:
331,289,70770,6,0,P|460:248|485:173,1,160,2|0,0:0|0:0,0:0:0:0:
282,88,71309,2,0,P|209:89|151:132,1,80,0|0,1:0|0:0,0:0:0:0:
85,213,71668,2,0,L|80:60,1,120,2|0,0:0|0:0,0:0:0:0:
94,47,72028,2,0,L|99:200,1,120,4|0,1:2|0:0,0:0:0:0:
192,242,72387,6,0,P|238:248|293:233,1,80,12|0,0:0|0:0,0:0:0:0:
367,108,72746,1,0,1:0:0:0:
231,357,72926,1,8,0:0:0:0:
252,75,73105,1,0,1:0:0:0:
252,368,73285,1,8,0:0:0:0:
137,42,73465,1,0,1:0:0:0:
273,379,73644,6,0,P|343:386|442:384,1,160,8|0,0:0|0:0,0:0:0:0:
197,145,74183,1,0,1:0:0:0:
121,379,74363,1,8,0:0:0:0:
320,234,74542,1,0,1:0:0:0:
74,234,74722,1,8,0:0:0:0:
197,21,74902,2,0,P|246:22|302:33,1,80,0|0,1:0|0:0,0:0:0:0:
476,144,75261,6,0,P|427:145|371:156,1,80,12|0,0:0|0:0,0:0:0:0:
100,220,75620,1,0,1:0:0:0:
352,296,75800,1,8,0:0:0:0:
144,74,75980,1,0,1:0:0:0:
204,331,76159,1,8,0:0:0:0:
396,150,76339,1,0,1:0:0:0:
100,220,76519,6,0,P|54:303|73:409,1,160,8|0,0:0|0:0,0:0:0:0:
283,337,77057,2,0,P|243:331|203:331,1,80,0|0,1:0|0:0,0:0:0:0:
248,185,77417,2,0,P|288:179|328:179,1,80,4|0,1:2|0:0,0:0:0:0:
389,135,77686,2,0,P|429:141|469:141,1,80,4|0,1:2|0:0,0:0:0:0:
511,205,77956,2,0,L|502:270,1,40,4|0,1:2|0:0,0:0:0:0:
383,297,78135,5,8,0:0:0:0:
311,43,78315,1,8,0:0:0:0:
128,233,78495,1,0,1:0:0:0:
420,149,78674,2,0,P|463:55|437:-42,1,160,8|0,0:0|0:0,0:0:0:0:
274,191,79213,1,0,1:0:0:0:
383,297,79393,1,0,0:0:0:0:
311,43,79572,5,8,0:0:0:0:
128,233,79752,1,8,0:0:0:0:
383,297,79932,1,0,1:0:0:0:
165,85,80111,2,0,P|39:110|-14:177,1,160,8|0,0:0|0:0,0:0:0:0:
237,339,80650,1,0,1:0:0:0:
420,149,80830,1,0,0:0:0:0:
128,233,81010,5,0,1:0:0:0:
383,297,81189,1,8,0:0:0:0:
165,85,81369,1,0,1:0:0:0:
237,339,81548,1,8,0:0:0:0:
311,43,81728,1,0,1:0:0:0:
128,233,81908,1,8,0:0:0:0:
383,297,82087,1,0,1:0:0:0:
165,85,82267,6,0,P|139:78|59:77,1,80,0|0,1:0|0:0,0:0:0:0:
347,85,82626,2,0,P|373:78|453:77,1,80,0|0,1:0|0:0,0:0:0:0:
256,288,82986,6,0,L|256:160,1,111.999996582031,0|0,1:0|0:0,0:0:0:0:
256,176,83884,6,0,L|256:320,1,120,6|0,0:0|0:0,0:0:0:0:
289,326,84243,2,0,L|289:246,1,80,0|0,1:0|0:0,0:0:0:0:
332,134,84602,1,8,0:0:0:0:
213,153,84782,1,8,0:0:0:0:
408,227,84962,1,0,1:0:0:0:
256,41,85141,6,0,P|167:43|124:73,1,80,2|0,0:0|0:0,0:0:0:0:
213,153,85501,1,8,0:0:0:0:
375,22,85680,1,0,1:0:0:0:
332,134,85860,2,0,P|370:203|430:233,1,80,8|0,0:0|0:0,0:0:0:0:
375,22,86219,1,0,1:0:0:0:
332,13,86308,1,0,1:0:0:0:
288,21,86398,1,0,1:0:0:0:
251,44,86488,1,0,1:0:0:0:
224,78,86578,1,0,1:0:0:0:
212,120,86668,1,0,1:0:0:0:
215,164,86758,6,0,P|230:199|253:226,1,40,2|0,0:0|0:0,0:0:0:0:
332,134,86938,1,0,1:0:0:0:
332,134,87028,1,0,1:0:0:0:
332,134,87117,1,0,1:0:0:0:
92,106,87297,1,6,1:2:0:0:
256,192,87387,12,0,89093,0:0:0:0:
