osu file format v14

[General]
AudioFilename: audio.mp3
AudioLeadIn: 0
PreviewTime: 54243
Countdown: 0
SampleSet: Soft
StackLeniency: 0.4
Mode: 0
LetterboxInBreaks: 0
WidescreenStoryboard: 1

[Editor]
Bookmarks: 14902,26399,37896,55141,66638,83884
DistanceSpacing: 1
BeatDivisor: 2
GridSize: 32
TimelineZoom: 1

[Metadata]
Title:DREAM SOLISTER (TV Size)
TitleUnicode:DREAM SOLISTER (TV Size)
Artist:TRUE
ArtistUnicode:TRUE
Creator:gary00737
Version:Pata-Mon's Easy
Source:響け!ユーフォニアム
Tags:hibike! euphonium opening Maboyu walaowey Pata-Mon
BeatmapID:1454377
BeatmapSetID:675521

[Difficulty]
HPDrainRate:2
CircleSize:2.5
OverallDifficulty:2
ApproachRate:3
SliderMultiplier:0.9
SliderTickRate:1

[Events]
//Background and Video events
0,0,"yuri.png",0,0
Video,338,"optc.flv"
//Break Periods
//Storyboard Layer 0 (Background)
//Storyboard Layer 1 (Fail)
//Storyboard Layer 2 (Pass)
//Storyboard Layer 3 (Foreground)
//Storyboard Sound Samples

[TimingPoints]
531,359.281437125748,4,2,23,60,1,0
14902,-100,4,2,23,40,0,0
26399,-100,4,2,23,60,0,0
37896,-100,4,2,23,40,0,0
49393,-100,4,2,23,60,0,0
55141,-100,4,2,23,60,0,1
83884,-100,4,2,23,60,0,0
87477,-100,4,2,23,50,0,0
87656,-100,4,2,23,45,0,0
87836,-100,4,2,23,40,0,0
88016,-100,4,2,23,35,0,0
88195,-100,4,2,23,30,0,0
88375,-100,4,2,23,25,0,0
88554,-100,4,2,23,20,0,0
88734,-100,4,2,23,15,0,0
88914,-100,4,2,23,10,0,0
89093,-100,4,2,23,5,0,0

[Colours]
Combo1 : 0,0,94
Combo2 : 166,54,0
Combo3 : 217,217,0
Combo4 : 141,141,71

[HitObjects]
182,101,531,6,0,P|306:122|426:90,1,225,6|0,0:0|1:0,0:0:0:0:
457,30,1788,2,0,L|466:182,1,135,6|0,0:0|1:0,0:0:0:0:
409,236,2686,2,0,L|400:388,1,90,8|0,0:0|1:0,0:0:0:0:
320,360,3405,6,0,P|196:381|76:349,1,225,6|0,0:0|1:0,0:0:0:0:
44,290,4662,2,0,L|35:138,1,135,6|0,0:0|1:0,0:0:0:0:
99,91,5560,2,0,P|154:85|225:107,1,90,8|0,0:0|1:0,0:0:0:0:
240,164,6279,6,0,L|249:316,1,90,6|0,0:0|1:0,0:0:0:0:
298,327,6998,2,0,P|342:333|386:326,1,90,6|0,0:0|1:0,0:0:0:0:
450,262,7716,1,6,0:0:0:0:
426,175,8075,1,6,0:0:0:0:
489,111,8435,1,6,0:0:0:0:
465,24,8794,1,6,0:0:0:0:
378,1,9153,6,0,P|331:3|260:29,1,90,6|0,0:0|1:0,0:0:0:0:
232,83,9872,2,0,P|166:84|87:61,1,135,8|2,0:0|0:0,0:0:0:0:
17,104,10770,2,0,P|7:152|15:230,1,90,2|2,0:0|0:0,0:0:0:0:
47,273,11489,2,0,L|199:264,1,90,2|2,0:0|0:0,0:0:0:0:
176,246,12028,6,0,L|166:380,2,135,6|2|0,0:0|0:0|1:0,0:0:0:0:
215,224,13285,2,0,L|205:90,1,135,2|0,0:0|1:0,0:0:0:0:
232,53,14004,2,0,P|291:35|375:38,1,135,6|0,0:0|0:0,0:0:0:0:
436,88,14902,6,0,L|445:240,1,90,12|8,0:0|0:0,0:0:0:0:
384,247,15620,2,0,L|375:399,1,90,8|8,0:0|0:0,0:0:0:0:
290,316,16339,2,0,L|299:164,2,90,8|8|8,0:0|0:0|0:0,0:0:0:0:
253,342,17237,2,0,P|224:348|130:348,1,90,0|8,1:0|0:0,0:0:0:0:
123,332,17776,6,0,L|132:180,1,90,8|8,0:0|0:0,0:0:0:0:
71,173,18495,2,0,L|62:21,1,90,8|8,0:0|0:0,0:0:0:0:
130,20,19213,2,0,P|196:10|264:11,2,135,8|0|8,0:0|1:0|0:0,0:0:0:0:
66,83,20650,6,0,L|75:235,1,90,8|8,0:0|0:0,0:0:0:0:
128,242,21369,2,0,L|119:394,1,90,8|8,0:0|0:0,0:0:0:0:
200,377,22087,2,0,P|269:377|338:361,1,135,8|0,0:0|1:0,0:0:0:0:
409,313,22986,2,0,L|418:161,1,90,8|8,0:0|0:0,0:0:0:0:
442,187,23525,6,0,L|433:35,1,90,12|8,0:0|0:0,0:0:0:0:
350,71,24243,2,0,L|341:223,1,90,8|8,0:0|0:0,0:0:0:0:
258,187,24962,2,0,L|249:35,2,90,8|8|8,0:0|0:0|0:0,0:0:0:0:
261,276,26039,1,0,1:0:0:0:
178,312,26399,6,0,P|138:311|74:290,1,90,6|0,0:0|1:0,0:0:0:0:
35,227,27117,2,0,L|26:379,2,135,8|2|0,0:0|0:0|1:0,0:0:0:0:
90,156,28554,2,0,L|81:4,1,90,8|0,0:0|1:0,0:0:0:0:
153,7,29273,6,0,P|202:7|259:25,1,90,8|0,0:0|1:0,0:0:0:0:
293,90,29992,2,0,L|445:81,2,135,8|2|0,0:0|0:0|1:0,0:0:0:0:
239,162,31429,2,0,P|240:206|268:266,1,90,8|0,0:0|1:0,0:0:0:0:
328,301,32147,6,0,L|480:292,1,90,6|0,0:0|1:0,0:0:0:0:
488,239,32866,2,0,P|499:336|450:380,2,135,8|2|0,0:0|0:0|1:0,0:0:0:0:
404,207,34303,2,0,L|395:55,1,90,8|0,0:0|1:0,0:0:0:0:
334,53,35022,6,0,P|285:53|228:71,1,90,8|0,0:0|1:0,0:0:0:0:
194,136,35740,2,0,L|42:127,1,135,8|0,0:0|1:0,0:0:0:0:
3,198,36638,2,0,P|3:227|16:269,1,45,2|2,0:0|0:0,0:0:0:0:
71,305,37177,2,0,L|223:314,1,90,2|0,0:0|0:0,0:0:0:0:
239,265,37896,6,0,P|302:251|406:249,2,135,6|2|0,0:0|0:0|1:0,0:0:0:0:
239,355,39333,2,0,P|302:369|406:371,2,135,2|2|0,0:0|0:0|1:0,0:0:0:0:
149,355,40770,6,0,P|86:369|-18:371,2,135,2|2|0,0:0|0:0|1:0,0:0:0:0:
149,265,42207,2,0,P|86:251|-18:249,2,135,2|2|0,0:0|0:0|1:0,0:0:0:0:
216,205,43644,6,0,P|206:151|213:84,1,90,6|0,0:0|0:0,0:0:0:0:
217,72,44183,2,0,L|369:63,1,135,2|0,0:0|1:0,0:0:0:0:
437,91,45081,2,0,P|447:145|440:212,1,90,2|0,0:0|0:0,0:0:0:0:
436,224,45620,2,0,L|284:233,1,135,2|0,0:0|1:0,0:0:0:0:
231,175,46519,6,0,L|79:166,1,90,12|8,0:0|0:0,0:0:0:0:
128,259,47237,2,0,L|280:268,1,90,8|8,0:0|0:0,0:0:0:0:
205,354,47956,2,0,L|53:345,1,90,8|8,0:0|0:0,0:0:0:0:
45,292,48674,1,8,0:0:0:0:
58,203,49033,1,0,1:0:0:0:
141,170,49393,6,0,L|293:179,1,90,8|0,0:0|1:0,0:0:0:0:
301,232,50111,2,0,L|453:223,1,90,8|0,0:0|1:0,0:0:0:0:
429,204,50650,2,0,P|439:157|425:52,1,135,2|0,0:0|0:0,0:0:0:0:
411,30,51369,2,0,L|259:39,1,135,2|0,0:0|1:0,0:0:0:0:
207,96,52267,6,0,L|55:87,1,90,0|0,1:0|1:0,0:0:0:0:
53,26,52986,2,0,L|62:178,1,135,0|0,1:0|1:0,0:0:0:0:
116,232,53884,2,0,L|111:308,1,45,2|2,0:0|0:0,0:0:0:0:
180,336,54423,2,0,P|225:335|289:320,1,90,2|0,0:0|1:0,0:0:0:0:
329,259,55141,6,0,P|374:260|438:275,1,90,6|0,0:0|1:0,0:0:0:0:
474,198,55860,2,0,P|486:149|486:45,2,135,8|2|0,0:0|0:0|1:0,0:0:0:0:
418,269,57297,1,8,0:0:0:0:
331,242,57656,1,0,1:0:0:0:
244,269,58016,6,0,P|195:266|125:246,1,90,8|0,0:0|1:0,0:0:0:0:
92,193,58734,2,0,L|101:345,2,135,8|2|0,0:0|0:0|1:0,0:0:0:0:
86,103,60171,1,8,0:0:0:0:
170,70,60530,1,0,1:0:0:0:
228,139,60890,6,0,P|298:149|386:130,1,135,8|2,0:0|0:0,0:0:0:0:
419,70,61788,1,2,0:0:0:0:
450,154,62147,2,0,P|449:231|434:311,1,135,2|0,0:0|1:0,0:0:0:0:
396,367,63045,1,8,0:0:0:0:
308,346,63405,1,0,1:0:0:0:
220,367,63764,6,0,P|207:322|207:274,1,90,8|0,0:0|1:0,0:0:0:0:
276,222,64483,2,0,P|288:177|289:129,1,90,8|0,0:0|1:0,0:0:0:0:
280,89,65022,2,0,L|128:80,1,135,0|2,1:0|0:0,0:0:0:0:
70,32,65920,2,0,L|-6:36,2,45,2|2|0,0:0|0:0|1:0,0:0:0:0:
65,122,66638,6,0,P|69:177|81:228,1,90,6|0,0:0|1:0,0:0:0:0:
108,295,67357,2,0,L|260:286,2,135,8|2|0,0:0|0:0|1:0,0:0:0:0:
19,280,68794,1,8,0:0:0:0:
76,211,69153,1,0,1:0:0:0:
44,127,69513,6,0,P|59:69|148:22,1,135,8|2,0:0|0:0,0:0:0:0:
206,40,70411,1,2,0:0:0:0:
295,25,70770,2,0,P|349:62|368:126,1,135,8|0,0:0|1:0,0:0:0:0:
336,211,71668,1,8,0:0:0:0:
393,280,72028,1,0,1:0:0:0:
304,295,72387,6,0,L|152:286,1,90,6|0,0:0|1:0,0:0:0:0:
146,231,73105,2,0,P|135:332|187:375,2,135,0|0|0,1:0|1:0|1:0,0:0:0:0:
231,201,74542,1,0,1:0:0:0:
248,112,74902,1,0,1:0:0:0:
180,53,75261,6,0,P|112:57|29:89,1,135,6|2,0:0|0:0,0:0:0:0:
0,154,76159,1,2,0:0:0:0:
49,230,76519,2,0,P|112:251|180:255,1,135,6|0,0:0|1:0,0:0:0:0:
259,211,77417,2,0,L|335:215,2,67.5,4|4|4,1:2|1:2|1:2,0:0:0:0:
242,169,78135,6,0,P|244:96|260:35,2,135,6|2|0,0:0|0:0|1:0,0:0:0:0:
292,243,79572,2,0,P|290:316|273:376,2,135,2|2|0,0:0|0:0|1:0,0:0:0:0:
242,169,81010,6,0,L|90:178,1,90,0|0,1:0|1:0,0:0:0:0:
125,88,81728,2,0,L|277:79,1,135,0|0,1:0|1:0,0:0:0:0:
327,140,82626,1,0,1:0:0:0:
242,169,82986,2,0,L|90:178,1,135,0|0,1:0|0:0,0:0:0:0:
37,234,83884,6,0,P|34:278|42:323,1,90,6|0,0:0|1:0,0:0:0:0:
119,369,84602,2,0,L|271:360,1,135,8|2,0:0|0:0,0:0:0:0:
344,356,85501,1,2,0:0:0:0:
295,281,85860,2,0,P|292:222|359:142,1,135,2|0,0:0|1:0,0:0:0:0:
401,103,86758,6,0,L|249:94,1,135,8|6,0:0|1:2,0:0:0:0:
256,192,87387,12,0,89093,0:0:0:0:
