osu file format v14

[General]
AudioFilename: audio.mp3
AudioLeadIn: 0
PreviewTime: 54243
Countdown: 0
SampleSet: Soft
StackLeniency: 0.4
Mode: 0
LetterboxInBreaks: 0
WidescreenStoryboard: 1

[Editor]
Bookmarks: 531,6279,9153,14902,20650,26399,32147,37896,43644,49393,55141,60890,66638,72387,78135,81010,83884
DistanceSpacing: 1
BeatDivisor: 4
GridSize: 4
TimelineZoom: 1

[Metadata]
Title:DREAM SOLISTER (TV Size)
TitleUnicode:DREAM SOLISTER (TV Size)
Artist:TRUE
ArtistUnicode:TRUE
Creator:gary00737
Version:Normal
Source:響け!ユーフォニアム
Tags:hibike! euphonium opening Maboyu walaowey Pata-Mon
BeatmapID:1432405
BeatmapSetID:675521

[Difficulty]
HPDrainRate:3.5
CircleSize:3
OverallDifficulty:4
ApproachRate:4.5
SliderMultiplier:1.07
SliderTickRate:1

[Events]
//Background and Video events
Video,338,"optc.flv"
0,0,"yuri.png",0,0
//Break Periods
//Storyboard Layer 0 (Background)
//Storyboard Layer 1 (Fail)
//Storyboard Layer 2 (Pass)
//Storyboard Layer 3 (Foreground)
//Storyboard Sound Samples

[TimingPoints]
531,359.281437125748,4,2,1,50,1,0
14902,-100,4,2,1,30,0,0
26039,-100,4,2,1,40,0,0
26399,-100,4,2,1,50,0,0
37896,-100,4,2,1,30,0,0
46519,-100,4,2,1,50,0,0
55141,-100,4,2,1,50,0,1
83884,-100,4,2,1,50,0,0
87656,-100,4,2,1,45,0,0
87836,-100,4,2,1,40,0,0
88016,-100,4,2,1,35,0,0
88195,-100,4,2,1,30,0,0
88375,-100,4,2,1,25,0,0
88554,-100,4,2,1,20,0,0
88734,-100,4,2,1,15,0,0
88914,-100,4,2,1,10,0,0
89093,-100,4,2,1,5,0,0

[Colours]
Combo1 : 0,0,94
Combo2 : 166,54,0
Combo3 : 217,217,0
Combo4 : 141,141,71

[HitObjects]
26,17,531,6,0,P|37:96|46:176,1,160.5,4|0,0:0|0:0,0:0:0:0:
88,209,1249,2,0,L|79:274,2,53.5,0|8|4,0:0|0:0|3:0,0:0:0:0:
139,191,1788,2,0,P|190:147|287:172,1,160.5,8|8,1:0|0:0,0:0:0:0:
355,235,2686,2,0,L|370:95,1,107,4|8,3:0|0:0,0:0:0:0:
470,97,3405,6,0,L|453:256,1,160.5,4|0,0:0|0:0,0:0:0:0:
450,310,4123,2,0,P|494:299|530:303,2,53.5,0|4|8,0:0|3:0|3:0,0:0:0:0:
409,344,4662,2,0,P|338:324|224:296,1,160.5,8|8,1:0|0:0,0:0:0:0:
185,220,5560,2,0,P|235:197|313:212,2,107,4|8|8,3:0|0:0|1:0,0:0:0:0:
148,320,6638,5,0,0:0:0:0:
54,270,6998,2,0,P|58:306|64:376,2,107,8|8|4,1:0|0:0|1:2,0:0:0:0:
10,172,8075,1,4,1:2:0:0:
89,100,8435,1,4,1:2:0:0:
181,153,8794,2,0,P|232:161|291:127,1,107,4|4,3:0|0:0,0:0:0:0:
360,65,9513,6,0,L|365:123,1,53.5,8|0,0:0|0:0,0:0:0:0:
400,159,9872,1,4,3:0:0:0:
400,159,10052,2,0,P|395:185|389:211,1,53.5,4|8,3:0|0:0,0:0:0:0:
380,264,10411,1,8,3:0:0:0:
457,338,10770,2,0,L|401:354,1,53.5,4|8,3:0|0:0,0:0:0:0:
355,369,11129,2,0,P|305:334|253:332,1,107,0|4,0:0|3:0,0:0:0:0:
212,351,11668,1,8,0:0:0:0:
106,367,12028,6,0,P|100:301|91:229,1,107,8|8,3:0|0:0,0:0:0:0:
50,233,12566,2,0,L|57:120,1,107,2|4,0:0|3:0,0:0:0:0:
64,73,13105,1,8,0:0:0:0:
64,73,13285,2,0,B|108:53|108:53|147:48|186:78,1,107,4|0,0:0|0:0,0:0:0:0:
204,101,13824,1,8,0:0:0:0:
204,101,14004,2,0,B|333:138|331:8|481:74,1,267.5,4|4,0:0|3:2,0:0:0:0:
457,172,15261,6,0,L|529:177,2,53.5,0|0|0,3:0|0:0|3:0,0:0:0:0:
405,162,15800,2,0,P|400:234|396:297,1,107,0|0,0:0|0:0,0:0:0:0:
398,322,16339,2,0,P|343:300|270:312,1,107,0|0,3:0|3:0,0:0:0:0:
255,336,16878,1,0,0:0:0:0:
148,324,17237,2,0,L|149:385,2,53.5,4|0|4,3:0|3:0|3:0,0:0:0:0:
176,278,17776,6,0,P|191:230|152:158,1,107,4|0,3:2|3:0,0:0:0:0:
127,149,18315,2,0,L|9:164,2,107,0|0|0,0:0|0:0|0:0,0:0:0:0:
203,74,19393,2,0,L|194:14,2,53.5,2|0|8,0:0|3:0|3:0,0:0:0:0:
309,74,20111,2,0,L|318:14,2,53.5,0|0|4,0:0|3:0|3:0,0:0:0:0:
300,126,20650,5,4,3:2:0:0:
407,124,21010,2,0,L|396:61,2,53.5,0|0|0,3:0|0:0|3:0,0:0:0:0:
444,161,21548,2,0,P|436:196|426:290,1,107,0|0,0:0|0:0,0:0:0:0:
428,320,22087,2,0,P|371:300|317:308,1,107,0|0,3:0|3:0,0:0:0:0:
285,340,22626,1,0,0:0:0:0:
221,253,22986,2,0,P|229:228|244:183,2,53.5,8|0|8,0:0|3:0|0:0,0:0:0:0:
202,303,23525,6,0,P|145:283|91:291,1,107,4|0,3:2|3:0,0:0:0:0:
63,327,24063,2,0,L|45:209,1,107,0|0,0:0|0:0,0:0:0:0:
141,170,24782,2,0,P|198:190|252:182,1,107,0|0,1:0|1:0,0:0:0:0:
281,146,25321,2,0,P|273:121|258:76,2,53.5,8|8|8,3:0|3:0|3:0,0:0:0:0:
333,241,26039,1,4,0:0:0:0:
440,250,26399,6,0,P|474:208|465:140,1,107,4|8,1:2|1:0,0:0:0:0:
379,105,27117,2,0,L|399:42,2,53.5,0|0|8,3:0|3:0|1:0,0:0:0:0:
326,113,27656,2,0,P|292:153|292:205,1,107,4|0,0:0|0:0,0:0:0:0:
316,253,28195,1,8,1:0:0:0:
316,253,28375,2,0,L|197:246,1,107,0|0,0:0|3:0,0:0:0:0:
155,244,28914,1,8,1:0:0:0:
58,290,29273,6,0,P|50:223|76:173,1,107,4|8,1:2|1:0,0:0:0:0:
127,101,29992,2,0,L|119:40,2,53.5,0|0|8,3:0|3:0|1:0,0:0:0:0:
166,137,30530,2,0,P|157:199|154:244,1,107,4|0,0:0|0:0,0:0:0:0:
156,296,31069,1,8,1:0:0:0:
254,339,31429,2,0,L|258:285,2,53.5,0|0|8,3:0|3:0|1:0,0:0:0:0:
354,375,32147,6,0,L|363:268,1,107,4|8,1:2|1:0,0:0:0:0:
403,232,32686,2,0,P|398:164|404:98,1,107,0|0,0:0|3:0,0:0:0:0:
418,74,33225,1,8,1:0:0:0:
418,74,33405,2,0,L|297:60,1,107,4|0,0:0|0:0,0:0:0:0:
258,56,33944,1,8,1:0:0:0:
155,24,34303,2,0,P|167:115|171:147,1,107,0|8,3:0|1:0,0:0:0:0:
245,205,35022,6,0,P|229:285|224:334,1,107,4|8,1:2|1:0,0:0:0:0:
125,273,35740,2,0,P|117:238|105:210,2,53.5,0|0|8,3:0|3:0|1:0,0:0:0:0:
132,326,36279,1,2,0:0:0:0:
32,355,36638,1,4,3:0:0:0:
32,355,36818,1,4,3:2:0:0:
79,37,37896,6,0,L|197:28,1,107,4|0,3:2|0:0,0:0:0:0:
211,75,38435,2,0,P|274:94|330:59,1,107,0|0,3:0|0:0,0:0:0:0:
337,33,38974,1,10,0:0:0:0:
443,23,39333,2,0,L|447:82,1,53.5,0|0,3:0|0:0,0:0:0:0:
476,120,39692,1,0,0:0:0:0:
476,120,39872,2,0,P|457:202|452:251,1,107,0|0,3:0|0:0,0:0:0:0:
453,278,40411,1,10,0:0:0:0:
394,367,40770,6,0,L|272:358,1,107,4|0,3:2|0:0,0:0:0:0:
263,311,41309,2,0,P|206:296|157:319,1,107,0|0,3:0|0:0,0:0:0:0:
130,355,41848,1,10,0:0:0:0:
29,319,42207,2,0,P|37:270|38:240,1,53.5,0|0,3:0|0:0,0:0:0:0:
11,219,42566,1,0,0:0:0:0:
11,219,42746,2,0,P|36:127|36:69,1,107,0|0,3:0|3:0,0:0:0:0:
32,62,43285,1,10,0:0:0:0:
130,104,43644,6,0,B|164:118|201:120|201:120|238:92,1,107,4|0,3:2|0:0,0:0:0:0:
273,71,44183,2,0,P|267:122|264:191,1,107,0|0,3:0|0:0,0:0:0:0:
266,231,44722,1,10,0:0:0:0:
306,330,45081,2,0,L|428:318,2,107,0|0|0,3:0|0:0|0:0,0:0:0:0:
201,316,46159,1,10,0:0:0:0:
103,270,46519,6,0,P|111:363|113:385,1,107,4|0,3:2|3:0,0:0:0:0:
201,316,47237,2,0,P|209:223|211:201,1,107,0|8,3:0|0:0,0:0:0:0:
117,155,47956,2,0,P|112:101|107:48,1,107,0|0,3:0|3:0,0:0:0:0:
214,27,48674,2,0,P|265:33|334:36,1,107,0|8,3:0|0:0,0:0:0:0:
426,16,49393,6,0,L|419:78,1,53.5,4|0,3:2|0:0,0:0:0:0:
375,99,49752,2,0,L|399:157,1,53.5,8|0,0:0|0:0,0:0:0:0:
419,196,50111,2,0,P|456:193|488:188,2,53.5,0|0|0,3:0|0:0|0:0,0:0:0:0:
375,227,50650,2,0,P|361:276|387:335,1,107,0|0,3:0|3:0,0:0:0:0:
410,370,51189,1,8,0:0:0:0:
410,370,51369,2,0,L|269:365,1,107,0|0,3:0|3:0,0:0:0:0:
249,363,51908,1,8,0:0:0:0:
142,372,52267,6,0,L|135:310,1,53.5,12|0,0:0|0:0,0:0:0:0:
91,289,52626,2,0,L|115:231,1,53.5,8|0,0:0|0:0,0:0:0:0:
134,192,52986,2,0,P|160:195|188:197,2,53.5,8|0|8,0:0|0:0|0:0,0:0:0:0:
90,162,53524,1,12,0:0:0:0:
106,57,53884,1,2,0:0:0:0:
106,57,54063,2,0,B|158:80|212:76|212:76|259:56|292:-4,1,214,2|12,0:0|0:0,0:0:0:0:
394,12,55141,6,0,P|387:53|378:136,1,107,4|8,3:2|0:0,0:0:0:0:
369,224,55860,2,0,L|424:210,2,53.5,0|0|8,3:0|3:0|0:0,0:0:0:0:
338,268,56399,2,0,P|281:264|227:258,1,107,0|0,3:0|0:0,0:0:0:0:
183,238,56938,1,8,0:0:0:0:
83,198,57297,1,0,3:0:0:0:
14,280,57656,1,8,0:0:0:0:
70,370,58016,6,0,L|140:364,1,53.5,4|0,3:2|0:0,0:0:0:0:
142,315,58375,2,0,L|202:329,1,53.5,8|0,0:0|0:0,0:0:0:0:
245,311,58734,2,0,L|229:246,2,53.5,0|0|8,3:0|3:0|0:0,0:0:0:0:
274,355,59273,2,0,B|311:365|311:365|355:364|396:322,1,107,0|0,3:0|3:0,0:0:0:0:
406,298,59812,1,8,0:0:0:0:
499,245,60171,2,0,P|513:298|493:360,1,107,0|8,3:0|0:0,0:0:0:0:
406,298,60890,6,0,P|392:245|412:183,1,107,4|8,3:2|0:0,0:0:0:0:
449,166,61429,2,0,P|463:113|443:51,1,107,0|0,0:0|3:0,0:0:0:0:
413,24,61968,2,0,L|340:26,1,53.5,8|0,0:0|0:0,0:0:0:0:
305,26,62327,1,0,3:0:0:0:
207,72,62686,2,0,P|163:84|97:48,2,107,8|0|8,0:0|3:0|0:0,0:0:0:0:
292,136,63764,6,0,P|276:202|268:265,1,107,4|8,3:2|0:0,0:0:0:0:
273,294,64303,2,0,L|326:301,2,53.5,0|0|0,0:0|3:0|3:0,0:0:0:0:
223,313,64842,1,8,0:0:0:0:
223,313,65022,2,0,P|170:311|111:332,1,107,0|0,3:0|3:0,0:0:0:0:
82,365,65560,1,8,0:0:0:0:
82,365,65740,2,0,P|76:269|67:178,1,160.5,0|8,0:0|1:0,0:0:0:0:
20,110,66638,6,0,P|79:117|133:93,1,107,4|8,0:0|0:0,0:0:0:0:
220,57,67357,2,0,L|211:-4,2,53.5,0|0|8,3:0|3:0|0:0,0:0:0:0:
238,107,67896,2,0,P|231:153|226:222,1,107,0|0,3:0|3:0,0:0:0:0:
231,266,68435,1,8,0:0:0:0:
290,354,68794,1,0,3:0:0:0:
378,295,69153,1,8,0:0:0:0:
318,206,69513,6,0,P|324:148|334:99,1,107,4|8,3:2|0:0,0:0:0:0:
368,60,70051,2,0,P|417:88|494:75,1,107,0|0,0:0|3:0,0:0:0:0:
506,51,70590,1,8,0:0:0:0:
506,51,70770,2,0,P|494:129|480:245,1,160.5,0|8,3:0|0:0,0:0:0:0:
492,316,71668,5,4,0:0:0:0:
404,378,72028,1,8,0:0:0:0:
307,333,72387,2,0,L|312:223,1,107,4|12,3:2|0:0,0:0:0:0:
337,178,72926,1,0,0:0:0:0:
337,178,73105,2,0,L|418:180,2,53.5,4|0|8,3:2|3:0|0:0,0:0:0:0:
302,136,73644,2,0,P|234:102|156:126,1,160.5,4|12,0:0|0:0,0:0:0:0:
119,226,74542,1,4,3:2:0:0:
224,208,74902,1,12,0:0:0:0:
156,125,75261,6,0,P|88:123|36:159,1,107,4|12,3:2|0:0,0:0:0:0:
12,172,75800,1,0,0:0:0:0:
12,172,75980,2,0,L|6:113,2,53.5,4|0|8,3:2|3:0|0:0,0:0:0:0:
36,219,76519,2,0,P|29:273|22:356,1,107,4|0,0:0|3:0,0:0:0:0:
21,378,77057,1,8,0:0:0:0:
127,365,77417,6,0,L|118:273,2,80.25,8|8|8,1:0|1:0|1:0,0:0:0:0:
175,341,78135,6,0,P|228:319|291:340,1,107,4|8,3:2|0:0,0:0:0:0:
314,364,78674,2,0,P|365:373|413:352,1,107,4|0,3:2|3:0,0:0:0:0:
444,308,79213,1,8,0:0:0:0:
393,213,79572,2,0,P|341:203|293:224,1,107,4|8,3:2|0:0,0:0:0:0:
254,261,80111,2,0,L|250:144,1,107,4|0,3:2|0:0,0:0:0:0:
248,100,80650,1,8,0:0:0:0:
160,162,81010,6,0,P|111:183|59:173,2,107,12|12|12,0:0|0:0|0:0,0:0:0:0:
248,100,82087,1,0,3:0:0:0:
248,100,82267,2,0,L|379:104,2,107,4|4|4,0:0|0:0|0:0,0:0:0:0:
248,100,83884,6,0,P|241:180|243:239,1,107,4|8,3:2|0:0,0:0:0:0:
247,259,84423,1,0,0:0:0:0:
247,259,84602,2,0,L|182:251,2,53.5,0|0|8,3:0|3:0|0:0,0:0:0:0:
290,228,85141,2,0,P|343:218|398:241,1,107,4|0,3:2|3:0,0:0:0:0:
429,273,85680,1,8,0:0:0:0:
429,273,85860,2,0,L|438:149,1,107,0|0,3:0|1:0,0:0:0:0:
441,112,86399,1,0,1:0:0:0:
337,84,86758,6,0,L|333:19,2,53.5,4|0|8,0:0|0:0|0:0,0:0:0:0:
342,137,87297,1,4,1:0:0:0:
256,192,87387,12,0,89093,0:0:0:0:
