osu file format v14

[General]
AudioFilename: audio.mp3
AudioLeadIn: 0
PreviewTime: 54243
Countdown: 0
SampleSet: Soft
StackLeniency: 0.4
Mode: 0
LetterboxInBreaks: 0
WidescreenStoryboard: 0

[Editor]
Bookmarks: 531,6279,9153,14902,20650,26399,32147,37896,43644,49393,55141,60890,66638,72387,78135,81010,83884
DistanceSpacing: 0.32
BeatDivisor: 4
GridSize: 4
TimelineZoom: 1

[Metadata]
Title:DREAM SOLISTER (TV Size)
TitleUnicode:DREAM SOLISTER (TV Size)
Artist:TRUE
ArtistUnicode:TRUE
Creator:gary00737
Version:Insane
Source:響け!ユーフォニアム
Tags:hibike! euphonium opening Maboyu walaowey Pata-Mon
BeatmapID:1428990
BeatmapSetID:675521

[Difficulty]
HPDrainRate:6
CircleSize:3.6
OverallDifficulty:8
ApproachRate:9
SliderMultiplier:1.67
SliderTickRate:1

[Events]
//Background and Video events
Video,338,"optc.flv"
0,0,"yuri.png",0,0
//Break Periods
//Storyboard Layer 0 (Background)
//Storyboard Layer 1 (Fail)
//Storyboard Layer 2 (Pass)
//Storyboard Layer 3 (Foreground)
//Storyboard Sound Samples

[TimingPoints]
531,359.281437125748,4,2,1,50,1,0
14004,-133.333333333333,4,2,1,50,0,0
14902,-100,4,2,1,30,0,0
26039,-100,4,2,1,40,0,0
26399,-100,4,2,1,50,0,0
37896,-133.333333333333,4,2,1,30,0,0
46519,-100,4,2,1,50,0,0
55141,-83.3333333333333,4,2,1,50,0,1
77417,-133.333333333333,4,2,1,50,0,1
77956,-83.3333333333333,4,2,1,50,0,1
83884,-100,4,2,1,50,0,0
87656,-100,4,2,1,45,0,0
87836,-100,4,2,1,40,0,0
88016,-100,4,2,1,35,0,0
88195,-100,4,2,1,30,0,0
88375,-100,4,2,1,25,0,0
88554,-100,4,2,1,20,0,0
88734,-100,4,2,1,15,0,0
88914,-100,4,2,1,10,0,0
89093,-100,4,2,1,5,0,0

[Colours]
Combo1 : 0,0,94
Combo2 : 166,54,0
Combo3 : 217,217,0
Combo4 : 141,141,71

[HitObjects]
1,214,531,6,0,P|44:146|125:146,1,167,4|0,0:0|0:0,0:0:0:0:
85,221,1069,1,0,0:0:0:0:
1,214,1249,1,0,0:0:0:0:
123,145,1429,2,0,L|215:140,1,83.5,8|4,0:0|3:0,0:0:0:0:
310,22,1788,2,0,P|296:90|282:194,1,167,8|0,1:0|0:0,0:0:0:0:
458,114,2327,6,0,P|409:110|352:131,1,83.5,8|0,0:0|0:0,0:0:0:0:
384,256,2686,2,0,P|433:260|490:239,1,83.5,4|0,3:0|0:0,0:0:0:0:
323,180,3045,1,8,0:0:0:0:
303,183,3135,1,0,3:0:0:0:
282,186,3224,1,0,3:0:0:0:
136,160,3405,6,0,B|180:136|180:136|243:142|288:193,1,167,4|0,0:0|0:0,0:0:0:0:
198,236,3944,1,0,0:0:0:0:
136,160,4123,1,0,0:0:0:0:
282,186,4303,1,4,3:0:0:0:
120,168,4483,1,8,3:0:0:0:
232,45,4662,2,0,B|274:71|274:71|301:128|279:193,1,167,8|0,1:0|0:0,0:0:0:0:
118,252,5201,6,0,P|156:234|197:235,1,83.5,8|0,0:0|0:0,0:0:0:0:
362,297,5560,2,0,P|324:279|283:279,1,83.5,4|0,3:0|0:0,0:0:0:0:
118,328,5920,1,8,0:0:0:0:
102,290,6010,1,8,0:0:0:0:
118,252,6099,1,4,3:0:0:0:
102,214,6189,1,4,3:0:0:0:
118,176,6279,6,0,P|115:108|1:99,1,167,8|0,1:0|0:0,0:0:0:0:
31,78,6998,2,0,L|199:67,1,167,8|8,1:0|0:0,0:0:0:0:
226,65,7447,1,8,0:0:0:0:
255,63,7537,1,4,3:0:0:0:
284,61,7627,1,4,3:0:0:0:
313,59,7716,6,0,P|298:119|329:172,1,125.25,4|0,1:2|0:0,0:0:0:0:
486,147,8075,2,0,P|441:104|379:104,1,125.25,4|0,1:2|0:0,0:0:0:0:
322,251,8435,2,0,P|363:243|398:205,1,83.5,4|8,1:2|3:0,0:0:0:0:
408,187,8704,1,8,3:0:0:0:
422,227,8794,1,4,3:0:0:0:
403,263,8884,1,4,3:0:0:0:
416,302,8973,1,8,0:0:0:0:
398,339,9063,1,8,0:0:0:0:
411,378,9153,1,4,0:0:0:0:
101,209,9513,6,0,L|191:198,1,83.5,8|0,0:0|0:0,0:0:0:0:
54,135,9872,1,4,3:0:0:0:
148,283,10051,2,0,L|238:272,1,83.5,4|8,3:0|0:0,0:0:0:0:
335,142,10411,6,0,P|303:169|288:209,1,83.5,8|0,3:0|0:0,0:0:0:0:
465,225,10770,2,0,P|457:185|432:152,1,83.5,4|8,3:0|0:0,0:0:0:0:
327,297,11129,2,0,P|365:311|406:305,1,83.5,0|4,0:0|3:0,0:0:0:0:
335,142,11489,2,0,P|303:169|288:209,1,83.5,4|8,3:0|0:0,0:0:0:0:
465,225,11848,5,0,3:0:0:0:
465,225,11938,1,0,3:0:0:0:
465,225,12028,2,0,L|475:45,1,167,8|8,3:0|0:0,0:0:0:0:
291,78,12566,2,0,B|209:99|202:14|109:67,1,167,2|4,0:0|3:0,0:0:0:0:
53,126,13105,1,8,0:0:0:0:
154,302,13285,2,0,P|159:219|163:114,1,167,4|0,0:0|0:0,0:0:0:0:
31,22,13824,1,8,0:0:0:0:
191,226,14004,6,0,P|257:131|179:41,1,250.500009555817,4|0,0:0|0:0,0:0:0:0:
55,39,14902,6,0,L|64:136,1,83.5,4|0,3:2|0:0,0:0:0:0:
162,135,15261,2,0,P|151:178|140:230,1,83.5,0|0,3:0|0:0,0:0:0:0:
134,316,15620,1,0,3:0:0:0:
233,329,15800,2,0,P|275:325|324:301,2,83.5,0|0|0,0:0|3:0|0:0,0:0:0:0:
308,208,16339,6,0,P|380:235|411:318,1,167,0|0,3:0|3:0,0:0:0:0:
312,308,16878,1,0,0:0:0:0:
315,124,17057,2,0,P|311:154|307:217,1,83.5,0|4,3:0|3:0,0:0:0:0:
227,37,17417,2,0,L|234:141,1,83.5,0|4,3:0|3:0,0:0:0:0:
388,15,17776,5,4,3:2:0:0:
109,224,18135,1,0,3:0:0:0:
134,129,18315,1,0,0:0:0:0:
93,232,18495,2,0,P|53:240|-10:223,1,83.5,0|0,3:0|0:0,0:0:0:0:
150,121,18854,2,0,P|190:113|253:130,1,83.5,0|0,3:0|0:0,0:0:0:0:
308,241,19213,5,0,3:0:0:0:
404,147,19393,2,0,L|398:191,2,41.75,2|2|0,0:0|0:0|3:0,0:0:0:0:
390,284,19752,2,0,P|471:250|492:164,1,167,8|0,3:0|0:0,0:0:0:0:
380,75,20291,1,0,3:0:0:0:
505,33,20471,1,4,3:0:0:0:
330,132,20650,6,0,P|276:130|215:127,1,83.5,4|0,3:2|0:0,0:0:0:0:
119,101,21010,1,0,3:0:0:0:
206,197,21189,1,0,0:0:0:0:
192,67,21369,1,0,3:0:0:0:
127,181,21548,2,0,P|125:229|124:272,2,83.5,0|0|0,0:0|3:0|0:0,0:0:0:0:
246,128,22087,6,0,P|288:130|330:132,1,83.5,0|0,3:0|0:0,0:0:0:0:
382,48,22447,1,0,3:0:0:0:
428,177,22627,2,0,P|434:218|437:259,1,83.5,0|0,0:0|3:0,0:0:0:0:
492,104,22986,1,8,0:0:0:0:
327,210,23165,1,0,3:0:0:0:
502,89,23345,1,8,0:0:0:0:
271,30,23525,6,0,B|208:25|208:25|154:51|132:117,1,167,4|0,3:2|3:0,0:0:0:0:
195,227,24063,1,0,0:0:0:0:
74,156,24243,1,0,3:0:0:0:
108,235,24423,1,0,0:0:0:0:
214,143,24602,1,0,3:0:0:0:
195,227,24782,6,0,L|191:279,1,41.75,0|0,1:0|1:0,1:0:0:0:
190,344,24962,1,0,1:0:0:0:
298,290,25141,1,0,1:0:0:0:
293,269,25231,1,4,3:0:0:0:
288,249,25320,1,8,3:0:0:0:
409,230,25501,2,8,L|405:282,1,41.75,8|8,3:0|3:0,3:0:0:0:
404,347,25680,1,8,3:0:0:0:
502,252,25860,1,8,3:0:0:0:
221,220,26039,1,4,0:0:0:0:
205,212,26399,6,0,P|294:204|331:132,1,167,4|8,1:2|1:0,0:0:0:0:
243,131,26938,1,0,0:0:0:0:
416,180,27117,2,0,P|422:130|406:84,1,83.5,0|0,3:0|3:0,0:0:0:0:
227,123,27477,1,8,1:0:0:0:
454,223,27656,6,0,P|479:139|452:60,1,167,4|0,0:0|0:0,0:0:0:0:
330,142,28195,2,0,L|333:243,1,83.5,8|0,1:0|0:0,0:0:0:0:
335,367,28554,1,0,3:0:0:0:
432,243,28733,1,0,3:0:0:0:
267,315,28914,2,0,P|225:328|177:320,1,83.5,8|0,1:0|0:0,0:0:0:0:
225,71,29273,6,0,P|220:147|220:247,1,167,4|8,1:2|1:0,0:0:0:0:
316,233,29812,1,0,0:0:0:0:
144,184,29992,2,0,P|126:232|137:281,1,83.5,0|0,3:0|3:0,0:0:0:0:
332,225,30351,1,8,1:0:0:0:
111,137,30530,6,0,P|72:213|86:302,1,167,4|0,0:0|0:0,0:0:0:0:
219,237,31069,2,0,P|220:192|223:144,1,83.5,8|0,1:0|0:0,0:0:0:0:
381,118,31429,1,0,3:0:0:0:
313,195,31608,1,0,3:0:0:0:
331,32,31789,2,0,P|365:19|418:25,1,83.5,8|0,1:0|0:0,0:0:0:0:
493,204,32147,6,0,P|413:190|380:118,1,167,4|8,1:2|1:0,0:0:0:0:
466,121,32686,1,0,0:0:0:0:
313,195,32866,2,0,L|212:197,1,83.5,0|0,3:0|3:0,0:0:0:0:
340,270,33225,1,8,1:0:0:0:
178,101,33405,6,0,P|125:164|147:268,1,167,4|0,0:0|0:0,0:0:0:0:
280,350,33944,2,0,P|266:301|218:269,1,83.5,8|0,1:0|0:0,0:0:0:0:
100,348,34303,1,0,3:0:0:0:
197,348,34483,1,0,3:0:0:0:
53,279,34662,2,0,P|25:309|16:349,1,83.5,8|0,1:0|0:0,0:0:0:0:
280,350,35022,6,0,P|281:253|286:151,1,167,4|8,1:2|1:0,0:0:0:0:
300,175,35740,2,0,P|346:175|392:150,1,83.5,0|0,3:0|3:0,0:0:0:0:
392,41,36099,1,8,1:0:0:0:
203,18,36279,1,2,0:0:0:0:
203,18,36638,5,4,3:0:0:0:
326,94,36818,1,4,3:2:0:0:
326,94,37896,6,0,P|264:79|202:118,1,125.250004777909,4|0,3:2|0:0,0:0:0:0:
226,242,38435,2,0,P|288:257|350:218,1,125.250004777909,0|0,3:0|0:0,0:0:0:0:
276,168,38974,1,10,0:0:0:0:
486,366,39333,6,0,L|491:303,1,62.6250023889543,0|0,3:0|0:0,0:0:0:0:
507,166,39692,1,0,0:0:0:0:
413,266,39872,1,0,3:0:0:0:
391,128,40051,2,0,P|419:173|430:209,1,62.6250023889543,0|0,3:0|0:0,0:0:0:0:
276,168,40411,1,10,0:0:0:0:
137,353,40770,6,0,P|166:294|148:224,1,125.250004777909,4|0,3:2|0:0,0:0:0:0:
12,228,41309,2,0,P|6:263|6:306,2,62.6250023889543,0|0|0,3:0|0:0|0:0,0:0:0:0:
56,119,41848,1,10,0:0:0:0:
270,286,42207,6,0,P|305:263|337:227,1,62.6250023889543,0|0,3:0|0:0,0:0:0:0:
382,114,42566,1,0,0:0:0:0:
412,260,42746,1,0,3:0:0:0:
412,260,43105,5,0,3:0:0:0:
495,86,43285,1,10,0:0:0:0:
495,86,43644,6,0,P|427:82|377:123,1,125.250004777909,4|0,3:2|0:0,0:0:0:0:
412,260,44183,2,0,P|439:263|478:255,2,62.6250023889543,0|0|0,3:0|0:0|0:0,0:0:0:0:
301,164,44722,2,0,P|331:190|351:232,1,62.6250023889543,10|0,0:0|0:0,0:0:0:0:
339,349,45081,1,0,3:0:0:0:
190,102,45441,6,0,P|183:138|183:191,1,62.6250023889543,0|0,0:0|3:0,0:0:0:0:
96,191,45800,2,0,P|118:224|149:246,1,62.6250023889543
109,325,46159,2,0,L|197:314,1,62.6250023889543,10|0,0:0|0:0,0:0:0:0:
341,157,46519,6,0,P|261:190|233:274,1,167,4|0,3:2|3:0,0:0:0:0:
430,213,47237,2,0,P|441:127|382:61,1,167,0|8,3:0|0:0,0:0:0:0:
341,157,47776,1,0,0:0:0:0:
337,262,47956,2,0,P|405:314|492:296,1,167,0|0,3:0|3:0,0:0:0:0:
512,202,48495,1,0,0:0:0:0:
444,46,48674,2,0,P|437:106|429:219,1,167,0|8,3:0|0:0,0:0:0:0:
232,260,49393,5,4,3:2:0:0:
232,260,49572,1,0,0:0:0:0:
194,147,49752,2,0,P|234:139|283:154,1,83.5,8|0,0:0|0:0,0:0:0:0:
231,277,50111,1,0,3:0:0:0:
194,147,50292,2,0,L|187:35,1,83.5,0|8,0:0|0:0,0:0:0:0:
351,48,50650,6,0,P|341:89|322:217,1,167,0|0,3:0|3:0,0:0:0:0:
306,316,51189,1,8,0:0:0:0:
466,246,51369,2,0,P|402:197|322:212,1,167,0|0,3:0|3:0,0:0:0:0:
304,332,51908,1,8,0:0:0:0:
302,348,52267,6,0,L|316:245,1,83.5,12|0,0:0|0:0,0:0:0:0:
272,110,52626,1,8,0:0:0:0:
313,265,52806,1,0,0:0:0:0:
468,224,52986,1,8,0:0:0:0:
427,69,53166,1,0,0:0:0:0:
370,167,53345,1,8,0:0:0:0:
184,54,53525,1,12,0:0:0:0:
108,267,53884,5,2,0:0:0:0:
184,54,54063,2,0,P|94:147|226:107,1,334,2|12,0:0|0:0,0:0:0:0:
313,26,55141,6,0,P|315:77|309:196,1,150.299995413208,4|0,3:2|0:0,0:0:0:0:
324,166,55501,2,0,P|375:156|424:177,1,100.199996942139,8|0,0:0|0:0,0:0:0:0:
357,345,55860,1,0,3:0:0:0:
366,244,56039,1,0,3:0:0:0:
449,303,56219,1,8,0:0:0:0:
275,287,56399,6,0,B|202:272|202:272|150:284|150:284|70:268,1,200.399993884278,0|0,3:0|0:0,0:0:0:0:
178,77,56938,2,0,P|193:151|136:213,1,150.299995413208,8|0,0:0|0:0,0:0:0:0:
66,186,57297,2,0,B|53:113|53:113|104:42,1,150.299995413208,0|0,3:0|0:0,0:0:0:0:
178,77,57656,2,0,B|236:77|236:77|274:87|274:87|343:87,1,150.299995413208,8|0,0:0|0:0,0:0:0:0:
399,39,58016,6,0,P|368:78|373:151,1,100.199996942139,4|0,3:2|0:0,0:0:0:0:
509,185,58375,2,0,P|490:138|425:106,1,100.199996942139,8|0,0:0|0:0,0:0:0:0:
327,207,58734,1,0,3:0:0:0:
420,193,58914,1,0,3:0:0:0:
327,87,59093,1,8,0:0:0:0:
384,274,59273,1,0,3:0:0:0:
384,274,59632,5,0,3:0:0:0:
480,38,59812,1,8,0:0:0:0:
384,274,60171,6,0,B|279:237|279:313|176:255,1,200.399993884278,0|8,3:0|0:0,0:0:0:0:
238,31,60890,6,0,P|241:76|245:181,1,150.299995413208,4|0,3:2|0:0,0:0:0:0:
247,197,61249,1,8,0:0:0:0:
330,342,61429,1,0,0:0:0:0:
350,168,61608,1,0,3:0:0:0:
189,261,61788,1,0,3:0:0:0:
384,274,61968,2,0,P|432:245|456:202,1,100.199996942139,8|0,0:0|0:0,0:0:0:0:
462,54,62327,6,0,B|418:30|418:30|377:24|331:45|306:86,1,150.299995413208,0|0,3:0|0:0,0:0:0:0:
321,76,62686,2,0,P|266:63|205:91,1,100.199996942139,8|0,0:0|0:0,0:0:0:0:
134,197,63045,1,0,3:0:0:0:
274,151,63225,1,0,3:0:0:0:
64,142,63405,2,0,P|46:193|59:244,1,100.199996942139,8|0,0:0|0:0,0:0:0:0:
210,366,63764,6,0,P|209:321|212:207,1,150.299995413208,4|0,3:2|0:0,0:0:0:0:
215,200,64123,1,8,0:0:0:0:
381,216,64303,1,0,0:0:0:0:
218,184,64483,1,0,3:0:0:0:
400,120,64662,1,0,3:0:0:0:
287,296,64842,1,8,0:0:0:0:
458,279,65022,2,0,B|406:243|406:243|350:239|308:262|287:296,1,200.399993884278,0|0,3:0|3:0,0:0:0:0:
501,365,65560,1,8,0:0:0:0:
488,207,65740,1,0,0:0:0:0:
384,363,65920,5,0,3:0:0:0:
488,207,66099,1,8,1:0:0:0:
480,157,66188,1,8,1:0:0:0:
455,114,66278,1,8,1:0:0:0:
416,84,66368,1,8,1:0:0:0:
368,70,66458,1,8,1:0:0:0:
318,75,66548,1,8,1:0:0:0:
274,98,66638,6,0,P|205:123|115:99,1,150.299995413208,4|0,0:0|0:0,0:0:0:0:
70,57,66998,2,0,P|114:30|174:42,1,100.199996942139,8|0,0:0|0:0,0:0:0:0:
174,219,67357,1,0,3:0:0:0:
274,98,67536,1,0,3:0:0:0:
90,193,67716,1,8,0:0:0:0:
317,177,67896,6,0,P|364:101|276:8,1,200.399993884278,0|0,3:0|3:0,0:0:0:0:
190,191,68435,2,0,L|195:357,1,150.299995413208,8|0,0:0|0:0,0:0:0:0:
277,373,68794,2,0,P|343:358|377:271,1,150.299995413208,0|0,3:0|0:0,0:0:0:0:
396,206,69153,2,0,P|329:220|295:307,1,150.299995413208,8|0,0:0|0:0,0:0:0:0:
379,290,69513,6,0,B|397:231|397:231|397:142,1,150.299995413208,4|0,3:2|0:0,0:0:0:0:
397,126,69872,1,8,0:0:0:0:
308,90,70051,1,0,0:0:0:0:
486,81,70231,1,0,3:0:0:0:
282,110,70411,1,0,3:0:0:0:
512,61,70590,1,8,0:0:0:0:
256,130,70770,2,0,P|162:136|85:55,1,200.399993884278,0|0,3:0|3:0,0:0:0:0:
202,19,71309,1,8,0:0:0:0:
202,19,71668,6,0,P|196:56|186:222,1,200.399993884278,4|8,0:0|0:0,0:0:0:0:
445,332,72387,6,0,P|454:284|437:237,1,100.199996942139,4|0,3:2|0:0,0:0:0:0:
292,250,72746,2,0,P|282:298|299:345,1,100.199996942139,12|0,0:0|0:0,0:0:0:0:
463,217,73105,1,4,3:2:0:0:
273,365,73285,1,0,3:0:0:0:
471,352,73464,1,8,0:0:0:0:
266,230,73644,6,0,B|212:204|212:204|153:203|110:230|87:290,1,200.399993884278,4|0,0:0|0:0,0:0:0:0:
267,339,74183,2,0,P|315:325|352:292,1,100.199996942139,12|0,0:0|0:0,0:0:0:0:
268,133,74542,2,0,P|255:181|265:229,1,100.199996942139,4|0,3:2|0:0,0:0:0:0:
446,236,74902,2,0,P|410:201|363:185,1,100.199996942139,12|0,0:0|0:0,0:0:0:0:
183,291,75261,6,0,P|267:337|352:292,1,200.399993884278,4|12,3:2|0:0,0:0:0:0:
363,185,75800,1,0,0:0:0:0:
268,133,75980,2,0,P|255:181|265:229,1,100.199996942139,4|0,3:2|3:0,0:0:0:0:
394,185,76339,1,8,0:0:0:0:
204,79,76519,2,0,P|174:181|198:284,1,200.399993884278,4|0,0:0|3:0,0:0:0:0:
425,185,77057,1,8,0:0:0:0:
425,185,77417,6,0,P|430:132|434:91,2,93.9375035834314,8|8|8,1:0|1:0|1:0,0:0:0:0:
228,132,78135,6,0,P|274:114|323:119,1,100.199996942139,4|0,3:2|0:0,0:0:0:0:
292,252,78494,1,8,0:0:0:0:
175,66,78674,2,0,P|268:33|366:47,1,200.399993884278,4|0,3:2|3:0,0:0:0:0:
292,252,79213,2,0,P|287:313|281:381,1,100.199996942139,8|0,0:0|0:0,0:0:0:0:
375,239,79572,5,4,3:2:0:0:
210,296,79752,1,0,0:0:0:0:
375,356,79932,1,8,0:0:0:0:
230,197,80111,2,0,P|130:236|114:324,1,200.399993884278,4|0,3:2|0:0,0:0:0:0:
100,160,80650,1,8,0:0:0:0:
210,296,80830,1,0,0:0:0:0:
306,141,81010,6,0,P|354:155|391:188,1,100.199996942139,12|0,0:0|0:0,0:0:0:0:
307,347,81369,2,0,P|294:299|304:251,1,100.199996942139,12|0,0:0|0:0,0:0:0:0:
485,244,81729,2,0,P|449:279|402:295,1,100.199996942139,12|0,0:0|0:0,0:0:0:0:
306,141,82087,1,0,3:0:0:0:
490,35,82267,5,4,0:0:0:0:
481,84,82626,5,4,0:0:0:0:
472,133,82986,5,4,0:0:0:0:
463,182,83884,6,0,P|402:250|431:334,1,167,4|8,3:2|0:0,0:0:0:0:
490,267,84423,1,0,0:0:0:0:
324,216,84602,2,0,L|220:203,1,83.5,0|0,3:0|3:0,0:0:0:0:
297,303,84962,1,8,0:0:0:0:
351,129,85141,6,0,L|172:106,1,167,4|0,3:2|3:0,0:0:0:0:
56,89,85680,1,8,0:0:0:0:
146,20,85860,2,0,P|186:12|227:22,1,83.5,0|0,3:0|0:0,0:0:0:0:
346,205,86219,1,0,1:0:0:0:
333,166,86309,1,0,1:0:0:0:
351,129,86399,1,0,1:0:0:0:
338,90,86489,1,0,1:0:0:0:
357,54,86578,1,0,1:0:0:0:
471,148,86758,6,0,P|456:210|451:251,1,83.5,4|0,0:0|0:0,0:0:0:0:
459,312,87028,1,8,0:0:0:0:
459,312,87117,1,8,0:0:0:0:
241,205,87297,5,4,1:0:0:0:
256,192,87387,12,0,89093,0:0:0:0:
