osu file format v14

[General]
AudioFilename: Dream.mp3
AudioLeadIn: 0
PreviewTime: 54244
Countdown: 0
SampleSet: Soft
StackLeniency: 0.7
Mode: 0
LetterboxInBreaks: 0
WidescreenStoryboard: 1

[Editor]
DistanceSpacing: 1
BeatDivisor: 4
GridSize: 32
TimelineZoom: 1.799999

[Metadata]
Title:DREAM SOLISTER (TV Size)
TitleUnicode:DREAM SOLISTER (TV Size)
Artist:TRUE
ArtistUnicode:TRUE
Creator:Nevo
Version:Shunao's Normal
Source:響け!ユーフォニアム
Tags:Hibike! Euphonium opening Shiratoi Yamicchi Linada WORSTPOLACKEU Renumi Agatsu ShogunMoon [[Pika]] armin a_r_m_i_n FoxyGrandpa Shunao
BeatmapID:1306667
BeatmapSetID:499482

[Difficulty]
HPDrainRate:4
CircleSize:3.3
OverallDifficulty:4
ApproachRate:5
SliderMultiplier:1.1
SliderTickRate:1

[Events]
//Background and Video events
0,0,"wnig_ahuklwgar.jpg",0,0
//Break Periods
//Storyboard Layer 0 (Background)
//Storyboard Layer 1 (Fail)
//Storyboard Layer 2 (Pass)
//Storyboard Layer 3 (Foreground)
//Storyboard Sound Samples

[TimingPoints]
533,359.281437125748,4,2,1,60,1,0
2329,-100,4,2,2,60,0,0
2643,359.281437125748,4,3,3,60,1,0
3047,359.281437125748,4,2,1,60,1,0
3136,-100,4,3,3,60,0,0
3407,359.281437125748,4,2,1,60,1,0
3407,-104.166666666667,4,2,1,60,0,0
3968,359.281437125748,4,2,1,60,1,0
4304,359.281437125748,4,2,3,60,1,0
4663,-100,4,2,2,60,0,0
4842,359.281437125748,4,2,1,60,1,0
7985,-100,4,2,10,5,0,0
8075,-100,4,2,1,60,0,0
8344,-100,4,2,10,5,0,0
8434,-100,4,2,1,60,0,0
9155,-100,4,2,1,60,0,0
9422,-100,4,2,10,5,0,0
9512,-100,4,2,1,60,0,0
13554,-100,4,2,10,5,0,0
13644,-100,4,2,3,60,0,0
13824,-100,4,2,1,60,0,0
15262,-100,4,2,1,60,0,0
15263,-100,4,2,1,60,0,0
17237,-100,4,3,3,60,0,0
17776,-100,4,2,1,60,0,0
18674,-100,4,2,1,35,0,0
18853,-100,4,2,1,60,0,0
22626,-100,4,3,3,60,0,0
23524,-100,4,2,1,60,0,0
24782,-100,4,2,3,60,0,0
25859,-100,4,3,1,60,0,0
26019,359.281437125748,4,3,1,80,1,0
26400,359.281437125748,4,2,1,80,1,0
28735,-100,4,3,3,60,0,0
28914,-100,4,2,1,60,0,0
37897,-100,4,2,1,60,0,0
44004,-100,4,2,2,60,0,0
44184,-100,4,2,1,60,0,0
44364,-100,4,2,11,60,0,0
44498,-100,4,2,1,60,0,0
45441,-100,4,2,2,60,0,0
46160,-100,4,2,1,60,0,0
46519,-100,4,2,2,60,0,0
46520,-100,4,2,2,60,0,0
46879,-100,4,2,1,60,0,0
50920,-100,4,2,10,5,0,0
51010,-100,4,2,1,60,0,0
52178,-100,4,2,10,5,0,0
52268,-100,4,2,1,60,0,0
53885,-100,4,2,1,60,0,0
54783,-100,4,2,4,60,0,1
55052,-100,4,2,10,5,0,1
55142,-100,4,2,4,60,0,1
55501,-100,4,2,1,60,0,1
57926,-100,4,2,10,5,0,1
58016,-100,4,2,1,60,0,1
60082,-100,4,2,1,5,0,1
60172,-100,4,2,1,60,0,1
66909,-100,4,2,10,5,0,1
66999,-100,4,2,1,60,0,1
71669,-100,4,2,1,60,0,1
77328,-100,4,2,10,5,0,1
77417,-100,4,2,1,60,0,1
77597,-100,4,2,10,5,0,1
77687,-100,4,2,1,60,0,1
77867,-100,4,2,10,5,0,1
77957,-100,4,2,1,60,0,1
82986,-100,4,2,1,60,0,0
83885,-100,4,2,4,60,0,0
84244,-100,4,2,1,60,0,0
87837,-100,4,2,1,50,0,0
88196,-100,4,2,1,40,0,0
88555,-100,4,2,1,30,0,0
88735,-100,4,2,1,20,0,0
88914,-100,4,2,1,10,0,0
89094,-100,4,2,10,5,0,0

[Colours]
Combo1 : 240,171,79
Combo2 : 145,0,145
Combo3 : 255,128,192

[HitObjects]
111,312,533,6,0,L|98:123,1,165,6|0,3:2|0:0,0:0:0:0:
125,98,1251,1,0,0:0:0:0:
125,98,1431,1,8,0:3:0:0:
222,47,1790,6,0,P|292:28|369:101,1,165,4|8,0:3|0:3,0:0:0:0:
410,162,2643,2,0,L|400:296,1,110,2|0,0:0|0:0,0:0:0:0:
302,346,3407,6,0,B|221:318|223:375|139:347,1,165,6|0,0:0|0:0,0:0:0:0:
84,323,4147,1,0,0:0:0:0:
84,323,4304,2,0,L|79:260,1,55,12|12,0:3|0:3,0:0:0:0:
84,213,4663,2,0,P|151:182|221:235,1,165,4|8,0:3|0:3,0:0:0:0:
298,306,5560,1,10,0:0:0:0:
401,267,5919,2,0,L|396:202,1,55,8|8,0:3|0:3,0:0:0:0:
359,170,6279,6,0,L|371:50,1,110,4|8,0:3|3:0,0:0:0:0:
265,26,6997,1,4,0:0:0:0:
166,75,7356,2,0,L|104:70,1,55,0|8,0:0|0:0,0:0:0:0:
61,95,7716,1,4,3:2:0:0:
21,197,8075,1,4,3:0:0:0:
84,286,8434,1,4,3:1:0:0:
84,286,8614,2,0,L|85:340,2,55,8|8|8,0:3|0:0|0:0,0:0:0:0:
131,256,9153,6,0,P|170:239|246:274,1,110,0|10,3:0|0:0,0:0:0:0:
330,306,9871,2,0,L|335:380,2,55,0|2|8,3:0|3:2|0:0,0:0:0:0:
373,271,10410,2,0,P|423:283|483:266,1,110,6|2,0:0|0:0,0:0:0:0:
510,223,10949,1,8,0:0:0:0:
510,223,11129,2,0,L|501:102,1,110,2|0,0:0|0:0,0:0:0:0:
469,68,11668,1,8,0:3:0:0:
365,32,12027,6,0,P|310:28|265:65,1,110,4|8,3:2|0:0,0:0:0:0:
248,111,12566,2,0,L|255:232,1,110,2|0,0:0|3:0,0:0:0:0:
232,271,13105,1,8,0:0:0:0:
232,271,13285,2,0,P|181:293|116:273,1,110,4|2,3:2|3:0,0:0:0:0:
80,257,13824,1,8,0:0:0:0:
80,257,14003,1,4,3:1:0:0:
245,37,14901,6,0,L|251:164,1,110,2|2,0:0|3:0,0:0:0:0:
263,200,15440,2,0,P|315:213|375:190,1,110
414,167,15979,1,2,3:0:0:0:
498,237,16339,2,0,L|492:357,1,110,2|2,3:0|3:0,0:0:0:0:
439,359,16877,2,0,P|386:342|325:358,1,110,0|2,0:0|0:0,0:0:0:0:
280,367,17416,2,0,L|206:360,1,55,8|2,0:0|0:0,0:0:0:0:
181,327,17776,6,0,L|55:337,1,110,2|2,3:0|3:0,0:0:0:0:
28,300,18315,1,0,0:0:0:0:
0,193,18674,1,8,0:3:0:0:
56,98,19033,1,0,0:0:0:0:
156,53,19392,6,0,L|216:49,1,55,2|2,0:0|3:2,0:0:0:0:
266,45,19752,1,2,3:0:0:0:
369,82,20111,2,0,P|365:111|363:152,1,55,8|8,3:0|3:2,0:0:0:0:
360,191,20470,1,2,0:3:0:0:
360,191,20650,6,0,P|306:184|244:215,1,110,2|2,3:0|3:0,0:0:0:0:
218,244,21189,1,2,3:0:0:0:
218,244,21368,2,0,L|227:355,1,110
116,350,22088,2,0,L|126:231,1,110,2|2,3:0|3:0,0:0:0:0:
87,200,22626,2,0,L|77:80,1,110,2|2,0:0|0:0,0:0:0:0:
130,72,23165,2,0,P|159:75|194:67,1,55,0|2,0:0|0:0,0:0:0:0:
233,46,23524,6,0,P|285:37|342:54,1,110,4|2,3:2|3:0,0:0:0:0:
384,84,24064,1,0,0:0:0:0:
442,176,24423,1,0,0:0:0:0:
371,260,24782,6,0,L|375:328,2,55,2|2|4,0:3|3:0|0:3,0:0:0:0:
327,225,25321,2,0,P|295:218|262:215,1,55,4|8,3:0|0:3,0:0:0:0:
217,215,25680,1,8,3:0:0:0:
121,259,26019,1,8,0:0:0:0:
32,182,26400,6,0,L|22:72,1,110,4|10,0:0|3:1,0:0:0:0:
129,47,27118,2,0,L|123:116,1,55,2|0,3:0|0:0,0:0:0:0:
231,127,27657,2,0,P|283:108|346:128,1,110,4|0,0:0|0:0,0:0:0:0:
382,147,28196,2,0,L|374:260,1,110,10|0,3:1|0:0,0:0:0:0:
445,340,28914,1,10,3:1:0:0:
336,357,29274,6,0,L|226:349,1,110,2|10,3:0|3:1,0:0:0:0:
167,256,29992,2,0,L|229:252,1,55,2|0,3:0|3:0,0:0:0:0:
285,162,30531,2,0,P|276:109|270:42,1,110,4|0,0:1|0:0,0:0:0:0:
220,30,31070,2,0,P|163:25|110:56,1,110,10|0,3:1|0:0,0:0:0:0:
44,130,31788,1,8,0:3:0:0:
19,237,32148,6,0,L|30:366,1,110,4|10,3:2|3:1,0:0:0:0:
79,366,32687,2,0,P|129:345|191:355,1,110,0|0,0:0|0:0,0:0:0:0:
235,368,33226,1,10,3:1:0:0:
334,322,33585,2,0,L|344:209,1,110,0|10,0:0|3:1,0:0:0:0:
410,124,34304,1,2,3:0:0:0:
349,32,34662,1,0,0:0:0:0:
244,67,35022,6,0,L|255:187,1,110,6|10,3:0|3:1,0:0:0:0:
193,268,35741,2,0,P|138:283|82:264,1,110,2|8,3:0|0:3,0:0:0:0:
50,228,36280,2,0,L|61:103,1,110,4|4,0:0|0:0,0:0:0:0:
67,63,36819,1,6,3:0:0:0:
310,280,37897,6,0,B|394:305|389:256|477:284,2,165,4|2|8,3:1|0:0|0:3,0:0:0:0:
199,276,39334,2,0,B|115:301|120:252|32:280,2,165,2|2|8,0:0|0:0|0:3,0:0:0:0:
262,184,40771,6,0,P|276:108|223:34,2,165,4|2|8,3:2|0:0|0:3,0:0:0:0:
166,129,42208,2,0,L|-3:117,2,165,2|2|8,0:0|0:0|0:3,0:0:0:0:
262,184,43645,6,0,P|183:238|110:222,2,165,4|2|8,0:0|0:0|0:3,0:0:0:0:
313,86,45082,2,0,L|441:79,1,110,2|2,3:0|0:0,0:0:0:0:
505,153,45801,1,2,0:0:0:0:
467,256,46160,1,8,0:0:0:0:
357,261,46519,6,0,L|366:383,2,110,4|2|2,0:0|3:0|3:0,0:0:0:0:
266,198,47597,1,10,3:1:0:0:
173,138,47956,2,0,P|126:124|67:149,2,110,2|2|2,3:0|3:0|3:0,0:0:0:0:
266,198,49034,1,10,3:1:0:0:
372,171,49394,6,0,L|379:55,1,110,4|2,3:2|3:0,0:0:0:0:
330,34,49932,2,0,P|297:27|260:25,1,55,2|10,0:0|3:2,0:0:0:0:
221,37,50292,1,2,0:0:0:0:
119,79,50651,2,0,L|127:198,1,110,2|2,0:0|0:0,0:0:0:0:
152,237,51190,1,2,0:0:0:0:
152,237,51370,2,0,P|204:218|265:238,1,110,10|0,0:0|3:0,0:0:0:0:
304,255,51908,1,8,0:3:0:0:
392,320,52268,6,0,L|510:313,2,110,10|10|10,3:0|3:0|3:0,0:0:0:0:
343,345,53166,1,0,3:0:0:0:
234,362,53525,2,0,L|118:355,1,110,10|4,3:0|3:1,0:0:0:0:
69,349,54064,1,4,3:1:0:0:
23,133,54783,5,12,0:0:0:0:
97,51,55142,2,0,L|218:58,1,110,4|10,3:1|3:1,0:0:0:0:
275,143,55861,2,0,L|402:136,1,110,2|10,3:0|3:1,0:0:0:0:
434,157,56399,2,0,P|425:210|421:278,1,110,4|0,3:1|0:0,0:0:0:0:
423,321,56938,1,10,3:1:0:0:
322,366,57298,1,2,3:0:0:0:
231,303,57657,1,10,3:1:0:0:
129,344,58016,6,0,P|81:356|17:336,1,110,2|10,3:0|3:1,0:0:0:0:
23,230,58735,2,0,L|27:160,1,55,2|2,3:0|3:2,0:0:0:0:
40,121,59094,1,10,3:1:0:0:
40,121,59274,2,0,P|95:99|164:124,1,110,4|2,3:2|3:2,0:0:0:0:
187,141,59813,2,0,L|193:255,1,110,10|2,3:1|3:0,0:0:0:0:
248,345,60531,1,12,3:1:0:0:
331,272,60891,6,0,P|382:252|445:264,1,110,4|10,3:2|3:1,0:0:0:0:
489,265,61429,2,0,L|495:146,1,110,2|2,0:0|0:0,0:0:0:0:
479,102,61968,1,10,3:1:0:0:
392,33,62328,2,0,P|339:23|284:57,1,110,0|10,0:0|3:1,0:0:0:0:
232,141,63046,1,2,3:0:0:0:
296,230,63405,1,10,3:1:0:0:
403,253,63765,6,0,L|397:375,1,110,6|10,3:2|3:1,0:0:0:0:
288,352,64483,2,0,P|235:336|177:345,1,110,2|10,3:0|3:1,0:0:0:0:
129,360,65022,1,4,3:1:0:0:
33,225,65561,1,10,3:1:0:0:
33,225,65741,2,0,L|23:115,1,110,0|8,0:0|0:3,0:0:0:0:
31,61,66280,2,0,P|58:51|97:53,1,55,8|8,0:1|0:1,0:0:0:0:
134,73,66639,6,0,P|184:87|254:66,1,110,4|10,3:0|3:1,0:0:0:0:
345,42,67358,2,0,L|336:166,1,110,2|10,3:0|0:1,0:0:0:0:
292,183,67896,2,0,L|301:307,1,110,4|0,3:2|0:0,0:0:0:0:
336,333,68435,1,10,3:1:0:0:
444,352,68795,1,2,3:0:0:0:
497,255,69154,1,10,3:1:0:0:
438,166,69513,6,0,P|390:142|326:158,1,110,2|10,3:0|3:2,0:0:0:0:
292,183,70052,1,2,0:0:0:0:
184,206,70411,2,0,L|125:201,1,55,2|10,0:0|3:1,0:0:0:0:
76,185,70771,2,0,P|71:240|55:313,1,110,4|0,3:1|0:0,0:0:0:0:
97,334,71310,2,0,P|150:316|209:326,1,110,10|4,3:1|3:2,0:0:0:0:
304,364,72028,1,8,0:1:0:0:
407,326,72388,6,0,L|416:202,2,110,4|10|10,3:3|3:0|3:0,0:0:0:0:
304,364,73465,1,10,3:0:0:0:
304,364,73645,2,0,P|246:367|183:336,1,110,4|0,3:0|3:0,0:0:0:0:
157,311,74184,2,0,L|164:195,1,110,8|10,3:0|3:0,0:0:0:0:
90,118,74902,1,10,3:0:0:0:
173,43,75262,6,0,P|224:25|286:47,1,110,4|10,3:0|3:0,0:0:0:0:
305,86,75801,2,0,L|426:80,1,110,0|0,3:0|3:0,0:0:0:0:
476,171,76519,2,0,P|493:226|475:287,1,110,4|0,3:1|3:0,0:0:0:0:
443,316,77058,1,10,3:1:0:0:
337,348,77417,6,0,L|242:354,2,82.5,6|6|6,0:0|0:1|0:3,0:0:0:0:
334,292,78136,2,0,P|322:243|316:177,1,110,4|8,3:1|3:0,0:0:0:0:
277,144,78675,2,0,P|223:158|160:135,1,110,4|0,3:2|3:0,0:0:0:0:
130,107,79214,1,8,3:1:0:0:
38,167,79573,2,0,L|30:279,1,110,12|8,3:1|3:0,0:0:0:0:
42,330,80112,2,0,P|90:349|154:324,1,110,4|0,3:0|3:0,0:0:0:0:
196,315,80651,1,10,3:0:0:0:
292,262,81010,6,0,L|283:130,2,110,10|10|10,3:1|3:1|3:1,0:0:0:0:
362,346,82088,1,10,3:1:0:0:
362,346,82268,2,0,P|411:359|477:337,1,110,12|12,3:0|3:0,0:0:0:0:
493,237,82986,1,10,0:2:0:0:
281,60,83885,6,0,L|167:52,1,110,4|10,0:0|3:2,0:0:0:0:
133,92,84423,1,2,0:0:0:0:
132,91,84603,2,0,P|114:144|133:197,1,110,2|8,3:2|3:0,0:0:0:0:
175,224,85142,1,4,3:2:0:0:
266,285,85501,2,0,L|385:277,1,110,0|2,3:0|0:0,0:0:0:0:
453,199,86220,2,0,L|528:204,2,55,8|8|8,3:0|3:0|3:0,0:0:0:0:
415,158,86759,6,0,L|303:165,1,110,4|8,3:2|3:2,3:2:0:0:
257,137,87298,1,6,3:1:0:0:
256,192,87388,12,0,89094,0:0:0:0:
