osu file format v14

[General]
AudioFilename: Dream.mp3
AudioLeadIn: 0
PreviewTime: 54244
Countdown: 0
SampleSet: Soft
StackLeniency: 0.5
Mode: 0
LetterboxInBreaks: 0
WidescreenStoryboard: 1

[Editor]
DistanceSpacing: 1.1
BeatDivisor: 4
GridSize: 4
TimelineZoom: 2.599999

[Metadata]
Title:DREAM SOLISTER (TV Size)
TitleUnicode:DREAM SOLISTER (TV Size)
Artist:TRUE
ArtistUnicode:TRUE
Creator:Nevo
Version:Shira's Light Insane
Source:響け!ユーフォニアム
Tags:Hibike! Euphonium opening Shiratoi Yamicchi Linada WORSTPOLACKEU Renumi Agatsu ShogunMoon [[Pika]] armin a_r_m_i_n FoxyGrandpa Shunao
BeatmapID:1120409
BeatmapSetID:499482

[Difficulty]
HPDrainRate:6
CircleSize:4
OverallDifficulty:7
ApproachRate:8.5
SliderMultiplier:1.6
SliderTickRate:1

[Events]
//Background and Video events
0,0,"ShiraBG.jpg",0,0
//Break Periods
//Storyboard Layer 0 (Background)
//Storyboard Layer 1 (Fail)
//Storyboard Layer 2 (Pass)
//Storyboard Layer 3 (Foreground)
//Storyboard Sound Samples

[TimingPoints]
533,359.281437125748,4,2,1,60,1,0
533,-125,4,2,1,60,0,0
2329,-125,4,2,2,60,0,0
2643,359.281437125748,4,3,3,60,1,0
2643,-125,4,3,3,60,0,0
3047,359.281437125748,4,2,1,60,1,0
3136,-125,4,3,3,60,0,0
3407,359.281437125748,4,2,1,60,1,0
3407,-125,4,2,1,60,0,0
3968,359.281437125748,4,2,1,60,1,0
4304,359.281437125748,4,2,3,60,1,0
4304,-125,4,2,3,60,0,0
4663,-125,4,2,2,60,0,0
4842,359.281437125748,4,2,1,60,1,0
4842,-125,4,2,1,60,0,0
7985,-125,4,2,10,5,0,0
8075,-125,4,2,1,60,0,0
8344,-125,4,2,10,5,0,0
8434,-125,4,2,1,60,0,0
9155,-111.111111111111,4,2,1,60,0,0
9422,-111.111111111111,4,2,10,5,0,0
9512,-111.111111111111,4,2,1,60,0,0
13554,-111.111111111111,4,2,10,5,0,0
13644,-111.111111111111,4,2,3,60,0,0
13824,-111.111111111111,4,2,1,60,0,0
14901,-111.111111111111,4,2,1,20,0,0
15262,-125,4,2,1,60,0,0
17237,-125,4,3,3,60,0,0
17776,-125,4,2,1,60,0,0
18674,-125,4,2,1,35,0,0
18853,-125,4,2,1,60,0,0
22626,-125,4,3,3,60,0,0
23524,-125,4,2,1,60,0,0
24782,-125,4,2,3,60,0,0
25859,-125,4,3,1,60,0,0
26019,359.281437125748,4,3,1,80,1,0
26019,-125,4,3,1,80,0,0
26400,359.281437125748,4,2,1,80,1,0
26400,-111.111111111111,4,2,1,80,0,0
28735,-111.111111111111,4,3,3,60,0,0
28914,-111.111111111111,4,2,1,60,0,0
36190,-125,4,2,1,60,0,0
36729,-142.857142857143,4,2,1,60,0,0
37807,-125,4,2,1,60,0,0
44004,-125,4,2,2,60,0,0
44184,-125,4,2,1,60,0,0
44364,-125,4,2,11,60,0,0
44498,-125,4,2,1,60,0,0
45441,-125,4,2,2,60,0,0
46160,-125,4,2,1,60,0,0
46519,-125,4,2,2,60,0,0
46521,-125,4,2,2,60,0,0
46879,-111.111111111111,4,2,1,60,0,0
50920,-111.111111111111,4,2,10,5,0,0
51010,-111.111111111111,4,2,1,60,0,0
52178,-111.111111111111,4,2,10,5,0,0
52268,-111.111111111111,4,2,1,60,0,0
54425,-125,4,2,1,60,0,0
54783,-125,4,2,4,60,0,0
55052,-125,4,2,10,5,0,0
55142,-100,4,2,4,60,0,1
55501,-100,4,2,1,60,0,1
57926,-100,4,2,10,5,0,1
58016,-100,4,2,1,60,0,1
60082,-100,4,2,1,5,0,1
60172,-100,4,2,1,60,0,1
65922,-90.9090909090909,4,2,1,60,0,1
66549,-100,4,2,1,60,0,0
66639,-100,4,2,1,60,0,1
66909,-100,4,2,10,5,0,1
66999,-100,4,2,1,60,0,1
77328,-100,4,2,10,5,0,1
77417,-100,4,2,1,60,0,1
77597,-100,4,2,10,5,0,1
77687,-100,4,2,1,60,0,1
77867,-100,4,2,10,5,0,1
77957,-100,4,2,1,60,0,1
82986,-125,4,2,1,60,0,0
83795,-111.111111111111,4,2,1,60,0,1
83885,-111.111111111111,4,2,4,60,0,1
83974,-111.111111111111,4,2,4,60,0,0
84244,-111.111111111111,4,2,1,60,0,0
86938,-111.111111111111,4,2,1,20,0,0
87028,-111.111111111111,4,2,1,40,0,0
87118,-111.111111111111,4,2,1,60,0,0
87837,-111.111111111111,4,2,1,50,0,0
88196,-111.111111111111,4,2,1,40,0,0
88555,-111.111111111111,4,2,1,30,0,0
88735,-111.111111111111,4,2,1,20,0,0
88914,-111.111111111111,4,2,1,10,0,0
88916,-111.111111111111,4,2,1,10,0,0
89094,-111.111111111111,4,2,10,5,0,0

[Colours]
Combo1 : 168,133,188
Combo2 : 0,128,192
Combo3 : 177,142,78
Combo4 : 143,100,73

[HitObjects]
28,78,533,6,0,B|74:87|74:87|118:73|118:73|159:83,1,128,6|0,3:2|0:0,0:0:0:0:
221,156,1071,1,2,0:0:0:0:
235,36,1251,1,2,0:0:0:0:
138,162,1431,2,0,P|155:211|178:233,1,64,8|0,0:3|3:0,0:0:0:0:
337,152,1790,6,0,P|271:132|212:164,1,128,4|0,0:3|0:0,0:0:0:0:
279,276,2329,2,0,L|282:198,1,64,8|0,0:3|3:0,0:0:0:0:
334,88,2643,2,0,L|336:151,1,64,2|8,0:0|0:0,0:0:0:0:
343,276,3047,1,8,0:3:0:0:
311,276,3136,1,2,0:0:0:0:
279,276,3226,1,4,0:0:0:0:
424,207,3407,6,0,P|445:262|421:345,1,128,6|0,0:0|0:0,0:0:0:0:
341,376,3968,1,2,0:0:0:0:
279,276,4147,1,2,0:0:0:0:
165,370,4304,2,0,L|250:369,1,64,12|12,0:3|0:3,0:0:0:0:
169,246,4663,6,0,B|150:307|150:307|170:393,1,128,4|0,0:3|3:0,0:0:0:0:
241,190,5201,2,0,P|201:159|162:152,1,64,8|0,0:3|3:0,0:0:0:0:
47,165,5560,2,0,P|76:176|108:177,1,64,10|0,0:0|3:0,0:0:0:0:
148,66,5919,2,0,L|142:23,3,32,8|8|8|8,0:3|0:3|0:3|0:3,0:0:0:0:
197,74,6279,6,0,L|338:71,1,128,4|8,0:3|3:0,0:0:0:0:
426,110,6818,1,0,0:0:0:0:
327,199,6997,2,0,L|324:58,1,128,4|8,0:0|0:0,0:0:0:0:
418,17,7536,1,8,0:0:0:0:
493,166,7716,6,0,P|455:192|413:197,1,64,4|0,3:2|0:0,0:0:0:0:
272,168,8075,2,0,P|302:178|326:198,1,64,4|0,3:0|0:0,0:0:0:0:
398,342,8435,2,0,P|384:313|380:281,1,64,4|8,3:1|0:3,0:0:0:0:
265,337,8794,2,0,L|154:346,1,96,8|8,0:0|0:0,0:0:0:0:
123,324,9153,5,0,3:0:0:0:
89,193,9512,2,0,B|120:208|120:208|136:248|131:297,1,107.999996704102,10|0,0:0|0:0,0:0:0:0:
123,324,9871,1,0,3:0:0:0:
19,240,10051,2,0,P|5:190|24:137,1,107.999996704102,2|0,3:2|0:0,0:0:0:0:
52,104,10410,6,0,L|136:108,1,71.9999978027344,6|0,0:0|0:0,0:0:0:0:
257,25,10770,2,0,L|173:29,1,71.9999978027344,2|8,0:0|0:0,0:0:0:0:
247,126,11129,2,0,L|331:130,1,71.9999978027344,2|0,0:0|3:0,0:0:0:0:
452,47,11488,2,0,L|368:51,1,71.9999978027344,0|8,0:0|0:3,0:0:0:0:
247,126,11848,1,0,0:0:0:0:
262,145,11938,1,2,0:0:0:0:
277,166,12028,6,0,B|266:206|266:206|271:260,1,71.9999978027344,4|0,3:2|0:0,0:0:0:0:
316,329,12387,1,8,0:0:0:0:
412,243,12566,2,0,L|268:236,1,143.999995605469,2|0,0:0|3:0,0:0:0:0:
175,288,13105,1,8,0:0:0:0:
316,329,13285,6,0,L|459:335,1,143.999995605469,4|2,3:2|3:0,0:0:0:0:
412,243,13824,1,8,0:0:0:0:
459,335,14004,1,4,3:1:0:0:
256,192,14093,12,2,14902,0:0:0:0:
96,244,15261,6,0,P|88:279|91:312,1,64,2|0,3:0|0:0,0:0:0:0:
172,362,15620,1,2,3:0:0:0:
223,236,15800,2,0,L|83:244,1,128,0|0,0:0|0:0,0:0:0:0:
264,160,16339,6,0,P|299:194|295:283,1,128,2|2,3:0|3:0,0:0:0:0:
181,153,16878,2,0,P|192:114|229:82,1,64,0|2,0:0|3:0,0:0:0:0:
223,236,17237,1,2,0:0:0:0:
90,153,17417,1,8,0:0:0:0:
181,153,17596,1,2,0:0:0:0:
95,243,17776,6,0,P|35:228|-2:162,1,128,2|2,3:0|3:0,0:0:0:0:
95,89,18315,2,0,L|89:165,1,64,0|2,0:0|3:0,0:0:0:0:
181,153,18674,2,0,L|175:89,1,64,8|2,0:3|3:0,0:0:0:0:
266,89,19033,6,0,L|261:153,1,64,0|2,0:0|3:0,0:0:0:0:
399,137,19393,1,2,0:0:0:0:
376,135,19482,1,2,0:0:0:0:
354,133,19572,1,2,3:2:0:0:
266,89,19752,1,2,3:0:0:0:
322,219,19932,1,0,3:0:0:0:
344,48,20111,1,8,3:0:0:0:
385,222,20291,2,0,L|297:217,1,64,8|2,3:2|0:3,0:0:0:0:
471,317,20650,6,0,B|461:277|461:277|474:228|474:228|462:181,1,128,2|2,3:0|3:0,0:0:0:0:
490,94,21189,1,0,0:0:0:0:
399,137,21369,2,0,L|327:131,1,64,2|0,3:0|0:0,0:0:0:0:
218,64,21728,2,0,L|290:58,1,64,2|0,3:0|0:0,0:0:0:0:
164,137,22087,6,0,P|133:97|155:7,1,128,2|2,3:0|3:0,0:0:0:0:
38,67,22626,2,0,P|49:111|43:141,1,64,2|8,0:0|0:0,0:0:0:0:
126,264,22986,1,2,0:0:0:0:
164,137,23165,1,8,0:0:0:0:
42,213,23345,1,2,0:0:0:0:
200,215,23525,6,0,B|268:230|268:230|342:211,1,128,4|2,3:2|3:0,0:0:0:0:
434,281,24063,2,0,B|396:270|396:270|351:286,1,64,0|2,0:0|3:0,0:0:0:0:
234,308,24423,2,0,B|269:316|269:316|317:303,1,64,0|2,0:0|3:0,0:0:0:0:
435,217,24782,1,2,0:3:0:0:
434,248,24871,1,2,0:3:0:0:
433,280,24962,5,2,3:0:0:0:
379,364,25141,1,4,0:3:0:0:
324,215,25321,1,4,3:0:0:0:
433,280,25501,1,8,0:3:0:0:
390,133,25680,1,8,3:0:0:0:
324,215,25859,1,0,0:0:0:0:
477,133,26019,6,0,P|467:90|418:46,1,96,8|0,0:0|0:0,0:0:0:0:
385,43,26400,6,0,B|343:66|343:66|298:24|223:55,1,143.999995605469,4|10,0:0|3:1,0:0:0:0:
175,117,26939,1,0,0:0:0:0:
257,187,27118,2,0,P|281:136|282:98,1,71.9999978027344,2|0,3:0|0:0,0:0:0:0:
172,30,27477,1,8,0:0:0:0:
169,204,27656,6,0,L|159:354,1,143.999995605469,4|0,0:0|0:0,0:0:0:0:
54,302,28195,1,10,3:1:0:0:
25,194,28375,2,0,L|175:204,1,143.999995605469,0|2,0:0|0:0,0:0:0:0:
231,342,28914,2,0,L|140:348,1,71.9999978027344,10|0,3:1|0:0,0:0:0:0:
316,235,29273,6,0,B|294:320|344:299|307:404,1,143.999995605469,2|10,3:0|3:1,0:0:0:0:
407,267,29812,1,0,0:0:0:0:
325,165,29992,2,0,P|313:212|322:256,1,71.9999978027344,2|0,3:0|3:0,0:0:0:0:
407,267,30351,1,8,0:3:0:0:
398,122,30531,6,0,P|358:87|265:106,1,143.999995605469,4|0,0:1|0:0,0:0:0:0:
216,180,31069,1,10,3:1:0:0:
219,35,31249,1,0,0:0:0:0:
144,184,31429,2,0,L|224:179,1,71.9999978027344,2|0,3:0|3:0,0:0:0:0:
99,78,31788,2,0,L|19:73,1,71.9999978027344,8|0,0:3|0:0,0:0:0:0:
66,211,32148,6,0,B|55:157|96:120|96:120|103:82|94:60,1,143.999995605469,4|10,3:2|3:1,0:0:0:0:
143,183,32687,2,0,L|215:179,1,71.9999978027344,0|2,0:0|3:0,0:0:0:0:
94,308,33046,2,0,L|22:303,1,71.9999978027344,0|10,0:0|3:1,0:0:0:0:
200,278,33405,6,0,B|238:308|297:303|297:303|299:267|322:241,1,143.999995605469,0|0,0:0|0:0,0:0:0:0:
406,162,33944,2,0,B|399:208|399:208|420:256,1,71.9999978027344,10|0,3:1|0:0,0:0:0:0:
504,335,34303,2,0,B|484:303|461:297|461:297|411:330|356:292,1,143.999995605469,2|10,3:0|3:1,0:0:0:0:
312,375,34842,1,0,0:0:0:0:
318,151,35022,6,0,B|372:135|432:151|432:151|396:161|383:182,1,143.999995605469,6|10,3:0|3:1,0:0:0:0:
316,265,35560,1,0,0:0:0:0:
237,159,35740,2,0,P|244:116|270:84,1,71.9999978027344,2|0,3:0|3:0,0:0:0:0:
377,54,36099,1,8,0:3:0:0:
237,159,36280,6,0,B|154:134|180:185|90:154,1,128,4|4,0:0|0:0,0:0:0:0:
40,56,36819,6,0,P|119:90|33:129,1,223.999993164063,6|0,3:0|3:0,0:0:0:0:
66,368,37897,6,0,L|77:231,1,128,4|2,3:1|0:0,0:0:0:0:
175,240,38435,2,0,L|185:367,1,128,2|0,0:0|0:0,0:0:0:0:
66,368,38974,2,0,L|-4:364,1,64,8|0,0:3|0:0,0:0:0:0:
175,240,39333,6,0,L|245:236,1,64,2|0,0:0|0:0,0:0:0:0:
128,132,39692,1,0,0:0:0:0:
76,242,39872,1,2,0:0:0:0:
211,145,40052,2,0,P|203:98|192:75,1,64,0|0,0:0|3:0,0:0:0:0:
56,85,40411,2,0,P|45:114|41:146,1,64,8|0,0:3|0:0,0:0:0:0:
211,145,40770,6,0,P|268:117|346:152,1,128,4|2,3:2|0:0,0:0:0:0:
271,258,41309,2,0,L|275:184,1,64,2|0,0:0|0:0,0:0:0:0:
324,69,41669,2,0,L|327:132,1,64,0|8,0:0|0:3,0:0:0:0:
271,258,42028,6,0,L|409:247,1,128,0|0,0:0|0:0,0:0:0:0:
492,290,42566,1,0,0:0:0:0:
481,168,42746,1,2,0:0:0:0:
398,247,42926,2,0,P|388:298|392:326,1,64,0|0,0:0|0:0,0:0:0:0:
481,168,43285,2,0,P|480:136|471:105,1,64,8|0,0:3|0:0,0:0:0:0:
307,171,43645,6,0,B|264:183|264:183|215:169|215:169|175:179,1,128,4|2,0:0|0:0,0:0:0:0:
273,93,44184,2,0,B|282:57|282:57|274:13,1,64,2|0,0:0|0:0,0:0:0:0:
187,114,44543,2,0,B|178:150|178:150|186:194,1,64,0|8,0:0|0:3,0:0:0:0:
219,260,44902,1,0,0:0:0:0:
380,136,45082,6,0,P|349:100|250:105,1,128,2|2,3:0|0:0,0:0:0:0:
187,114,45620,1,0,0:0:0:0:
95,64,45800,2,0,P|89:19|99:-15,1,64,2|0,0:0|0:0,0:0:0:0:
184,51,46160,2,0,P|190:96|180:130,1,64,8|0,0:0|0:0,0:0:0:0:
82,155,46519,6,0,B|94:148|118:154|118:154|152:207|220:187,2,128,4|2|2,0:0|3:0|3:0,0:0:0:0:
83,275,47417,1,0,0:0:0:0:
185,261,47597,2,0,P|197:209|189:171,1,71.9999978027344,10|0,3:1|0:0,0:0:0:0:
13,261,47956,6,0,L|98:278,1,71.9999978027344,2|0,3:0|0:0,0:0:0:0:
255,245,48316,2,0,L|185:260,1,71.9999978027344,2|8,3:0|0:0,0:0:0:0:
17,345,48675,2,0,L|102:362,1,71.9999978027344,2|0,3:0|0:0,0:0:0:0:
255,331,49034,2,0,L|184:345,1,71.9999978027344,10|0,3:1|0:0,0:0:0:0:
336,204,49393,5,4,3:2:0:0:
348,350,49572,1,2,0:0:0:0:
251,247,49752,2,0,P|242:200|260:153,1,71.9999978027344,2|2,3:0|0:0,0:0:0:0:
426,311,50112,2,0,P|435:358|417:405,1,71.9999978027344,10|2,3:2|0:0,0:0:0:0:
255,331,50471,1,10,3:2:0:0:
418,226,50650,6,0,B|513:227|513:227|480:221|458:198,1,143.999995605469,2|2,0:0|0:0,0:0:0:0:
444,100,51189,1,2,0:0:0:0:
336,204,51369,2,0,L|192:211,1,143.999995605469,10|0,0:0|3:0,0:0:0:0:
91,107,51908,2,0,L|178:111,1,71.9999978027344,8|0,0:3|0:0,0:0:0:0:
30,187,52267,5,10,3:0:0:0:
48,21,52447,1,0,3:0:0:0:
116,192,52626,1,10,3:0:0:0:
130,21,52806,1,0,3:0:0:0:
4,97,52986,1,10,3:0:0:0:
209,42,53165,1,0,3:0:0:0:
30,187,53345,1,10,3:2:0:0:
48,21,53525,1,10,3:0:0:0:
61,273,53885,5,4,3:1:0:0:
146,318,54064,2,0,P|159:264|108:187,1,143.999995605469,4|2,3:1|0:0,0:0:0:0:
64,362,54603,5,0,3:0:0:0:
209,316,54783,2,0,L|137:318,1,64,12|0,0:0|0:0,0:0:0:0:
278,237,55142,6,0,B|331:251|331:251|392:236|392:236|438:247,1,160,4|10,3:1|3:1,0:0:0:0:
387,328,55681,1,0,0:0:0:0:
337,161,55861,1,2,3:0:0:0:
198,244,56040,2,0,L|284:236,1,80,0|10,3:0|3:1,0:0:0:0:
401,106,56399,6,0,P|345:79|256:132,1,160,4|0,3:1|0:0,0:0:0:0:
167,314,56938,2,0,P|194:277|195:231,1,80,10|2,3:1|0:1,0:0:0:0:
50,170,57298,2,0,P|81:193|121:197,1,80,2|0,3:0|0:0,0:0:0:0:
262,119,57657,2,0,P|222:124|191:149,1,80,10|0,3:1|0:0,0:0:0:0:
167,314,58017,5,2,3:0:0:0:
265,199,58196,1,2,0:0:0:0:
50,170,58376,2,0,L|46:272,1,80,10|2,3:1|0:0,0:0:0:0:
120,107,58735,1,2,3:0:0:0:
0,95,58915,1,2,3:2:0:0:
68,18,59094,1,10,3:1:0:0:
130,189,59274,6,0,B|161:187|179:162|179:162|212:217|276:197,1,160,4|2,3:2|3:2,0:0:0:0:
282,46,59813,2,0,P|253:96|247:136,1,80,10|0,3:1|0:0,0:0:0:0:
378,208,60172,2,0,P|312:187|237:220,1,120,2|0,3:0|0:0,0:0:0:0:
264,199,60531,2,0,L|265:290,1,80,12|0,3:1|0:0,0:0:0:0:
451,254,60891,6,0,P|463:202|390:115,1,160,4|10,3:2|3:1,0:0:0:0:
282,46,61430,2,0,L|379:41,1,80,2|2,0:0|3:0,0:0:0:0:
484,124,61789,2,0,L|387:119,1,80,2|10,0:0|3:1,0:0:0:0:
282,46,62148,1,0,0:0:0:0:
315,168,62328,6,0,B|313:301|313:301|285:270,1,160,2|10,3:0|3:1,0:0:0:0:
205,211,62867,1,0,0:0:0:0:
315,168,63046,2,0,P|365:160|400:168,1,80,2|0,3:0|0:0,0:0:0:0:
483,267,63406,2,0,P|433:275|398:267,1,80,10|0,3:1|0:0,0:0:0:0:
205,211,63765,6,0,B|176:114|233:131|214:46,2,160,6|10|2,3:2|3:1|3:0,0:0:0:0:
295,167,64663,1,0,0:0:0:0:
132,78,64843,1,10,3:1:0:0:
46,227,65023,6,0,L|228:209,1,160,4|0,3:1|3:0,0:0:0:0:
41,307,65561,2,0,L|48:211,1,80,10|0,3:1|0:0,0:0:0:0:
200,171,65920,6,0,L|205:215,3,40,8|8|8|8,0:3|0:3|0:3|0:3,0:0:0:0:
241,243,66280,2,0,L|236:286,3,44.0000013427735,8|8|8|8,0:1|0:1|0:1|0:1,0:0:0:0:
222,328,66639,6,0,B|349:326|349:326|318:296,1,160,4|10,3:0|3:1,0:0:0:0:
340,190,67178,1,0,0:0:0:0:
325,303,67358,2,0,B|312:343|312:343|326:383,1,80,2|0,3:0|3:0,0:0:0:0:
434,252,67717,1,10,0:1:0:0:
311,103,67897,6,0,P|257:156|278:257,1,160,4|0,3:2|0:0,0:0:0:0:
394,118,68436,2,0,P|385:61|352:26,1,80,10|0,3:1|0:0,0:0:0:0:
214,16,68795,2,0,P|270:25|314:4,1,80,2|0,3:0|0:0,0:0:0:0:
471,122,69154,2,0,P|414:112|370:133,1,80,10|0,3:1|0:0,0:0:0:0:
192,156,69514,6,0,P|245:171|311:99,1,160,2|10,3:0|3:2,0:0:0:0:
214,16,70052,2,0,B|214:62|214:62|244:102,1,80,2|2,0:0|3:0,0:0:0:0:
212,229,70412,2,0,B|212:183|212:183|182:143,1,80,2|10,0:0|3:1,0:0:0:0:
56,41,70771,6,0,L|227:13,1,160,4|0,3:1|0:0,0:0:0:0:
46,120,71310,2,0,L|57:29,1,80,10|0,3:1|0:0,0:0:0:0:
115,177,71669,2,0,L|126:313,1,120,4|0,3:2|3:0,0:0:0:0:
124,296,72029,2,0,L|38:293,1,80,8|0,0:1|3:0,0:0:0:0:
206,332,72388,6,0,B|247:361|247:361|312:361|365:318,1,160,4|10,3:3|3:0,0:0:0:0:
270,232,72927,1,0,3:0:0:0:
124,296,73106,1,10,3:0:0:0:
209,155,73286,1,0,3:0:0:0:
206,332,73466,1,10,3:0:0:0:
298,144,73645,6,0,P|260:84|161:77,1,160,4|0,3:0|3:0,0:0:0:0:
270,232,74184,2,0,P|336:232|371:205,1,80,8|2,3:0|3:0,0:0:0:0:
385,68,74543,2,0,P|385:134|412:169,1,80,10|0,3:0|3:0,0:0:0:0:
512,212,74903,2,0,P|446:212|411:239,1,80,10|0,3:0|3:0,0:0:0:0:
272,374,75262,6,0,P|301:302|269:231,1,160,4|10,3:0|3:0,0:0:0:0:
134,301,75801,2,0,B|179:311|179:311|235:296,1,80,0|10,3:0|3:0,0:0:0:0:
208,163,76160,2,0,B|163:153|163:153|107:168,1,80,0|10,3:0|3:0,0:0:0:0:
269,231,76520,6,0,P|296:176|256:89,1,160,4|0,3:1|3:0,0:0:0:0:
60,122,77058,2,0,P|51:172|65:213,1,80,10|0,3:1|0:0,0:0:0:0:
159,28,77418,2,0,B|81:56|102:13|18:37,2,120,6|6|6,0:0|0:1|0:3,0:0:0:0:
335,86,78136,6,0,P|296:82|257:90,1,80,4|0,3:1|3:0,0:0:0:0:
411,180,78496,1,8,3:0:0:0:
486,95,78675,2,0,P|426:69|319:99,1,160,4|0,3:2|3:0,0:0:0:0:
405,259,79214,2,0,L|411:168,1,80,8|0,3:1|3:0,0:0:0:0:
328,303,79573,5,12,3:1:0:0:
495,248,79753,1,0,3:0:0:0:
407,347,79933,1,8,3:0:0:0:
328,214,80112,2,0,L|160:217,1,160,4|0,3:0|3:0,0:0:0:0:
83,290,80651,2,0,L|78:373,1,80,10|8,3:0|3:0,0:0:0:0:
168,216,81011,5,10,3:1:0:0:
14,210,81190,1,0,3:0:0:0:
175,309,81370,1,10,3:1:0:0:
100,124,81549,1,0,3:0:0:0:
83,290,81729,1,10,3:1:0:0:
187,125,81909,1,0,3:0:0:0:
14,210,82088,1,10,3:1:0:0:
175,309,82268,5,12,3:0:0:0:
171,262,82627,1,12,3:0:0:0:
168,216,82987,1,10,0:2:0:0:
167,82,83885,6,0,B|136:125|134:158|134:158|156:191,1,107.999996704102,4|0,0:0|0:0,0:0:0:0:
168,216,84244,2,0,L|269:207,1,71.9999978027344,10|2,3:2|0:0,0:0:0:0:
299,122,84603,1,2,3:2:0:0:
261,18,84783,1,2,3:2:0:0:
167,82,84963,1,8,3:0:0:0:
335,206,85142,6,0,P|380:154|379:92,1,107.999996704102,4|0,3:2|0:0,0:0:0:0:
371,71,85502,2,0,L|455:69,1,71.9999978027344,0|10,3:0|3:1,0:0:0:0:
442,214,85861,2,0,L|319:204,1,107.999996704102,2|0,0:0|0:0,0:0:0:0:
335,206,86220,2,0,L|324:262,1,35.9999989013672,8|8,3:0|3:0,0:0:0:0:
243,254,86400,2,0,L|254:313,1,35.9999989013672,8|8,3:0|3:0,0:0:0:0:
336,337,86579,1,8,3:0:0:0:
186,345,86759,6,0,L|87:337,1,71.9999978027344,4|0,0:0|0:0,0:0:0:0:
114,339,87028,1,8,0:0:0:0:
114,339,87118,1,8,0:0:0:0:
176,198,87298,1,6,3:1:0:0:
256,192,87388,12,0,89094,0:0:0:0:
