osu file format v14

[General]
AudioFilename: Dream.mp3
AudioLeadIn: 0
PreviewTime: 54244
Countdown: 0
SampleSet: Soft
StackLeniency: 0.7
Mode: 0
LetterboxInBreaks: 0
WidescreenStoryboard: 0

[Editor]
Bookmarks: 5579,8813,9678,14888,18494,20389,31796,37844,46527,60819,60899,68454,73106
DistanceSpacing: 1.3
BeatDivisor: 6
GridSize: 4
TimelineZoom: 2.599999

[Metadata]
Title:DREAM SOLISTER (TV Size)
TitleUnicode:DREAM SOLISTER (TV Size)
Artist:TRUE
ArtistUnicode:TRUE
Creator:Nevo
Version:Renumi's Easy
Source:響け!ユーフォニアム
Tags:Hibike! Euphonium opening Shiratoi Yamicchi Linada WORSTPOLACKEU Renumi Agatsu ShogunMoon [[Pika]] armin a_r_m_i_n FoxyGrandpa Shunao
BeatmapID:1308944
BeatmapSetID:499482

[Difficulty]
HPDrainRate:2
CircleSize:2.5
OverallDifficulty:3
ApproachRate:2.5
SliderMultiplier:0.75
SliderTickRate:1

[Events]
//Background and Video events
0,0,"wnig_ahuklwgar.jpg",0,0
//Break Periods
//Storyboard Layer 0 (Background)
//Storyboard Layer 1 (Fail)
//Storyboard Layer 2 (Pass)
//Storyboard Layer 3 (Foreground)
//Storyboard Sound Samples

[TimingPoints]
533,359.281437125748,4,2,1,60,1,0
2329,-100,4,2,2,60,0,0
2643,359.281437125748,4,3,3,60,1,0
3047,359.281437125748,4,2,1,60,1,0
3136,-100,4,3,3,60,0,0
3407,359.281437125748,4,2,1,60,1,0
3968,359.281437125748,4,2,1,60,1,0
4304,359.281437125748,4,2,3,60,1,0
4663,-100,4,2,2,60,0,0
4842,359.281437125748,4,2,1,60,1,0
7985,-100,4,2,10,5,0,0
8075,-100,4,2,1,60,0,0
8344,-100,4,2,10,5,0,0
8434,-100,4,2,1,60,0,0
9422,-100,4,2,10,5,0,0
9512,-100,4,2,1,60,0,0
13554,-100,4,2,10,5,0,0
13644,-100,4,2,3,60,0,0
13824,-100,4,2,1,60,0,0
15262,-100,4,2,1,60,0,0
17237,-100,4,3,3,60,0,0
17776,-100,4,2,1,60,0,0
18674,-100,4,2,1,35,0,0
18853,-100,4,2,1,60,0,0
22626,-100,4,3,3,60,0,0
23524,-100,4,2,1,60,0,0
24782,-100,4,2,3,60,0,0
25859,-100,4,3,1,60,0,0
26019,359.281437125748,4,3,1,80,1,0
26400,359.281437125748,4,2,1,80,1,0
28735,-100,4,3,3,60,0,0
28914,-100,4,2,1,60,0,0
44004,-100,4,2,2,60,0,0
44184,-100,4,2,1,60,0,0
44364,-100,4,2,11,60,0,0
44498,-100,4,2,1,60,0,0
45441,-100,4,2,2,60,0,0
46160,-100,4,2,1,60,0,0
46519,-100,4,2,2,60,0,0
46879,-100,4,2,1,60,0,0
50920,-100,4,2,10,5,0,0
51010,-100,4,2,1,60,0,0
52178,-100,4,2,10,5,0,0
52268,-100,4,2,1,60,0,0
54783,-100,4,2,4,60,0,1
55052,-100,4,2,10,5,0,1
55142,-100,4,2,4,60,0,1
55501,-100,4,2,1,60,0,1
57926,-100,4,2,10,5,0,1
58016,-100,4,2,1,60,0,1
60082,-100,4,2,1,5,0,1
60172,-100,4,2,1,60,0,1
66909,-100,4,2,10,5,0,1
66999,-100,4,2,1,60,0,1
71669,-100,4,2,1,60,0,1
77328,-100,4,2,10,5,0,1
77417,-100,4,2,1,60,0,1
77597,-100,4,2,10,5,0,1
77687,-100,4,2,1,60,0,1
77867,-100,4,2,10,5,0,1
77957,-100,4,2,1,60,0,1
82986,-100,4,2,1,60,0,0
83885,-100,4,2,4,60,0,0
84244,-100,4,2,1,60,0,0
86938,-100,4,2,1,20,0,0
87028,-100,4,2,1,40,0,0
87118,-100,4,2,1,60,0,0
87837,-100,4,2,1,50,0,0
88196,-100,4,2,1,40,0,0
88555,-100,4,2,1,30,0,0
88735,-100,4,2,1,20,0,0
88914,-100,4,2,1,10,0,0
89094,-71.4285714285714,4,2,10,5,0,0

[Colours]
Combo1 : 240,171,79
Combo2 : 145,0,145
Combo3 : 255,128,192

[HitObjects]
48,320,533,6,0,B|84:316|116:348|116:348|152:332|152:332|184:356|220:352,1,187.5,6|8,3:2|0:3,0:0:0:0:
288,280,1790,2,0,B|400:268,1,112.5,4|8,0:3|0:3,0:0:0:0:
483,287,2643,2,0,B|488:248|488:248|468:216,1,75,2|0,0:0|0:0,0:0:0:0:
480,107,3406,6,0,B|444:103|412:135|412:135|376:119|376:119|344:143|308:139,1,187.5,6|12,0:0|0:3,0:0:0:0:
256,56,4663,2,0,P|220:92|216:164,1,112.5,4|8,0:3|0:3,0:0:0:0:
168,236,5560,2,0,B|129:241|129:241|100:219,1,75,10|8,0:0|0:3,0:0:0:0:
4,200,6279,6,0,L|12:276,1,75,4|8,0:3|3:0,0:0:0:0:
92,332,6997,2,0,L|166:339,1,75,4|8,0:0|0:0,0:0:0:0:
256,380,7716,1,4,3:2:0:0:
324,308,8075,1,4,3:0:0:0:
416,340,8434,2,0,L|490:332,2,75,4|8|0,3:1|0:0|3:0,0:0:0:0:
324,308,9512,6,0,B|308:272|308:272|320:184,1,112.5,10|2,0:0|3:2,0:0:0:0:
280,108,10410,2,0,B|244:124|244:124|228:164,1,75,6|2,0:0|0:0,0:0:0:0:
212,256,11129,2,0,B|207:295|207:295|234:329,2,75,2|0|0,0:0|0:0|0:0,0:0:0:0:
172,228,12027,6,0,P|140:204|100:188,1,75,4|8,3:2|0:0,0:0:0:0:
52,112,12746,2,0,P|86:96|115:74,1,75,0|8,3:0|0:0,0:0:0:0:
140,32,13285,2,0,B|216:20|200:84|292:56,1,150,4|4,3:2|3:1,0:0:0:0:
492,184,14901,6,0,B|457:199|457:199|438:241,1,75,2|2,0:0|3:0,0:0:0:0:
400,320,15620,2,0,L|312:324,1,75,2|2,3:0|3:0,0:0:0:0:
244,376,16339,2,0,B|209:361|209:361|190:319,2,75,2|2|2,3:0|3:0|3:0,0:0:0:0:
325,323,17416,1,8,0:0:0:0:
376,240,17776,6,0,P|380:212|391:165,1,75,2|2,3:0|3:0,0:0:0:0:
485,126,18494,2,0,P|489:154|500:201,1,75,2|2,3:0|3:0,0:0:0:0:
453,292,19213,2,0,B|427:331|427:331|312:321,1,150,2|0,3:0|3:0,0:0:0:0:
244,376,20291,1,8,3:2:0:0:
164,320,20650,6,0,B|148:284|148:284|157:239,1,75,2|2,3:0|3:0,0:0:0:0:
248,220,21368,2,0,L|255:139,1,75,2|2,3:0|3:0,0:0:0:0:
336,92,22087,2,0,B|342:57|342:57|326:21,2,75,2|2|8,3:0|3:0|0:0,0:0:0:0:
254,145,23165,1,8,0:0:0:0:
164,180,23524,6,0,B|124:176|124:176|80:196,1,75,4|2,3:2|3:0,0:0:0:0:
28,264,24243,2,0,B|4:296|4:296|0:344,1,75,2|2,3:0|3:0,0:0:0:0:
96,360,24961,2,0,B|148:336|148:336|192:352|192:352|248:328,1,150,2|8,3:0|3:0,0:0:0:0:
324,348,26019,1,8,0:0:0:0:
392,272,26400,6,0,L|376:196,1,75,4|10,0:0|3:1,0:0:0:0:
316,120,27118,2,0,B|276:132|256:160|256:160|236:144|208:144,1,112.5,2|4,3:0|0:0,0:0:0:0:
84,88,28196,1,10,3:1:0:0:
64,184,28555,2,0,L|48:257,1,75,2|10,3:0|3:1,0:0:0:0:
36,356,29274,6,0,L|109:340,1,75,2|10,3:0|3:1,0:0:0:0:
192,288,29992,2,0,B|232:300|252:328|252:328|272:312|300:312,1,112.5,2|4,3:0|0:1,0:0:0:0:
416,244,31070,1,10,3:1:0:0:
492,184,31429,2,0,P|484:144|460:104,1,75,2|8,3:0|0:3,0:0:0:0:
396,48,32148,6,0,B|372:76|372:76|328:84,1,75,4|10,3:2|3:1,0:0:0:0:
244,44,32867,2,0,B|192:16|192:16|132:32,2,112.5,2|0|10,3:0|0:0|3:1,0:0:0:0:
260,140,34303,2,0,L|266:220,1,75,2|10,3:0|3:1,0:0:0:0:
328,288,35022,6,0,B|365:294|365:294|389:322,2,75,6|10|2,3:0|3:1|3:0,0:0:0:0:
223,193,36280,2,0,B|228:120|228:120|236:128|271:146,1,112.5,4|6,0:0|3:0,0:0:0:0:
464,344,37896,6,0,B|339:306|364:412|240:368,1,225,4|8,3:1|0:3,0:0:0:0:
188,296,39333,2,0,P|151:270|73:285,2,112.5,2|2|8,0:0|0:0|0:3,0:0:0:0:
288,280,40771,6,0,B|276:132|276:132|308:168|356:168,1,225,4|8,3:2|0:3,0:0:0:0:
429,213,42208,2,0,L|504:220,1,75,2|2,0:0|0:0,0:0:0:0:
502,117,42926,2,0,L|428:124,1,75,0|8,0:0|0:3,0:0:0:0:
356,60,43645,6,0,B|298:58|270:118|270:118|222:78|162:98,1,225,4|8,0:0|0:3,0:0:0:0:
76,56,45082,2,0,P|60:92|60:128,1,75,2|2,3:0|0:0,0:0:0:0:
0,204,45801,2,0,P|23:235|54:253,1,75,2|8,0:0|0:0,0:0:0:0:
140,204,46519,6,0,B|180:199|180:199|209:219,2,75,4|2|2,0:0|3:0|3:0,0:0:0:0:
53,253,47597,1,10,3:1:0:0:
124,320,47956,2,0,B|153:340|153:340|193:335,1,75,2|2,3:0|3:0,0:0:0:0:
276,284,48675,2,0,B|305:264|305:264|345:269,1,75,2|10,3:0|3:1,0:0:0:0:
432,232,49393,6,0,L|440:156,1,75,4|2,3:2|3:0,0:0:0:0:
412,64,50112,2,0,B|468:56|468:56|520:100,2,112.5,10|2|2,3:2|0:0|0:0,0:0:0:0:
344,132,51549,2,0,L|268:124,1,75,2|8,3:2|0:3,0:0:0:0:
192,184,52268,5,10,3:0:0:0:
108,136,52627,1,10,3:0:0:0:
56,220,52986,2,0,B|88:256|88:256|92:280|92:280|124:312,1,112.5,10|10,3:0|3:0,0:0:0:0:
220,316,53885,6,0,B|248:287|248:287|252:263|252:263|284:227,1,112.5,4|2,3:1|0:0,0:0:0:0:
380,252,54782,1,12,0:0:0:0:
472,216,55141,6,0,L|456:140,1,75,4|10,3:1|3:1,0:0:0:0:
412,56,55860,2,0,P|456:22|512:28,2,112.5,2|4|10,3:0|3:1|3:1,0:0:0:0:
360,140,57298,2,0,L|286:124,1,75,2|10,3:0|3:1,0:0:0:0:
244,36,58016,2,0,L|170:52,1,75,2|10,3:0|3:1,0:0:0:0:
100,116,58735,2,0,B|76:156|76:156|96:236,2,112.5,2|4|10,3:0|3:2|3:1,0:0:0:0:
192,144,60172,2,0,L|184:232,1,75,2|12,3:0|3:1,0:0:0:0:
136,304,60891,6,0,P|104:308|48:372,2,112.5,4|2|10,3:2|0:0|3:1,0:0:0:0:
232,320,62328,1,2,3:0:0:0:
312,264,62687,2,0,L|296:228|252:204,2,75,10|2|10,3:1|3:0|3:1,0:0:0:0:
408,244,63765,6,0,L|492:236,2,75,6|10|2,3:2|3:1|3:0,0:0:0:0:
264,210,65022,2,0,B|252:168|252:168|276:92,1,112.5,4|10,3:1|3:1,0:0:0:0:
208,28,65920,2,0,L|133:20,1,75,8|8,0:3|0:1,0:0:0:0:
44,60,66639,5,4,3:0:0:0:
100,140,66998,1,10,3:1:0:0:
56,228,67358,2,0,P|20:236|-24:304,2,112.5,2|4|10,3:0|3:2|3:1,0:0:0:0:
124,296,68795,2,0,P|152:320|200:324,1,75,2|10,3:0|3:1,0:0:0:0:
252,252,69513,2,0,P|280:228|328:224,1,75,2|10,3:0|3:2,0:0:0:0:
412,244,70232,2,0,B|432:204|432:204|404:128,2,112.5,2|4|10,3:0|3:1|3:1,0:0:0:0:
344,316,71669,1,4,3:2:0:0:
432,360,72028,1,8,0:1:0:0:
504,300,72388,6,0,B|492:212,1,75,4|10,3:3|3:0,0:0:0:0:
480,128,73106,2,0,B|397:94,1,75,10|10,3:0|3:0,0:0:0:0:
396,52,73645,2,0,B|360:24|360:24|280:32,1,112.5,4|8,3:0|3:0,0:0:0:0:
200,4,74543,2,0,B|160:0|160:0|124:24,1,75,10|10,3:0|3:0,0:0:0:0:
104,112,75262,6,0,B|186:145,1,75,4|10,3:0|3:0,0:0:0:0:
220,224,75980,2,0,B|256:195|256:195|337:203,2,112.5,10|4|10,3:0|3:1|3:1,0:0:0:0:
124,228,77417,2,0,B|108:342,1,112.5,6|6,0:0|0:3,0:0:0:0:
144,372,78136,6,0,B|184:364|184:364|204:376|204:376|256:364,1,112.5,4|4,3:1|3:2,0:0:0:0:
376,284,79214,1,8,3:1:0:0:
322,202,79573,2,0,B|282:194|282:194|262:206|262:206|210:194,2,112.5,12|4|10,3:1|3:0|3:0,0:0:0:0:
420,200,81010,5,10,3:1:0:0:
496,260,81370,1,10,3:1:0:0:
429,331,81729,2,0,B|412:296|412:296|373:283,1,75,10|10,3:1|3:1,0:0:0:0:
336,312,82268,6,0,L|252:320,2,75,12|12|10,3:0|3:0|0:2,0:0:0:0:
508,76,83885,5,4,0:0:0:0:
424,124,84244,2,0,B|380:84|380:84|312:88,1,112.5,10|2,3:2|3:2,0:0:0:0:
260,156,85142,2,0,L|180:152,1,75,4|0,3:2|3:0,0:0:0:0:
108,212,85861,2,0,L|112:292,1,75,2|8,0:0|3:0,0:0:0:0:
88,328,86399,6,0,L|168:324,1,75,8|4,3:0|3:2,0:0:0:0:
308,316,87298,5,6,3:1:0:0:
256,192,87477,12,0,89093,0:0:0:0:
