osu file format v14

[General]
AudioFilename: Dream.mp3
AudioLeadIn: 0
PreviewTime: 54244
Countdown: 0
SampleSet: Soft
StackLeniency: 0.7
Mode: 0
LetterboxInBreaks: 0
WidescreenStoryboard: 1

[Editor]
DistanceSpacing: 0.4
BeatDivisor: 4
GridSize: 4
TimelineZoom: 2

[Metadata]
Title:DREAM SOLISTER (TV Size)
TitleUnicode:DREAM SOLISTER (TV Size)
Artist:TRUE
ArtistUnicode:TRUE
Creator:Nevo
Version:Linada's Extra
Source:響け!ユーフォニアム
Tags:Hibike! Euphonium opening Shiratoi Yamicchi Linada WORSTPOLACKEU Renumi Agatsu ShogunMoon [[Pika]] armin a_r_m_i_n FoxyGrandpa Shunao
BeatmapID:1120405
BeatmapSetID:499482

[Difficulty]
HPDrainRate:6.2
CircleSize:3.8
OverallDifficulty:9
ApproachRate:9.2
SliderMultiplier:1.5
SliderTickRate:1

[Events]
//Background and Video events
0,0,"Linada.jpg",0,0
//Break Periods
//Storyboard Layer 0 (Background)
//Storyboard Layer 1 (Fail)
//Storyboard Layer 2 (Pass)
//Storyboard Layer 3 (Foreground)
//Storyboard Sound Samples

[TimingPoints]
533,359.281437125748,4,2,1,60,1,0
533,-80,4,2,1,60,0,0
2329,-100,4,2,2,60,0,0
2643,359.281437125748,4,3,3,60,1,0
3047,359.281437125748,4,2,1,60,1,0
3136,-100,4,3,3,60,0,0
3407,359.281437125748,4,2,1,60,1,0
3968,359.281437125748,4,2,1,60,1,0
4304,359.281437125748,4,2,3,60,1,0
4304,-80,4,2,3,60,0,0
4663,-80,4,2,2,60,0,0
4842,359.281437125748,4,2,1,60,1,0
4842,-80,4,2,1,60,0,0
6638,-66.6666666666667,4,2,1,60,0,0
7985,-66.6666666666667,4,2,10,5,0,0
8075,-66.6666666666667,4,2,1,60,0,0
8344,-66.6666666666667,4,2,10,5,0,0
8434,-66.6666666666667,4,2,1,60,0,0
8794,-50,4,2,1,60,0,0
9153,-76.9230769230769,4,2,1,60,0,0
9422,-76.9230769230769,4,2,10,5,0,0
9512,-76.9230769230769,4,2,1,60,0,0
10410,-200,4,2,1,60,0,0
10770,-142.857142857143,4,2,1,60,0,0
11129,-111.111111111111,4,2,1,60,0,0
11488,-90.9090909090909,4,2,1,60,0,0
11847,-71.4285714285714,4,2,1,60,0,0
12027,-76.9230769230769,4,2,1,60,0,0
13554,-76.9230769230769,4,2,10,5,0,0
13644,-76.9230769230769,4,2,3,60,0,0
13824,-76.9230769230769,4,2,1,60,0,0
14003,-133.333333333333,4,2,1,60,0,0
14901,-83.3333333333333,4,2,1,20,0,0
15262,-83.3333333333333,4,2,1,60,0,0
17237,-83.3333333333333,4,3,3,60,0,0
17776,-83.3333333333333,4,2,1,60,0,0
18674,-83.3333333333333,4,2,1,35,0,0
18853,-83.3333333333333,4,2,1,60,0,0
22626,-83.3333333333333,4,3,3,60,0,0
23524,-83.3333333333333,4,2,1,60,0,0
24782,-83.3333333333333,4,2,3,60,0,0
25859,-83.3333333333333,4,3,1,60,0,0
26019,359.281437125748,4,3,1,60,1,0
26400,359.281437125748,4,2,1,60,1,0
26400,-83.3333333333333,4,2,1,60,0,0
28735,-100,4,3,3,60,0,0
28914,-83.3333333333333,4,2,1,60,0,0
36819,-200,4,2,1,50,0,0
37897,-200,4,2,1,60,0,0
43645,-100,4,2,1,60,0,0
44004,-100,4,2,2,60,0,0
44184,-100,4,2,1,60,0,0
44364,-100,4,2,11,60,0,0
44498,-100,4,2,1,60,0,0
45441,-83.3333333333333,4,2,2,60,0,0
46160,-83.3333333333333,4,2,1,60,0,0
46519,-100,4,2,2,60,0,0
46879,-100,4,2,1,60,0,0
47956,-83.3333333333333,4,2,1,60,0,0
50920,-83.3333333333333,4,2,10,5,0,0
51010,-83.3333333333333,4,2,1,65,0,0
52178,-83.3333333333333,4,2,10,5,0,0
52268,-83.3333333333333,4,2,1,70,0,0
54783,-57.1428571428571,4,2,4,60,0,0
55052,-57.1428571428571,4,2,10,5,0,0
55142,-76.9230769230769,4,2,4,75,0,1
55501,-76.9230769230769,4,2,1,75,0,1
57926,-76.9230769230769,4,2,10,5,0,1
58016,-76.9230769230769,4,2,1,75,0,1
60082,-76.9230769230769,4,2,1,5,0,1
60172,-76.9230769230769,4,2,1,75,0,1
60531,-66.6666666666667,4,2,1,75,0,1
60801,-66.6666666666667,4,2,1,75,0,1
60891,-76.9230769230769,4,2,1,75,0,1
65920,-76.9230769230769,4,2,1,75,0,1
66100,-76.9230769230769,4,2,1,75,0,1
66280,-76.9230769230769,4,2,1,75,0,1
66459,-76.9230769230769,4,2,1,75,0,1
66640,-71.4285714285714,4,2,1,75,0,1
66909,-71.4285714285714,4,2,10,5,0,1
66999,-71.4285714285714,4,2,1,75,0,1
67897,-62.5,4,2,1,75,0,1
71669,-62.5,4,2,1,80,0,1
72388,-62.5,4,2,1,80,0,1
73645,-71.4285714285714,4,2,1,80,0,1
75262,-66.6666666666667,4,2,1,80,0,1
77328,-66.6666666666667,4,2,10,5,0,1
77417,-76.9230769230769,4,2,1,75,0,1
77597,-76.9230769230769,4,2,10,5,0,1
77687,-76.9230769230769,4,2,1,75,0,1
77867,-76.9230769230769,4,2,10,5,0,1
77957,-76.9230769230769,4,2,1,75,0,1
78137,-66.6666666666667,4,2,1,75,0,1
78675,-66.6666666666667,4,2,1,75,0,1
79573,-66.6666666666667,4,2,1,80,0,1
80112,-50,4,2,1,80,0,1
81011,-66.6666666666667,4,2,1,90,0,1
82986,-133.333333333333,4,2,1,75,0,1
83525,-133.333333333333,4,2,1,75,0,1
83885,-83.3333333333333,4,2,4,60,0,0
84244,-83.3333333333333,4,2,1,60,0,0
85143,-71.4285714285714,4,2,1,60,0,0
86759,-33.3333333333333,4,2,1,60,0,0
87028,-71.4285714285714,4,2,1,40,0,0
87118,-71.4285714285714,4,2,1,60,0,0
87388,-71.4285714285714,4,2,1,60,0,0
87837,-71.4285714285714,4,2,1,50,0,0
88196,-71.4285714285714,4,2,1,40,0,0
88555,-71.4285714285714,4,2,1,30,0,0
88735,-71.4285714285714,4,2,1,20,0,0
88914,-71.4285714285714,4,2,1,10,0,0
89094,-71.4285714285714,4,2,10,5,0,0

[Colours]
Combo1 : 173,91,255
Combo2 : 121,188,255
Combo3 : 255,128,128
Combo4 : 255,165,121

[HitObjects]
118,111,533,5,6,3:2:0:0:
108,127,1071,5,2,0:0:0:0:
84,12,1251,1,2,0:0:0:0:
126,218,1431,2,0,L|144:309,1,93.75,8|0,0:3|3:0,0:0:0:0:
411,200,1790,6,0,B|369:193|339:210|339:210|302:197|302:197|274:210|230:204,1,187.5,4|0,0:3|0:0,0:0:0:0:
389,349,2329,2,0,P|395:312|386:276,1,75,8|0,0:3|3:0,0:0:0:0:
261,115,2643,6,0,P|258:96|259:78,2,37.5,2|4|8,0:0|0:0|0:0,0:0:0:0:
366,0,3047,2,0,P|369:18|369:37,2,37.5,8|2|4,0:3|0:0|0:0,0:0:0:0:
219,219,3406,5,6,0:0:0:0:
208,234,3968,5,2,0:0:0:0:
153,104,4147,1,2,0:0:0:0:
349,191,4304,5,12,0:3:0:0:
197,250,4483,1,12,0:3:0:0:
357,10,4663,6,0,B|316:107|388:106|349:192,1,187.5,4|0,0:3|3:0,0:0:0:0:
184,269,5202,5,8,0:3:0:0:
153,104,5381,1,0,3:0:0:0:
106,321,5561,5,10,0:0:0:0:
143,86,5741,1,0,3:0:0:0:
260,330,5920,5,8,0:3:0:0:
265,340,6010,1,8,0:3:0:0:
270,350,6100,1,8,0:3:0:0:
276,360,6190,1,8,0:3:0:0:
283,370,6280,6,0,B|344:390|409:374|409:374|380:344|345:350,1,187.5,4|8,0:3|3:0,0:0:0:0:
220,264,6818,1,0,0:0:0:0:
331,0,6998,6,0,B|337:51|317:80|317:80|333:117|333:117|310:145|310:145|317:183|305:225,1,225.000008583069,4|8,0:0|0:0,0:0:0:0:
255,273,7447,1,8,0:0:0:0:
244,271,7537,1,8,0:0:0:0:
232,269,7627,1,8,0:0:0:0:
220,264,7717,6,0,B|172:253|149:218|149:218|108:212|63:238,1,168.750006437302,4|0,3:2|0:0,0:0:0:0:
269,327,8076,6,0,P|298:253|246:192,1,168.750006437302,4|0,3:0|0:0,0:0:0:0:
123,298,8435,6,0,P|178:300|220:264,1,112.500004291535,4|8,3:1|0:3,0:0:0:0:
188,120,8705,1,8,0:3:0:0:
203,101,8795,6,0,B|240:87|240:87|276:89,1,75,8|8,0:0|0:0,0:0:0:0:
285,186,8974,2,0,B|318:200|318:200|357:198,1,75,8|8,0:0|0:0,0:0:0:0:
404,125,9154,6,0,P|446:182|433:252,1,146.249993305207,0|0,3:0|0:0,0:0:0:0:
415,287,9513,1,10,0:0:0:0:
285,186,9693,1,2,0:0:0:0:
430,110,9872,5,0,3:0:0:0:
308,292,10052,1,2,3:2:0:0:
433,252,10232,1,8,0:0:0:0:
227,167,10411,6,0,P|208:168|190:174,1,37.5,6|0,0:0|0:0,0:0:0:0:
93,284,10771,6,0,P|107:262|115:237,1,52.4999983978272,2|8,0:0|0:0,0:0:0:0:
56,77,11129,6,0,P|67:109|90:134,1,67.4999979400635,2|0,0:0|3:0,0:0:0:0:
271,176,11489,6,0,P|231:167|190:174,1,82.5000025177003,2|8,0:0|0:3,0:0:0:0:
93,284,11847,6,0,P|107:262|115:237,1,52.4999983978272,0|2,0:0|0:0,0:0:0:0:
182,77,12028,6,0,B|191:175,1,97.4999955368044,6|0,3:3|0:0,0:0:0:0:
208,348,12387,1,8,0:0:0:0:
341,273,12567,5,2,0:0:0:0:
227,251,12747,1,0,3:0:0:0:
417,182,12926,1,0,3:0:0:0:
376,381,13106,1,8,0:0:0:0:
385,100,13286,6,0,P|455:104|500:160,1,146.249993305207,6|0,3:2|0:0,0:0:0:0:
506,198,13645,1,2,3:0:0:0:
428,332,13824,1,8,0:0:0:0:
371,24,14004,1,4,3:1:0:0:
256,192,14094,12,4,14902,0:0:0:0:
169,195,15262,6,0,P|213:204|256:192,1,89.9999972534181,2|0,3:0|0:0,0:0:0:0:
331,93,15621,1,2,3:0:0:0:
198,30,15801,2,0,L|208:120,1,89.9999972534181,0|2,0:0|3:0,0:0:0:0:
229,295,16160,1,0,0:0:0:0:
376,205,16339,6,0,P|332:194|288:200,1,89.9999972534181,2|0,3:0|0:0,0:0:0:0:
210,304,16699,1,2,3:0:0:0:
347,369,16878,2,0,L|327:281,1,89.9999972534181,0|2,0:0|3:0,0:0:0:0:
322,113,17238,5,2,0:0:0:0:
229,295,17417,1,8,0:0:0:0:
118,131,17597,1,2,0:0:0:0:
288,200,17777,6,0,P|332:205|375:195,1,89.9999972534181,2|0,3:0|0:0,0:0:0:0:
431,79,18136,1,2,3:0:0:0:
329,26,18315,2,0,P|316:68|322:113,1,89.9999972534181,0|2,0:0|3:0,0:0:0:0:
407,307,18675,1,8,0:3:0:0:
407,307,18765,1,8,0:3:0:0:
407,307,18854,2,0,P|412:262|399:220,1,89.9999972534181,2|0,3:0|0:0,0:0:0:0:
238,135,19214,1,2,3:0:0:0:
327,270,19393,5,2,0:0:0:0:
325,281,19483,1,2,0:0:0:0:
323,292,19573,1,2,3:2:0:0:
321,112,19753,1,2,3:0:0:0:
201,261,19932,1,0,3:0:0:0:
407,307,20112,5,8,3:0:0:0:
418,309,20202,1,8,3:0:0:0:
429,311,20292,1,8,3:2:0:0:
248,347,20471,1,2,0:3:0:0:
321,112,20651,2,0,P|331:155|322:199,1,89.9999972534181,2|0,3:0|0:0,0:0:0:0:
169,335,21010,5,2,3:0:0:0:
248,158,21190,1,0,0:0:0:0:
97,209,21369,1,2,3:0:0:0:
281,276,21549,2,0,P|324:287|367:277,1,89.9999972534181,0|2,0:0|3:0,0:0:0:0:
426,169,21908,5,0,0:0:0:0:
352,42,22088,2,0,P|341:85|350:129,1,89.9999972534181,2|0,3:0|0:0,0:0:0:0:
447,249,22447,1,2,3:0:0:0:
512,79,22627,2,0,L|422:89,1,89.9999972534181,2|8,0:0|0:0,0:0:0:0:
212,219,22986,5,2,0:0:0:0:
347,285,23166,1,8,0:0:0:0:
127,174,23345,1,2,0:0:0:0:
263,376,23524,6,0,L|257:287,1,89.9999972534181,4|0,3:2|0:0,0:0:0:0:
167,332,23884,1,2,3:0:0:0:
297,216,24064,2,0,P|254:204|212:219,1,89.9999972534181,0|2,0:0|3:0,0:0:0:0:
54,105,24423,1,0,0:0:0:0:
110,260,24603,1,2,3:0:0:0:
301,230,24783,5,2,0:3:0:0:
304,247,24872,1,2,0:3:0:0:
308,264,24961,1,2,3:0:0:0:
138,111,25142,5,4,0:3:0:0:
133,143,25232,1,4,0:3:0:0:
127,174,25321,1,4,3:0:0:0:
271,57,25501,5,8,0:3:0:0:
319,45,25591,1,8,0:3:0:0:
367,54,25681,1,8,3:0:0:0:
482,202,25860,5,0,0:0:0:0:
319,128,26019,1,8,0:0:0:0:
488,70,26198,1,0,0:0:0:0:
397,337,26400,6,0,B|387:297|406:265|406:265|393:235|393:235|405:207|396:163,1,179.999994506836,4|10,0:3|3:1,0:0:0:0:
365,54,26938,1,0,0:0:0:0:
289,288,27118,1,2,3:0:0:0:
128,156,27298,5,0,0:0:0:0:
322,188,27477,1,8,0:0:0:0:
76,266,27657,1,4,0:0:0:0:
62,278,28016,5,0,0:0:0:0:
108,29,28196,1,10,3:1:0:0:
236,175,28376,2,0,L|147:183,1,89.9999972534181,0|2,0:0|3:0,0:0:0:0:
48,290,28735,5,2,0:0:0:0:
270,244,28914,1,10,3:1:0:0:
48,167,29094,1,0,0:0:0:0:
258,323,29274,6,0,P|336:284|331:199,1,179.999994506836,2|10,3:0|3:1,0:0:0:0:
246,45,29813,1,0,0:0:0:0:
270,244,29992,1,2,3:0:0:0:
431,86,30172,5,0,3:0:0:0:
217,148,30352,1,8,0:3:0:0:
478,231,30531,1,4,0:1:0:0:
494,215,30891,5,0,0:0:0:0:
346,229,31070,1,10,3:1:0:0:
429,303,31250,1,0,0:0:0:0:
375,126,31429,5,2,3:0:0:0:
317,332,31609,1,0,3:0:0:0:
151,205,31789,1,8,0:3:0:0:
346,229,31968,1,0,0:0:0:0:
140,288,32148,6,0,B|19:269|19:269|71:246,1,179.999994506836,4|10,3:2|3:1,0:0:0:0:
213,251,32687,2,0,P|221:294|207:337,1,89.9999972534181,0|2,0:0|3:0,0:0:0:0:
71,246,33046,1,0,0:0:0:0:
239,175,33226,1,10,3:1:0:0:
52,106,33405,2,0,L|141:116,1,89.9999972534181,0|2,0:0|3:0,0:0:0:0:
343,34,33765,2,0,L|253:44,1,89.9999972534181,0|10,0:0|3:1,0:0:0:0:
141,116,34124,1,0,0:0:0:0:
316,213,34304,5,2,3:0:0:0:
355,43,34483,1,0,3:0:0:0:
403,271,34663,1,10,3:1:0:0:
246,129,34843,1,0,0:0:0:0:
453,0,35022,6,0,B|452:41|443:69|443:69|459:107|459:107|447:134|450:175,1,179.999994506836,6|10,3:0|3:1,0:0:0:0:
420,286,35561,1,0,0:0:0:0:
233,156,35741,1,2,3:0:0:0:
363,129,35920,1,0,3:0:0:0:
175,246,36100,6,0,L|219:236,1,44.999998626709,8|0,0:3|0:0,0:0:0:0:
433,316,36280,1,4,3:2:0:0:
444,341,36639,1,4,3:0:0:0:
319,269,36819,6,0,P|306:197|348:136,1,150,6|0,3:0|3:0,0:0:0:0:
481,212,37897,6,0,L|407:219,1,75,4|2,3:1|0:0,0:0:0:0:
244,262,38435,2,0,L|319:269,1,75,2|0,0:0|0:0,0:0:0:0:
174,175,38974,1,8,0:3:0:0:
164,162,39334,6,0,P|154:126|164:90,1,75,2|0,0:0|0:0,0:0:0:0:
140,312,39873,2,0,P|149:276|140:240,1,75,2|0,0:0|3:0,0:0:0:0:
56,137,40411,1,8,0:3:0:0:
0,281,40771,6,0,L|74:275,1,75,4|2,3:2|0:0,0:0:0:0:
228,344,41310,2,0,L|154:339,1,75,2|0,0:0|0:0,0:0:0:0:
310,272,41849,1,8,0:3:0:0:
320,264,42208,6,0,P|358:259|394:266,1,75,2|2,0:0|0:0,0:0:0:0:
512,156,42747,2,0,P|474:151|438:158,1,75,2|0,0:0|0:0,0:0:0:0:
319,71,43286,1,8,0:3:0:0:
307,57,43645,6,0,B|268:54|247:61|247:61|216:46|216:46|190:51|161:48,1,150,4|2,0:0|0:0,0:0:0:0:
188,248,44184,2,0,P|196:176|143:127,1,150,2|0,0:0|0:0,0:0:0:0:
48,201,44723,2,0,P|85:207|122:203,1,75,8|0,0:3|0:0,0:0:0:0:
276,125,45082,5,2,3:0:0:0:
287,114,45441,2,0,L|376:108,1,89.9999972534181,2|0,0:0|0:0,0:0:0:0:
322,232,45801,2,0,L|233:226,1,89.9999972534181,2|0,0:0|0:0,0:0:0:0:
476,59,46160,1,8,0:0:0:0:
485,50,46519,6,0,P|492:86|488:123,1,75,4|0,0:0|0:0,0:0:0:0:
426,338,46879,2,0,P|421:300|429:264,1,75,2|0,3:0|0:0,0:0:0:0:
335,95,47238,6,0,L|410:90,1,75,2|0,3:0|0:0,0:0:0:0:
307,231,47597,2,0,L|233:226,1,75,10|0,3:1|0:0,0:0:0:0:
63,72,47956,6,0,P|107:65|150:75,1,89.9999972534181,2|0,3:0|0:0,0:0:0:0:
183,290,48316,2,0,P|138:297|95:287,1,89.9999972534181,2|8,3:0|0:0,0:0:0:0:
217,25,48675,6,0,P|234:65|227:109,1,89.9999972534181,2|0,3:0|0:0,0:0:0:0:
27,325,49034,2,0,P|18:281|35:240,1,89.9999972534181,10|0,3:1|0:0,0:0:0:0:
292,67,49394,5,4,3:2:0:0:
176,197,49573,1,2,0:0:0:0:
190,56,49753,1,2,3:0:0:0:
293,226,49932,1,2,0:0:0:0:
113,149,50112,5,10,3:2:0:0:
292,67,50292,1,2,0:0:0:0:
221,274,50471,1,10,3:2:0:0:
49,97,50651,6,0,P|107:66|167:91,1,134.999995880127,2|0,0:0|0:0,0:0:0:0:
172,99,51010,5,2,3:2:0:0:
216,301,51190,1,2,0:0:0:0:
113,149,51370,5,10,3:2:0:0:
293,226,51549,1,2,0:2:0:0:
75,234,51729,1,8,3:0:0:0:
316,151,51908,6,0,B|365:168|405:139|405:139|382:137|363:130,1,134.999995880127,8|0,0:3|0:0,0:0:0:0:
276,82,52268,5,10,3:0:0:0:
210,325,52447,1,0,3:0:0:0:
194,130,52627,5,10,3:0:0:0:
301,342,52807,1,0,3:0:0:0:
99,140,52986,5,10,3:0:0:0:
366,291,53166,1,0,3:0:0:0:
94,331,53346,5,10,3:2:0:0:
364,131,53525,1,10,3:0:0:0:
380,121,53885,5,4,3:1:0:0:
78,344,54064,1,4,3:1:0:0:
61,357,54423,5,2,0:0:0:0:
135,170,54603,2,0,P|137:148|132:116,1,44.999998626709,0|0,3:0|3:0,0:0:0:0:
186,316,54783,6,0,P|260:354|264:271,1,196.875001877546,12|0,0:0|0:0,0:0:0:0:
214,194,55142,5,4,3:1:0:0:
379,318,55322,1,0,0:0:0:0:
501,152,55501,2,0,P|454:142|409:157,1,97.4999955368044,10|0,3:1|0:0,0:0:0:0:
227,170,55861,5,2,3:0:0:0:
374,54,56040,1,0,3:0:0:0:
264,271,56220,1,10,3:1:0:0:
61,113,56399,6,0,B|104:118|137:98|137:98|174:108|174:108|209:83|260:96,1,194.999991073609,4|0,3:1|0:0,0:0:0:0:
409,157,56938,1,10,3:1:0:0:
239,204,57118,1,2,0:1:0:0:
233,187,57208,1,2,0:1:0:0:
227,170,57298,1,2,3:0:0:0:
299,0,57477,1,0,0:0:0:0:
308,263,57657,6,0,P|246:298|177:279,1,146.249993305207,10|0,3:1|0:0,0:0:0:0:
149,256,58016,5,2,3:0:0:0:
328,160,58196,1,2,0:0:0:0:
100,173,58376,5,10,3:1:0:0:
308,263,58555,1,2,0:0:0:0:
53,257,58735,5,2,3:0:0:0:
344,154,58914,2,0,L|448:123,1,97.4999955368044,2|10,3:2|3:1,0:0:0:0:
238,23,59274,6,0,B|191:117|276:117|233:211,1,194.999991073609,6|2,3:2|3:2,0:0:0:0:
16,159,59813,6,0,B|89:137|89:137|155:162,1,146.249993305207,10|0,3:2|0:0,0:0:0:0:
254,233,60172,6,0,P|261:280|246:326,1,97.4999955368044,2|0,3:1|0:0,0:0:0:0:
9,146,60531,6,0,B|53:139|87:116|87:116|131:120|163:148,1,168.750006437302,12|0,3:1|0:0,0:0:0:0:
270,225,60891,6,0,B|288:289|255:358|255:358|245:334|222:310,1,194.999991073609,4|10,3:2|3:2,0:0:0:0:
9,146,61429,1,2,0:0:0:0:
163,148,61609,1,2,3:0:0:0:
7,279,61789,1,2,0:0:0:0:
243,250,61968,1,10,3:1:0:0:
0,133,62148,1,0,0:0:0:0:
253,266,62328,6,0,P|300:273|344:254,1,97.4999955368044,2|0,3:0|0:0,0:0:0:0:
474,139,62687,1,10,3:1:0:0:
289,190,62867,1,0,0:0:0:0:
445,229,63046,1,2,3:0:0:0:
258,84,63226,1,0,0:0:0:0:
507,46,63405,1,10,3:1:0:0:
344,254,63585,1,0,0:0:0:0:
68,78,63765,6,0,B|167:42|165:111|258:84,1,194.999991073609,6|10,3:2|3:1,0:0:0:0:
427,86,64304,1,0,0:0:0:0:
197,180,64483,1,2,3:0:0:0:
455,212,64663,1,0,0:0:0:0:
257,84,64843,1,10,3:1:0:0:
323,342,65022,6,0,B|313:295|333:267|333:267|322:233|322:233|345:192|328:141,1,194.999991073609,4|0,3:1|3:0,0:0:0:0:
219,9,65561,1,10,3:1:0:0:
430,48,65741,1,0,0:0:0:0:
253,185,65920,5,2,3:3:0:0:
241,189,66010,1,2,3:3:0:0:
229,193,66100,1,2,3:3:0:0:
217,197,66190,1,2,3:3:0:0:
205,201,66280,1,10,3:3:0:0:
241,232,66370,1,10,3:3:0:0:
288,243,66459,1,10,3:3:0:0:
336,234,66549,1,10,3:3:0:0:
374,204,66639,6,0,B|432:172|484:199|484:199|455:213,1,146.249993305207,4|0,3:0|0:0,0:0:0:0:
319,265,66998,2,0,P|292:220|299:169,1,104.999996795654,10|0,3:1|0:0,0:0:0:0:
468,85,67358,5,2,3:0:0:0:
406,289,67537,1,0,3:0:0:0:
383,55,67717,1,10,0:1:0:0:
222,209,67897,6,0,B|294:243|374:205|374:205|324:191|299:169,1,240,4|0,3:2|0:0,0:0:0:0:
237,56,68435,1,10,3:1:0:0:
254,316,68615,1,0,0:0:0:0:
150,160,68795,1,2,3:0:0:0:
389,182,68974,1,0,0:0:0:0:
166,293,69154,2,0,B|83:283|83:283|108:277|128:262,1,120,10|0,3:1|0:0,0:0:0:0:
333,282,69513,5,2,3:0:0:0:
64,207,69693,1,0,0:0:0:0:
187,369,69873,1,10,3:2:0:0:
302,124,70052,5,2,0:0:0:0:
333,282,70232,1,2,3:0:0:0:
214,54,70411,1,2,0:0:0:0:
166,293,70591,1,10,3:1:0:0:
318,12,70771,6,0,B|397:-27|476:21|476:21|422:20|398:45,1,240,4|0,3:1|0:0,0:0:0:0:
214,199,71310,1,10,3:1:0:0:
386,367,71489,1,0,0:0:0:0:
512,162,71669,5,12,3:2:0:0:
225,210,71849,1,0,3:0:0:0:
225,210,71938,1,0,3:0:0:0:
225,210,72028,1,8,3:2:0:0:
402,279,72208,1,0,3:0:0:0:
309,33,72388,5,12,3:3:0:0:
319,309,72567,1,0,3:0:0:0:
190,28,72747,5,10,3:1:0:0:
244,352,72926,1,0,3:0:0:0:
48,102,73106,5,10,3:1:0:0:
239,333,73286,1,0,3:0:0:0:
0,199,73465,5,10,3:1:0:0:
326,290,73645,2,0,B|399:313|459:281|459:281|414:273|386:254,1,209.999993591309,4|0,3:0|3:0,0:0:0:0:
236,220,74184,5,8,3:1:0:0:
450,194,74364,1,2,3:0:0:0:
461,192,74453,1,2,3:0:0:0:
472,190,74543,1,10,3:1:0:0:
302,120,74723,1,0,3:0:0:0:
459,281,74902,1,10,3:1:0:0:
388,38,75082,1,0,3:0:0:0:
321,269,75262,5,12,3:1:0:0:
453,112,75441,1,0,3:0:0:0:
193,130,75621,5,10,3:1:0:0:
450,194,75801,1,0,3:0:0:0:
205,234,75980,5,10,3:1:0:0:
474,103,76160,1,0,3:0:0:0:
142,45,76340,5,10,3:1:0:0:
315,356,76519,2,0,P|398:317|320:268,1,225.000008583069,4|0,3:1|3:0,0:0:0:0:
153,346,77058,6,0,B|187:340|216:357|216:357|242:345|242:345|272:361|315:356,1,168.750006437302,10|0,3:1|0:0,0:0:0:0:
397,301,77417,6,0,P|444:292|488:312,1,97.4999955368044,6|0,3:2|0:0,0:0:0:0:
378,190,77687,2,0,L|319:268,1,97.4999955368044,6|0,3:2|0:0,0:0:0:0:
344,117,77956,1,6,3:2:0:0:
465,191,78136,5,6,3:1:0:0:
203,243,78316,1,0,3:0:0:0:
397,301,78495,1,8,3:0:0:0:
218,30,78675,6,0,B|170:133|273:133|203:244,1,225.000008583069,6|0,3:1|3:0,0:0:0:0:
289,82,79214,1,8,3:1:0:0:
147,173,79394,1,0,3:0:0:0:
298,0,79573,5,14,3:1:0:0:
203,243,79753,1,0,3:0:0:0:
95,95,79932,1,8,3:0:0:0:
246,336,80112,6,0,B|349:267|307:164|246:128|175:179|176:240|230:269,1,300,6|0,3:1|3:0,0:0:0:0:
405,343,80651,1,10,3:0:0:0:
433,110,80831,1,8,3:0:0:0:
75,217,81010,5,10,3:1:0:0:
408,353,81190,1,0,3:0:0:0:
55,226,81370,5,10,3:1:0:0:
433,110,81549,1,0,3:0:0:0:
246,356,81729,5,10,3:1:0:0:
159,22,81908,1,0,3:0:0:0:
253,384,82088,1,10,3:1:0:0:
444,22,82268,5,12,3:0:0:0:
459,11,82627,1,12,3:0:0:0:
474,0,82986,6,0,B|506:75|440:75|472:163,1,168.750006437302,10|2,3:2|0:0,0:0:0:0:
88,52,83885,6,0,B|212:36|212:36|173:74,1,179.999994506836,4|10,0:2|3:2,0:0:0:0:
133,210,84423,1,2,0:0:0:0:
242,117,84603,1,2,3:2:0:0:
115,225,84783,2,0,L|25:218,1,89.9999972534181,2|8,3:2|3:0,0:0:0:0:
180,326,85142,6,0,B|265:365|266:294|354:332,1,179.999994506836,6|2,3:2|3:2,0:0:0:0:
354,331,85681,1,10,3:1:0:0:
221,260,85861,2,0,P|201:212|215:162,1,104.999996795654,0|0,3:2|0:0,0:0:0:0:
406,182,86220,5,8,3:0:0:0:
376,189,86310,1,8,3:0:0:0:
346,197,86399,1,8,3:0:0:0:
315,202,86489,1,8,3:0:0:0:
284,207,86579,1,8,3:0:0:0:
116,99,86759,6,0,B|40:150|72:227|118:254|171:216|170:170|130:134,1,225.000008583069,14|0,3:0|2:0,0:0:0:0:
195,70,87028,1,8,0:3:0:0:
195,70,87118,1,8,3:0:0:0:
0,276,87298,1,6,3:1:0:0:
256,192,87388,12,0,89094,0:0:0:0:
