osu file format v14

[General]
AudioFilename: Dream.mp3
AudioLeadIn: 0
PreviewTime: 54244
Countdown: 0
SampleSet: Soft
StackLeniency: 0.7
Mode: 0
LetterboxInBreaks: 0
WidescreenStoryboard: 1

[Editor]
DistanceSpacing: 1.7
BeatDivisor: 4
GridSize: 4
TimelineZoom: 2.599999

[Metadata]
Title:DREAM SOLISTER (TV Size)
TitleUnicode:DREAM SOLISTER (TV Size)
Artist:TRUE
ArtistUnicode:TRUE
Creator:Nevo
Version:Agatsu's Hard
Source:響け!ユーフォニアム
Tags:Hibike! Euphonium opening Shiratoi Yamicchi Linada WORSTPOLACKEU Renumi Agatsu ShogunMoon [[Pika]] armin a_r_m_i_n FoxyGrandpa Shunao
BeatmapID:1154635
BeatmapSetID:499482

[Difficulty]
HPDrainRate:5
CircleSize:4
OverallDifficulty:6
ApproachRate:7.5
SliderMultiplier:1.4
SliderTickRate:1

[Events]
//Background and Video events
0,0,"wnig_ahuklwgar.jpg",0,0
//Break Periods
//Storyboard Layer 0 (Background)
//Storyboard Layer 1 (Fail)
//Storyboard Layer 2 (Pass)
//Storyboard Layer 3 (Foreground)
//Storyboard Sound Samples

[TimingPoints]
533,359.281437125748,4,2,1,60,1,0
2329,-100,4,2,2,60,0,0
2643,359.281437125748,4,3,3,60,1,0
3047,359.281437125748,4,2,1,60,1,0
3136,-100,4,3,3,60,0,0
3407,359.281437125748,4,2,1,60,1,0
3968,359.281437125748,4,2,1,60,1,0
4304,359.281437125748,4,2,3,60,1,0
4663,-100,4,2,2,60,0,0
4842,359.281437125748,4,2,1,60,1,0
7985,-100,4,2,10,5,0,0
8075,-100,4,2,1,60,0,0
8344,-100,4,2,10,5,0,0
8434,-100,4,2,1,60,0,0
9154,-100,4,2,1,60,0,0
9422,-100,4,2,10,5,0,0
9512,-100,4,2,1,60,0,0
13554,-100,4,2,10,5,0,0
13644,-100,4,2,3,60,0,0
13824,-100,4,2,1,60,0,0
15262,-100,4,2,1,60,0,0
17237,-100,4,3,3,60,0,0
17776,-100,4,2,1,60,0,0
18674,-100,4,2,1,35,0,0
18853,-100,4,2,1,60,0,0
22626,-100,4,3,3,60,0,0
23524,-100,4,2,1,60,0,0
24782,-100,4,2,3,60,0,0
25859,-100,4,3,1,60,0,0
26019,359.281437125748,4,3,1,80,1,0
26400,359.281437125748,4,2,1,80,1,0
26400,-100,4,2,1,80,0,0
28735,-100,4,3,3,60,0,0
28914,-100,4,2,1,60,0,0
36819,-133.333333333333,4,2,1,60,0,0
37897,-142.857142857143,4,2,1,60,0,0
44004,-142.857142857143,4,2,2,60,0,0
44184,-142.857142857143,4,2,1,60,0,0
44364,-142.857142857143,4,2,11,60,0,0
44498,-142.857142857143,4,2,1,60,0,0
45441,-142.857142857143,4,2,2,60,0,0
46160,-142.857142857143,4,2,1,60,0,0
46519,-100,4,2,2,60,0,0
46879,-100,4,2,1,60,0,0
50920,-100,4,2,10,5,0,0
51010,-100,4,2,1,60,0,0
52178,-100,4,2,10,5,0,0
52268,-100,4,2,1,60,0,0
53526,-100,4,2,1,60,0,0
54424,-100,4,2,1,60,0,0
54783,-100,4,2,4,60,0,0
55052,-100,4,2,10,5,0,0
55142,-100,4,2,4,60,0,1
55501,-100,4,2,1,60,0,1
57926,-100,4,2,10,5,0,1
58016,-100,4,2,1,60,0,1
60082,-100,4,2,1,5,0,1
60172,-100,4,2,1,60,0,1
66639,-100,4,2,1,60,0,0
66909,-100,4,2,10,5,0,0
66998,-100,4,2,10,5,0,1
66999,-100,4,2,1,60,0,1
77328,-100,4,2,10,5,0,1
77417,-100,4,2,1,60,0,1
77597,-100,4,2,10,5,0,1
77687,-100,4,2,1,60,0,1
77867,-100,4,2,10,5,0,1
77957,-100,4,2,1,60,0,1
83885,-100,4,2,4,60,0,0
84244,-100,4,2,1,60,0,0
86938,-100,4,2,1,20,0,0
87028,-100,4,2,1,40,0,0
87118,-100,4,2,1,60,0,0
87837,-100,4,2,1,50,0,0
88196,-100,4,2,1,40,0,0
88555,-100,4,2,1,30,0,0
88735,-100,4,2,1,20,0,0
88914,-100,4,2,1,10,0,0
89094,-100,4,2,10,5,0,0

[Colours]
Combo1 : 240,171,79
Combo2 : 145,0,145
Combo3 : 255,128,192

[HitObjects]
143,46,533,5,6,3:2:0:0:
143,46,1431,2,0,P|148:82|161:129,1,70,8|0,0:3|3:0,0:0:0:0:
229,156,1790,6,0,P|294:139|342:188,1,140,4|0,0:3|0:0,0:0:0:0:
340,270,2329,2,0,L|332:310,2,35,8|0|0,0:3|0:0|3:0,0:0:0:0:
249,332,2643,2,0,L|250:297,2,35,2|4|8,0:0|0:0|0:0,0:0:0:0:
158,268,3047,2,0,L|166:308,2,35,8|2|4,0:3|0:0|0:0,0:0:0:0:
85,223,3407,6,0,P|95:148|115:80,1,140,6|0,0:0|0:0,0:0:0:0:
112,86,4304,2,0,P|150:72|185:78,1,70,12|12,0:3|0:3,0:0:0:0:
251,33,4663,6,0,P|299:71|279:150,1,140,4|0,0:3|3:0,0:0:0:0:
215,184,5201,2,0,L|203:255,1,70,8|0,0:3|3:0,0:0:0:0:
297,305,5560,2,0,L|287:259,2,35,10|0|0,0:0|0:0|3:0,0:0:0:0:
369,234,5919,2,0,L|410:224,3,35,8|8|8|8,0:3|0:3|0:3|0:3,0:0:0:0:
441,207,6279,6,0,P|482:158|445:100,1,140,4|8,0:3|3:0,0:0:0:0:
289,41,6997,1,4,0:0:0:0:
289,41,7356,2,0,L|298:86,3,35,0|8|8|8,0:0|0:0|0:0|0:0,0:0:0:0:
282,115,7716,6,0,B|222:106|223:164|148:147,2,140,4|4|4,3:2|3:0|3:1,0:0:0:0:
344,171,8614,1,8,0:3:0:0:
338,187,8704,1,8,0:3:0:0:
332,203,8794,2,0,P|337:232|339:253,3,35,8|8|8|8,0:0|0:0|0:0|0:0,0:0:0:0:
323,276,9153,6,0,P|261:304|195:341,1,140,0|10,3:0|0:0,0:0:0:0:
130,288,9692,1,2,0:0:0:0:
155,208,9871,1,0,3:0:0:0:
155,208,10051,2,0,P|144:168|133:128,1,70,2|8,3:2|0:0,0:0:0:0:
152,57,10410,6,0,P|107:14|36:36,2,140,6|2|2,0:0|0:0|0:0,0:0:0:0:
233,33,11309,2,0,P|271:26|309:50,1,70,0|0,3:0|0:0,0:0:0:0:
348,111,11668,1,8,0:3:0:0:
279,156,11847,1,0,0:0:0:0:
266,168,11937,1,2,0:0:0:0:
254,181,12027,6,0,B|228:235|285:257|247:325,1,140,4|8,3:2|0:0,0:0:0:0:
172,347,12566,2,0,P|105:354|65:295,1,140,2|0,0:0|3:0,0:0:0:0:
84,218,13105,1,8,0:0:0:0:
168,220,13285,6,0,P|232:206|315:189,1,140,4|2,3:2|3:0,0:0:0:0:
358,125,13824,1,8,0:0:0:0:
358,125,14003,1,4,3:1:0:0:
158,24,14901,6,0,P|108:67|140:130,1,140,2|2,0:0|3:0,0:0:0:0:
216,140,15440,1,0,0:0:0:0:
274,79,15620,1,2,3:0:0:0:
274,79,15800,2,0,B|332:68|341:132|405:111,1,140,0|0,0:0|0:0,0:0:0:0:
465,52,16339,6,0,P|448:120|434:206,1,140,2|2,3:0|3:0,0:0:0:0:
383,253,16877,2,0,P|321:266|272:203,1,140,0|2,0:0|0:0,0:0:0:0:
303,135,17416,1,8,0:0:0:0:
303,135,17596,1,2,0:0:0:0:
237,82,17776,6,0,B|173:67|163:126|87:99,1,140,2|2,3:0|3:0,0:0:0:0:
40,160,18315,2,0,P|31:193|20:230,1,70,0|2,0:0|3:0,0:0:0:0:
129,303,18674,2,0,P|120:270|109:233,1,70,8|2,0:3|3:0,0:0:0:0:
180,190,19033,6,0,P|247:186|280:253,1,140,0|2,0:0|0:0,0:0:0:0:
268,255,19482,1,2,0:0:0:0:
263,271,19572,1,2,3:2:0:0:
317,334,19752,1,2,3:0:0:0:
391,295,19931,2,0,P|427:291|468:284,1,70,0|8,3:0|3:0,0:0:0:0:
484,184,20291,2,0,P|449:178|414:174,1,70,8|2,3:2|0:3,0:0:0:0:
358,111,20650,6,0,P|297:94|244:148,1,140,2|2,3:0|3:0,0:0:0:0:
283,217,21189,1,0,0:0:0:0:
210,258,21368,1,2,3:0:0:0:
210,258,21548,2,0,P|197:291|203:326,1,70,0|2,0:0|3:0,0:0:0:0:
322,292,21907,1,0,0:0:0:0:
283,217,22087,6,0,P|214:200|135:184,1,140,2|2,3:0|3:0,0:0:0:0:
66,212,22626,2,0,P|27:158|63:100,2,140,2|2|2,0:0|0:0|0:0,0:0:0:0:
146,186,23524,6,0,B|206:174|212:234|286:208,1,140,4|2,3:2|3:0,0:0:0:0:
344,156,24063,2,0,P|354:115|356:82,1,70,0|2,0:0|3:0,0:0:0:0:
254,38,24422,2,0,P|257:72|266:106,1,70,0|2,0:0|3:0,0:0:0:0:
242,209,24782,1,2,0:3:0:0:
242,209,24871,1,2,0:3:0:0:
242,209,24961,6,0,P|205:201|158:190,1,70,2|4,3:0|0:3,0:0:0:0:
122,126,25321,2,0,P|119:100|117:69,2,35,4|0|8,3:0|0:0|0:3,0:0:0:0:
48,166,25680,2,0,P|45:192|43:223,2,35,8|0|0,3:0|0:0|0:0,0:0:0:0:
108,280,26019,2,0,P|114:317|119:352,1,70,8|0,0:0|0:0,0:0:0:0:
205,311,26400,6,0,B|262:293|275:350|343:322,1,140,4|10,0:0|3:1,0:0:0:0:
403,268,26938,1,0,0:0:0:0:
403,268,27118,2,0,P|416:236|410:196,1,70,2|0,3:0|0:0,0:0:0:0:
359,135,27477,1,8,0:0:0:0:
278,158,27657,6,0,P|232:112|160:123,1,140,4|0,0:0|0:0,0:0:0:0:
98,66,28196,1,10,3:1:0:0:
98,66,28376,2,0,P|109:133|129:218,1,140,0|2,0:0|0:0,0:0:0:0:
186,259,28914,2,0,P|221:265|260:247,1,70,10|0,3:1|0:0,0:0:0:0:
313,194,29274,6,0,P|383:191|422:250,1,140,2|10,3:0|3:1,0:0:0:0:
384,318,29813,1,0,0:0:0:0:
384,318,29992,2,0,P|349:324|310:306,1,70,2|0,3:0|3:0,0:0:0:0:
252,253,30352,1,8,0:3:0:0:
313,194,30531,6,0,B|338:137|285:120|316:57,1,140,4|0,0:1|0:0,0:0:0:0:
244,13,31070,1,10,3:1:0:0:
244,13,31250,2,0,P|174:32|107:54,1,140,0|0,0:0|3:0,0:0:0:0:
52,114,31789,2,0,P|40:151|29:188,1,70,8|0,0:3|0:0,0:0:0:0:
67,256,32148,6,0,P|131:280|184:229,1,140,4|10,3:2|3:1,0:0:0:0:
248,187,32687,1,0,0:0:0:0:
248,187,32867,2,0,P|284:176|319:184,1,70,2|0,3:0|0:0,0:0:0:0:
359,253,33226,1,10,3:1:0:0:
439,229,33405,6,0,P|455:159|463:83,1,140,0|0,0:0|0:0,0:0:0:0:
401,33,33944,2,0,P|363:30|328:47,1,70,10|0,3:1|0:0,0:0:0:0:
276,104,34304,2,0,P|216:124|164:70,1,140,2|10,3:0|3:1,0:0:0:0:
82,59,34843,1,0,0:0:0:0:
27,122,35022,6,0,B|1:178|49:195|25:265,1,140,6|10,3:0|3:1,0:0:0:0:
95,330,35561,1,0,0:0:0:0:
95,330,35741,1,2,3:0:0:0:
170,294,35920,2,0,L|216:289,2,35,0|0|8,3:0|0:0|0:3,0:0:0:0:
95,330,36280,6,0,P|89:255|82:177,1,140,4|4,0:0|0:0,0:0:0:0:
83,190,36819,6,0,B|167:153|190:248|286:186,1,210.000008010865,6|0,3:0|3:0,0:0:0:0:
282,187,37897,6,0,P|301:143|287:86,1,97.9999970092774,4|2,3:1|0:0,0:0:0:0:
220,53,38435,2,0,P|172:58|130:99,1,97.9999970092774,2|0,0:0|0:0,0:0:0:0:
142,173,38974,1,8,0:3:0:0:
142,173,39334,6,0,P|136:209|131:237,1,48.9999985046387,2|0,0:0|0:0,0:0:0:0:
232,275,39693,2,0,P|227:250|223:226,1,48.9999985046387,0|2,0:0|0:0,0:0:0:0:
302,172,40052,2,0,P|308:208|313:236,1,48.9999985046387,0|0,0:0|3:0,0:0:0:0:
381,263,40411,1,8,0:3:0:0:
381,263,40771,6,0,P|435:258|468:215,1,97.9999970092774,4|2,3:2|0:0,0:0:0:0:
478,145,41310,2,0,P|446:100|392:93,1,97.9999970092774,2|0,0:0|0:0,0:0:0:0:
329,123,41849,1,8,0:3:0:0:
329,123,42208,6,0,P|294:117|269:112,1,48.9999985046387,2|0,0:0|0:0,0:0:0:0:
238,31,42567,2,0,P|262:26|286:22,1,48.9999985046387,2|2,0:0|0:0,0:0:0:0:
280,114,42926,2,0,P|274:139|268:167,1,48.9999985046387,0|0,0:0|0:0,0:0:0:0:
187,141,43286,1,8,0:3:0:0:
187,141,43645,6,0,P|138:155|83:170,1,97.9999970092774,4|2,0:0|0:0,0:0:0:0:
96,250,44184,2,0,P|145:264|200:279,1,97.9999970092774,2|0,0:0|0:0,0:0:0:0:
241,342,44723,1,8,0:3:0:0:
324,197,45082,5,2,3:0:0:0:
324,197,45441,2,0,P|330:245|341:313,2,97.9999970092774,2|2|8,0:0|0:0|0:0,0:0:0:0:
473,87,46519,6,0,P|430:37|355:51,1,140,4|2,0:0|3:0,0:0:0:0:
306,108,47058,1,0,0:0:0:0:
306,108,47238,2,0,B|245:94|238:151|163:128,1,140,2|10,3:0|3:1,0:0:0:0:
106,77,47777,1,0,0:0:0:0:
106,77,47956,6,0,P|98:41|101:6,1,70,2|0,3:0|0:0,0:0:0:0:
171,130,48316,2,0,P|179:166|176:201,1,70,2|8,3:0|0:0,0:0:0:0:
108,249,48675,2,0,P|178:245|215:303,1,140,2|10,3:0|3:1,0:0:0:0:
143,343,49214,1,0,0:0:0:0:
214,297,49394,6,0,P|250:290|285:283,1,70,4|2,3:2|0:0,0:0:0:0:
376,214,49753,2,0,P|341:206|307:200,1,70,2|2,3:0|0:0,0:0:0:0:
243,146,50112,1,10,3:2:0:0:
243,146,50292,2,0,P|234:105|245:72,1,70,2|10,0:0|3:2,0:0:0:0:
307,27,50651,6,0,P|375:22|408:85,1,140,2|2,0:0|0:0,0:0:0:0:
386,158,51190,1,2,0:0:0:0:
307,200,51370,2,0,P|296:263|284:346,1,140,10|0,0:0|3:0,0:0:0:0:
206,368,51908,2,0,P|173:371|141:351,1,70,8|0,0:3|0:0,0:0:0:0:
138,231,52268,5,10,3:0:0:0:
75,286,52447,1,0,3:0:0:0:
138,231,52627,2,0,L|150:156,1,70,10|0,3:0|3:0,0:0:0:0:
126,80,52986,1,10,3:0:0:0:
240,34,53166,2,0,L|228:103,1,70,0|10,3:0|3:2,0:0:0:0:
286,164,53525,6,0,B|350:151|347:211|430:188,1,140,10|4,3:0|3:1,0:0:0:0:
482,135,54064,1,4,3:1:0:0:
374,327,54423,5,2,0:0:0:0:
450,361,54603,2,0,L|494:353,2,35,0|0|12,3:0|3:0|0:0,0:0:0:0:
374,327,54962,1,0,0:0:0:0:
295,358,55142,6,0,P|254:352|213:344,1,70,4|0,3:1|0:0,0:0:0:0:
176,239,55501,2,0,P|243:247|327:262,1,140,10|2,3:1|3:0,0:0:0:0:
372,198,56040,1,0,3:0:0:0:
372,198,56220,1,10,3:1:0:0:
362,114,56399,6,0,P|317:67|246:82,1,140,4|0,3:1|0:0,0:0:0:0:
187,137,56938,2,0,P|150:129|114:122,1,70,10|2,3:1|0:1,0:0:0:0:
13,184,57298,2,0,P|50:192|86:199,1,70,2|0,3:0|0:0,0:0:0:0:
142,265,57657,1,10,3:1:0:0:
142,265,58016,6,0,P|150:297|148:338,1,70,2|2,3:0|0:0,0:0:0:0:
241,282,58376,2,0,P|286:235|357:250,1,140,10|2,3:1|3:0,0:0:0:0:
410,185,58914,1,2,3:2:0:0:
410,185,59094,1,10,3:1:0:0:
384,104,59274,6,0,P|314:91|242:79,1,140,4|2,3:2|3:2,0:0:0:0:
172,121,59813,2,0,P|161:152|148:190,1,70,10|0,3:1|0:0,0:0:0:0:
83,239,60172,2,0,P|148:225|196:273,1,140,2|12,3:0|3:1,0:0:0:0:
265,321,60711,1,0,0:0:0:0:
342,289,60891,6,0,P|348:217|355:137,1,140,4|10,3:2|3:1,0:0:0:0:
312,76,61429,1,2,0:0:0:0:
371,15,61609,2,0,L|449:0,1,70,2|2,3:0|0:0,0:0:0:0:
312,76,61968,1,10,3:1:0:0:
240,32,62148,6,0,P|174:18|126:66,1,140,0|0,0:0|0:0,0:0:0:0:
147,147,62687,2,0,L|131:226,1,70,10|0,3:1|0:0,0:0:0:0:
185,281,63046,2,0,B|243:265|255:329|319:303,1,140,2|10,3:0|3:1,0:0:0:0:
391,263,63585,1,0,0:0:0:0:
346,191,63765,6,0,L|338:113,1,70,6|0,3:2|0:0,0:0:0:0:
391,263,64124,2,0,L|398:332,1,70,10|0,3:1|0:0,0:0:0:0:
317,303,64483,2,0,L|243:312,1,70,2|0,3:0|0:0,0:0:0:0:
183,255,64843,1,10,3:1:0:0:
106,220,65022,6,0,P|175:210|246:202,1,140,4|0,3:1|3:0,0:0:0:0:
309,148,65561,2,0,P|318:114|311:64,2,70,10|0|8,3:1|0:0|0:3,0:0:0:0:
244,202,66100,2,0,L|198:196,4,35,8|8|8|8|8,0:3|0:3|0:1|0:1|0:1,0:0:0:0:
292,270,66639,6,0,P|282:302|283:342,1,70,4|0,3:0|0:0,0:0:0:0:
388,284,66998,2,0,P|423:222|383:166,1,140,10|2,3:1|3:0,0:0:0:0:
309,148,67537,1,0,3:0:0:0:
309,148,67717,1,10,0:1:0:0:
244,202,67897,6,0,P|177:192|102:178,1,140,4|0,3:2|0:0,0:0:0:0:
202,111,68435,2,0,L|191:34,1,70,10|0,3:1|0:0,0:0:0:0:
244,202,68795,2,0,L|253:271,1,70,2|0,3:0|0:0,0:0:0:0:
330,316,69154,1,10,3:1:0:0:
330,316,69513,6,0,P|363:309|399:314,1,70,2|0,3:0|0:0,0:0:0:0:
412,225,69873,2,0,P|447:163|407:107,1,140,10|2,3:2|3:0,0:0:0:0:
338,73,70411,1,2,0:0:0:0:
338,73,70591,1,10,3:1:0:0:
263,112,70771,6,0,B|203:95|194:158|128:128,1,140,4|0,3:1|0:0,0:0:0:0:
62,178,71310,2,0,L|39:248,1,70,10|0,3:1|0:0,0:0:0:0:
46,328,71669,2,0,P|89:377|160:357,1,140,4|8,3:2|0:1,0:0:0:0:
198,289,72208,1,0,3:0:0:0:
278,265,72388,6,0,L|350:278,1,70,4|0,3:3|3:0,0:0:0:0:
198,289,72747,2,0,L|129:276,1,70,10|0,3:0|3:0,0:0:0:0:
178,203,73106,2,0,L|189:129,1,70,10|0,3:0|3:0,0:0:0:0:
249,75,73465,1,10,3:0:0:0:
326,108,73645,6,0,P|393:98|474:89,1,140,4|0,3:0|3:0,0:0:0:0:
488,170,74184,2,0,P|482:210|476:244,1,70,8|2,3:0|3:0,0:0:0:0:
379,319,74543,2,0,P|384:284|390:249,1,70,10|0,3:0|3:0,0:0:0:0:
302,269,74902,2,0,L|225:256,1,70,10|0,3:0|3:0,0:0:0:0:
174,318,75262,6,0,P|186:247|201:167,1,140,4|10,3:0|3:0,0:0:0:0:
155,108,75801,1,0,3:0:0:0:
79,144,75980,2,0,L|6:129,1,70,10|0,3:0|3:0,0:0:0:0:
155,108,76340,1,10,3:0:0:0:
179,28,76519,6,0,B|242:14|245:71|316:48,1,140,4|0,3:1|3:0,0:0:0:0:
384,93,77058,2,0,P|395:126|388:166,1,70,10|0,3:1|0:0,0:0:0:0:
329,218,77417,2,0,P|332:266|339:333,2,105,6|6|6,0:0|0:1|0:3,0:0:0:0:
263,164,78136,6,0,P|259:124|255:80,2,70,4|0|8,3:1|3:0|3:0,0:0:0:0:
176,221,78675,2,0,P|134:176|55:188,1,140,4|0,3:2|3:0,0:0:0:0:
62,267,79214,2,0,P|92:286|133:285,1,70,8|0,3:1|3:0,0:0:0:0:
176,221,79573,6,0,P|213:214|261:207,2,70,12|0|8,3:1|3:0|3:0,0:0:0:0:
118,117,80112,2,0,P|188:105|270:92,1,140,4|0,3:0|3:0,0:0:0:0:
309,28,80651,2,0,P|346:27|380:48,1,70,10|8,3:0|3:0,0:0:0:0:
422,111,81010,6,0,L|436:189,1,70,10|0,3:1|3:0,0:0:0:0:
386,314,81370,2,0,L|373:245,1,70,10|0,3:1|3:0,0:0:0:0:
297,297,81729,2,0,L|223:309,1,70,10|0,3:1|3:0,0:0:0:0:
151,272,82088,1,10,3:1:0:0:
151,272,82268,1,12,3:0:0:0:
254,139,82627,5,12,3:0:0:0:
88,113,82986,1,10,0:2:0:0:
416,68,83885,6,0,P|401:130|386:208,1,140,4|10,0:0|3:2,0:0:0:0:
323,259,84423,1,2,0:0:0:0:
264,198,84603,1,2,3:2:0:0:
264,198,84783,2,0,P|224:187|192:181,1,70,2|8,3:2|3:0,0:0:0:0:
115,206,85142,6,0,P|72:155|106:93,2,140,4|0|2,3:2|3:0|0:0,0:0:0:0:
195,181,86040,1,0,0:0:0:0:
258,236,86220,1,8,3:0:0:0:
260,253,86310,1,8,3:0:0:0:
262,270,86399,2,0,L|255:311,2,35,8|8|8,3:0|3:0|3:0,0:0:0:0:
345,228,86759,6,0,P|380:218|421:230,1,70,4|0,3:2|3:0,0:0:0:0:
422,238,87028,1,8,0:3:0:0:
430,253,87118,1,8,0:0:0:0:
445,141,87298,1,6,3:1:0:0:
256,192,87388,12,0,89633,0:0:0:0:
