osu file format v14

[General]
AudioFilename: Dream.mp3
AudioLeadIn: 0
PreviewTime: 54423
Countdown: 0
SampleSet: Soft
StackLeniency: 0.7
Mode: 0
LetterboxInBreaks: 0
WidescreenStoryboard: 0

[Editor]
DistanceSpacing: 1
BeatDivisor: 4
GridSize: 4
TimelineZoom: 2.799999

[Metadata]
Title:DREAM SOLISTER (TV Size)
TitleUnicode:DREAM SOLISTER (TV Size)
Artist:TRUE
ArtistUnicode:TRUE
Creator:Maboyu
Version:Insane
Source:響け!ユーフォニアム
Tags:hibike! euphonium opening pop jpop anime op japanese jp miho karasawa yuusuke kato j-pop 唐沢美帆 加藤裕介 Yuii- IamKwaN AliomLoung
BeatmapID:1110602
BeatmapSetID:516277

[Difficulty]
HPDrainRate:6
CircleSize:4
OverallDifficulty:7.5
ApproachRate:8
SliderMultiplier:1.5
SliderTickRate:1

[Events]
//Background and Video events
0,0,"hibikeyoufoni.jpg",0,0
Video,-10,"Video.mp4"
//Break Periods
//Storyboard Layer 0 (Background)
//Storyboard Layer 1 (Fail)
//Storyboard Layer 2 (Pass)
//Storyboard Layer 3 (Foreground)
//Storyboard Layer 4 (Overlay)
//Storyboard Sound Samples

[TimingPoints]
533,359.281437125748,4,2,1,65,1,0
533,-133.333333333333,4,2,1,65,0,0
1970,340.909090909091,4,2,1,65,1,0
1970,-133.333333333333,4,2,1,65,0,0
2651,379.746835443038,4,2,1,65,1,0
2651,-133.333333333333,4,2,1,65,0,0
3410,370.37037037037,4,2,1,65,1,0
3410,-133.333333333333,4,2,1,65,0,0
4150,315.789473684211,4,2,1,65,1,0
4150,-133.333333333333,4,2,1,65,0,0
4307,352.941176470588,4,2,1,65,1,0
4307,-133.333333333333,4,2,1,65,0,0
4842,359.281437125748,4,2,1,65,1,0
4842,-133.333333333333,4,2,1,65,0,0
6279,-133.333333333333,4,2,1,75,0,0
8794,340.909090909091,4,2,1,75,1,0
8794,-133.333333333333,4,2,1,75,0,0
9134,377.358490566038,4,2,1,75,1,0
9134,-133.333333333333,4,2,1,75,0,0
9512,359.281437125748,4,2,1,75,1,0
14003,-200,4,2,1,60,0,0
14811,-200,4,2,1,5,0,0
14901,-133.333333333333,4,2,1,60,0,0
26019,359.281437125748,4,2,1,60,1,0
26288,-100,4,2,1,5,0,0
26400,359.281437125748,4,2,1,60,1,0
36819,-200,4,2,1,40,0,0
46519,-133.333333333333,4,2,1,70,0,0
49394,-100,4,2,1,75,0,0
54783,-83.3333333333333,4,2,1,80,0,1
65022,-66.6666666666667,4,2,1,80,0,1
65382,-83.3333333333333,4,2,1,80,0,1
82268,-100,4,2,1,60,0,0
88914,-100,4,2,1,30,0,0

[Colours]
Combo1 : 213,0,0
Combo2 : 238,106,166
Combo3 : 172,89,89
Combo4 : 77,0,153
Combo5 : 0,206,0

[HitObjects]
69,110,533,6,0,B|118:107|118:107|125:110|125:110|183:106,1,112.500004291535,4|0,0:0|0:0,0:0:0:0:
244,50,1071,1,2,0:1:0:0:
167,189,1251,1,2,0:1:0:0:
251,192,1431,2,0,L|251:135,1,56.2500021457673,8|8,0:0|3:0,0:0:0:0:
167,189,1790,6,0,P|183:240|240:274,1,109.593760000429,4|0,0:0|1:0,0:0:0:0:
306,235,2310,1,8,0:0:0:0:
248,355,2481,5,0,1:0:0:0:
324,319,2651,2,0,P|364:316|391:326,1,56.2500021457673,8|0,3:0|0:0,0:0:0:0:
227,271,3030,1,8,0:0:0:0:
227,271,3125,1,8,0:0:0:0:
227,271,3220,1,8,0:0:0:0:
467,170,3410,6,0,B|418:167|418:167|411:170|411:170|356:167,1,112.5,4|0,0:0|0:0,0:0:0:0:
334,248,3965,1,2,0:1:0:0:
327,89,4150,1,2,0:1:0:0:
270,168,4307,2,0,P|259:193|255:221,1,56.2500021457673,8|8,3:0|3:0,0:0:0:0:
327,89,4659,6,0,P|268:72|205:97,1,115.439940000429,4|0,0:0|1:0,0:0:0:0:
178,158,5201,1,8,0:0:0:0:
149,40,5380,5,0,1:0:0:0:
104,111,5560,2,0,L|24:114,1,56.2500021457673,8|0,0:0|1:0,0:0:0:0:
178,158,5919,1,8,0:0:0:0:
200,158,6009,1,8,0:0:0:0:
222,158,6099,1,8,0:0:0:0:
245,158,6189,1,8,0:0:0:0:
267,159,6279,6,0,P|252:224|271:266,1,112.500004291535,4|8,0:0|0:0,0:0:0:0:
449,207,6997,2,0,L|336:208,1,112.500004291535,4|8,0:0|0:0,0:0:0:0:
339,230,7446,1,8,0:0:0:0:
344,251,7536,1,8,0:0:0:0:
342,273,7626,1,8,0:0:0:0:
339,294,7716,6,0,P|310:296|282:296,1,56.2500021457673,4|0,0:0|0:0,0:0:0:0:
420,285,8075,2,0,P|418:313|410:340,1,56.2500021457673,4|0,0:0|0:0,0:0:0:0:
197,308,8434,2,0,P|199:280|208:254,1,56.2500021457673,4|8,0:0|0:0,0:0:0:0:
219,233,8704,1,8,0:0:0:0:
236,218,8794,1,12,0:0:0:0:
249,200,8879,1,8,0:0:0:0:
257,179,8964,1,8,0:0:0:0:
260,157,9049,1,8,0:0:0:0:
257,135,9134,5,4,0:0:0:0:
257,136,9512,2,0,P|267:99|260:63,1,75,8|2,0:0|0:1,0:0:0:0:
175,95,9871,1,0,1:0:0:0:
341,102,10051,1,0,1:0:0:0:
183,188,10231,1,8,0:0:0:0:
260,64,10410,6,0,P|340:71|393:17,1,150,4|2,1:2|0:1,0:0:0:0:
477,18,10949,1,8,0:0:0:0:
472,181,11129,2,0,P|478:144|471:108,1,75,2|0,0:1|1:0,0:0:0:0:
381,116,11488,1,2,0:1:0:0:
389,27,11668,1,8,0:0:0:0:
290,114,11847,1,2,0:1:0:0:
290,114,11937,1,2,0:1:0:0:
290,114,12027,6,0,P|282:150|288:187,1,75,4|0,1:2|0:0,0:0:0:0:
381,116,12386,1,8,0:0:0:0:
297,24,12566,2,0,P|225:50|205:132,1,150,2|8,0:1|3:0,0:0:0:0:
249,191,13105,1,8,0:0:0:0:
434,102,13285,6,0,L|285:108,1,150,4|8,0:0|3:0,0:0:0:0:
222,41,13824,1,8,0:0:0:0:
249,191,14003,2,0,B|197:219|117:194|117:194|122:233,1,168.75,4|0,0:0|0:0,0:0:0:0:
155,257,14901,6,0,P|163:188|127:152,1,112.500004291535,4|0,0:0|1:0,0:0:0:0:
56,181,15440,1,0,0:0:0:0:
189,91,15620,1,0,1:0:0:0:
73,102,15800,1,0,0:0:0:0:
218,181,15979,2,0,L|276:173,1,56.2500021457673,0|0,1:0|0:0,0:0:0:0:
438,106,16339,6,0,P|382:102|326:107,1,112.500004291535,0|0,1:0|1:0,0:0:0:0:
291,227,16877,2,0,L|274:173,1,56.2500021457673,0|0,0:0|1:0,0:0:0:0:
210,118,17237,1,8,3:0:0:0:
358,185,17416,1,0,1:0:0:0:
199,215,17596,1,8,3:0:0:0:
423,131,17776,6,0,P|440:177|411:252,1,112.500004291535,0|0,1:0|1:0,0:0:0:0:
358,185,18315,1,0,0:0:0:0:
288,252,18494,2,0,L|274:198,1,56.2500021457673,0|0,1:0|0:0,0:0:0:0:
203,120,18853,2,0,L|192:175,1,56.2500021457673,0|0,1:0|0:0,0:0:0:0:
116,324,19213,5,0,1:0:0:0:
191,175,19392,1,2,0:1:0:0:
191,175,19482,1,2,0:1:0:0:
191,175,19572,1,0,1:0:0:0:
214,334,19752,1,8,3:0:0:0:
105,228,19931,1,0,1:0:0:0:
259,250,20111,1,8,3:0:0:0:
100,377,20291,2,0,P|103:349|116:324,1,56.2500021457673,0|8,1:0|3:0,0:0:0:0:
214,334,20650,6,0,B|257:330|285:353|285:353|330:312,1,112.500004291535,0|0,1:0|1:0,0:0:0:0:
306,243,21189,1,0,0:0:0:0:
393,358,21368,1,0,1:0:0:0:
397,273,21548,2,0,B|426:269|426:269|459:278,1,56.2500021457673,0|0,0:0|1:0,0:0:0:0:
484,354,21907,1,0,0:0:0:0:
391,161,22087,6,0,B|392:216|392:216|397:229|397:229|397:273,1,112.500004291535,0|0,1:0|1:0,0:0:0:0:
320,310,22626,1,8,3:0:0:0:
477,246,22806,1,0,1:0:0:0:
316,225,22985,1,8,3:0:0:0:
471,162,23165,2,0,L|468:106,1,56.2500021457673,0|8,1:0|3:0,0:0:0:0:
391,161,23524,6,0,B|343:159|343:159|329:150|329:150|257:146,1,112.500004291535,4|0,0:0|1:0,0:0:0:0:
236,76,24063,1,0,0:0:0:0:
217,203,24243,2,0,P|222:235|218:259,1,56.2500021457673,0|0,1:0|0:0,0:0:0:0:
152,310,24602,1,0,1:0:0:0:
292,301,24782,1,8,3:0:0:0:
292,301,24871,1,8,3:0:0:0:
292,301,24961,5,8,3:0:0:0:
318,168,25141,2,0,L|326:223,1,56.2500021457673,8|0,3:0|1:0,0:0:0:0:
414,297,25500,2,0,L|408:241,1,56.2500021457673,8|0,3:0|1:0,0:0:0:0:
326,223,25859,1,8,3:0:0:0:
352,95,26019,6,0,P|275:105|242:142,1,112.5,4|0,0:0|0:0,0:0:0:0:
208,195,26400,6,0,P|233:124|179:58,1,150,4|8,0:0|0:0,0:0:0:0:
107,43,26938,1,0,0:0:0:0:
74,127,27118,2,0,L|83:212,1,75,0|0,1:0|1:0,0:0:0:0:
29,274,27477,1,8,0:0:0:0:
157,249,27657,2,0,P|222:239|308:246,1,150,4|0,0:0|1:0,0:0:0:0:
328,333,28196,5,8,0:0:0:0:
372,185,28376,1,0,0:0:0:0:
429,253,28555,2,0,P|428:312|423:335,1,75,0|0,1:0|1:0,0:0:0:0:
372,185,28914,2,0,P|368:147|374:110,1,75,8|0,0:0|0:0,0:0:0:0:
429,253,29274,6,0,B|328:297|280:194,1,150,0|8,1:0|0:0,0:0:0:0:
268,136,29813,1,0,0:0:0:0:
184,16,29992,2,0,P|176:52|192:86,1,75,0|0,1:0|1:0,0:0:0:0:
268,136,30352,1,8,0:0:0:0:
297,223,30531,6,0,P|260:286|188:300,1,150,4|0,0:0|1:0,0:0:0:0:
206,210,31070,1,8,0:0:0:0:
286,311,31250,1,0,0:0:0:0:
114,245,31429,2,0,P|111:207|117:171,2,75,0|0|8,1:0|1:0|0:0,0:0:0:0:
125,334,31968,1,2,0:1:0:0:
37,269,32148,6,0,P|32:193|51:120,1,150,4|8,1:2|0:0,0:0:0:0:
12,40,32687,1,0,0:0:0:0:
175,41,32867,2,0,L|101:46,1,75,0|0,1:0|1:0,0:0:0:0:
12,40,33226,1,8,0:0:0:0:
136,128,33405,6,0,L|211:140,1,75,0|0,1:0|0:0,0:0:0:0:
278,80,33765,1,0,1:0:0:0:
353,130,33944,2,0,P|378:199|355:270,1,150,8|0,0:0|1:0,0:0:0:0:
275,236,34483,2,0,P|274:309|291:337,1,75,0|8,1:0|0:0,0:0:0:0:
265,146,34843,1,0,0:0:0:0:
78,71,35022,6,0,P|80:118|84:153,1,75,4|0,0:0|0:0,0:0:0:0:
193,203,35382,2,0,P|191:245|186:298,1,75,8|0,0:0|0:0,0:0:0:0:
174,92,35741,1,0,1:0:0:0:
66,237,35920,1,0,1:0:0:0:
78,71,36100,1,8,0:0:0:0:
170,191,36280,2,0,B|216:174|272:200|335:182,1,150,4|4,0:0|0:0,0:0:0:0:
372,101,36819,6,0,B|323:89|271:96|271:96|282:40,1,150,4|2,0:0|0:0,0:0:0:0:
179,83,37897,6,0,L|195:166,1,75,4|0,1:2|0:0,0:0:0:0:
253,229,38435,1,0,1:0:0:0:
167,316,38615,2,0,L|172:278,1,37.5,2|0,0:1|0:0,0:0:0:0:
262,228,38974,2,0,P|299:225|336:228,1,75,8|0,0:0|1:0,0:0:0:0:
409,126,39513,6,0,L|404:163,1,37.5,2|2,0:1|0:1,0:0:0:0:
457,240,39873,1,8,3:0:0:0:
401,380,40052,2,0,P|390:344|392:307,1,75,2|8,0:1|0:0,0:0:0:0:
217,277,40771,6,0,P|224:240|212:205,1,75,4|2,1:2|0:1,0:0:0:0:
130,158,41310,1,0,1:0:0:0:
24,71,41489,2,0,P|59:58|94:71,1,75,2|8,0:1|0:0,0:0:0:0:
119,156,42028,1,0,0:0:0:0:
204,119,42208,5,0,1:0:0:0:
323,161,42388,2,0,L|286:164,1,37.5,2|2,0:1|0:1,0:0:0:0:
232,241,42747,1,0,1:0:0:0:
193,358,42926,2,0,L|185:322,1,37.5,0|0,0:0|1:0,0:0:0:0:
126,247,43286,2,0,L|51:247,1,75,8|4,0:0|0:0,0:0:0:0:
17,159,43825,5,0,0:0:0:0:
42,32,44004,2,0,L|48:70,1,37.5,2|0,0:1|1:0,0:0:0:0:
139,69,44364,2,0,L|134:107,2,37.5,2|2|8,0:1|0:1|0:0,0:0:0:0:
227,36,44902,1,0,0:0:0:0:
347,83,45082,6,0,L|309:79,1,37.5,2|0,0:1|0:0,0:0:0:0:
156,129,45441,2,0,P|192:135|230:130,1,75,2|2,0:1|0:1,0:0:0:0:
284,53,45980,1,2,0:1:0:0:
305,221,46160,2,0,L|305:184,1,37.5,8|0,0:0|0:0,0:0:0:0:
309,302,46519,6,0,L|323:366,1,56.2500021457673,4|0,0:0|0:0,0:0:0:0:
197,205,46879,2,0,L|209:150,1,56.2500021457673,0|0,1:0|0:0,0:0:0:0:
195,317,47238,2,0,L|126:300,1,56.2500021457673,0|0,1:0|0:0,0:0:0:0:
320,202,47597,2,0,L|374:188,1,56.2500021457673,8|0,0:0|0:0,0:0:0:0:
265,260,47956,6,0,P|242:194|276:139,1,112.500004291535,0|8,1:0|0:0,0:0:0:0:
304,87,48495,1,8,0:0:0:0:
457,135,48675,2,0,P|482:146|510:148,1,56.2500021457673,0|0,1:0|0:0,0:0:0:0:
434,54,49034,2,0,P|408:42|380:40,1,56.2500021457673,8|0,0:0|0:0,0:0:0:0:
229,82,49394,5,4,0:0:0:0:
201,263,49573,1,2,0:1:0:0:
118,100,49753,1,0,1:0:0:0:
280,182,49932,1,2,0:1:0:0:
100,211,50112,1,0,1:0:0:0:
304,87,50292,2,0,L|230:83,1,75,2|8,0:1|0:0,0:0:0:0:
100,211,50651,2,0,P|154:162|227:169,1,150,4|4,0:0|0:0,0:0:0:0:
183,247,51190,5,2,0:1:0:0:
152,119,51370,1,4,0:0:0:0:
71,296,51549,1,0,1:0:0:0:
49,137,51729,1,2,0:1:0:0:
183,247,51908,2,0,L|279:243,1,75,4|0,0:0|0:0,0:0:0:0:
311,168,52268,5,4,0:0:0:0:
311,168,52358,1,0,0:0:0:0:
311,168,52447,1,2,0:1:0:0:
455,243,52627,1,8,0:0:0:0:
293,317,52807,1,0,1:0:0:0:
455,243,52986,2,0,L|462:324,1,75,4|0,0:0|1:0,0:0:0:0:
296,144,53346,1,8,0:0:0:0:
348,48,53525,6,0,B|407:29|438:56|503:32,1,150,4|12,0:0|3:0,0:0:0:0:
401,157,54064,1,12,3:0:0:0:
401,157,54783,6,0,L|276:158,1,89.9999972534181,8|0,0:0|0:0,0:0:0:0:
125,126,55142,2,0,P|181:61|266:79,1,179.999994506836,4|8,0:0|0:0,0:0:0:0:
249,224,55681,1,0,0:0:0:0:
203,301,55861,2,0,L|101:302,1,89.9999972534181,0|0,1:0|1:0,0:0:0:0:
209,142,56220,1,8,0:0:0:0:
290,302,56399,6,0,P|361:256|434:300,1,179.999994506836,4|0,0:0|1:0,0:0:0:0:
203,301,56938,1,8,0:0:0:0:
361,344,57118,1,0,0:0:0:0:
357,211,57298,2,0,P|356:163|364:121,1,89.9999972534181,0|0,1:0|1:0,0:0:0:0:
441,211,57657,2,0,P|442:255|434:300,1,89.9999972534181,8|0,0:0|0:0,0:0:0:0:
370,32,58016,5,0,1:0:0:0:
498,158,58196,1,2,0:1:0:0:
268,166,58376,1,8,0:0:0:0:
503,36,58555,1,2,0:1:0:0:
261,175,58735,2,0,P|257:235|259:273,2,89.9999972534181,4|0|8,0:0|1:0|0:0,0:0:0:0:
282,87,59274,6,0,P|203:54|117:92,1,179.999994506836,4|4,0:0|0:0,0:0:0:0:
32,189,59813,2,0,P|18:231|32:281,1,89.9999972534181,8|0,0:0|0:0,0:0:0:0:
206,176,60172,2,0,P|164:192|123:178,1,89.9999972534181,4|0,1:2|0:0,0:0:0:0:
31,0,60531,2,0,P|43:45|22:98,1,89.9999972534181,12|0,0:0|0:0,0:0:0:0:
255,254,60891,6,0,B|297:218|342:218|342:218|351:304,1,179.999994506836,4|8,0:0|0:0,0:0:0:0:
434,332,61429,2,0,P|426:290|430:232,1,89.9999972534181,0|0,0:0|1:0,0:0:0:0:
487,94,61789,2,0,P|497:138|496:182,1,89.9999972534181,0|8,1:0|0:0,0:0:0:0:
407,53,62148,6,0,B|340:30|270:100|214:27,1,179.999994506836,0|0,1:0|1:0,0:0:0:0:
147,77,62687,2,0,P|123:114|123:158,1,89.9999972534181,8|0,0:0|0:0,0:0:0:0:
179,229,63046,1,0,1:0:0:0:
232,45,63226,1,0,0:0:0:0:
55,100,63405,1,8,0:0:0:0:
277,156,63585,1,0,0:0:0:0:
103,266,63765,6,0,P|177:314|254:266,1,179.999994506836,4|8,0:0|0:0,0:0:0:0:
329,231,64304,1,0,0:0:0:0:
413,93,64483,2,0,L|408:183,1,89.9999972534181,4|0,0:0|1:0,0:0:0:0:
417,272,64843,1,8,0:0:0:0:
334,131,65022,6,0,B|164:132|164:132|216:194,1,225.000008583069,4|0,0:0|1:0,0:0:0:0:
330,293,65561,6,0,P|372:304|413:288,1,89.9999972534181,8|0,0:0|0:0,0:0:0:0:
254,245,65920,1,2,0:1:0:0:
173,284,66100,1,8,0:0:0:0:
140,290,66190,1,8,0:0:0:0:
107,281,66280,1,8,0:0:0:0:
83,258,66370,1,8,0:0:0:0:
71,227,66459,1,8,0:0:0:0:
75,193,66549,1,8,0:0:0:0:
90,165,66639,6,0,P|140:125|64:105,1,179.999994506836,4|8,0:0|0:0,0:0:0:0:
0,47,67178,1,0,0:0:0:0:
182,117,67358,2,0,P|234:114|300:121,1,89.9999972534181,0|0,1:0|1:0,0:0:0:0:
302,201,67717,1,8,0:0:0:0:
256,24,67897,6,0,B|188:56|136:-8|63:47,1,179.999994506836,4|0,0:0|1:0,0:0:0:0:
10,167,68435,2,0,P|53:156|83:124,1,89.9999972534181,8|0,0:0|0:0,0:0:0:0:
174,115,68795,2,0,P|217:182|174:275,1,179.999994506836,0|8,1:0|0:0,0:0:0:0:
124,195,69334,1,0,0:0:0:0:
259,313,69513,6,0,P|176:358|106:315,1,179.999994506836,4|8,0:0|0:0,0:0:0:0:
44,254,70052,2,0,P|21:292|18:337,1,89.9999972534181,0|0,0:0|1:0,0:0:0:0:
73,165,70411,1,2,0:1:0:0:
108,319,70591,1,8,0:0:0:0:
136,224,70771,6,0,B|207:224|207:224|230:249|230:249|315:250,1,179.999994506836,4|0,0:0|1:0,0:0:0:0:
306,159,71310,2,0,P|317:119|300:74,1,89.9999972534181,8|0,0:0|0:0,0:0:0:0:
193,281,71669,2,0,P|182:328|194:375,1,89.9999972534181,4|0,0:0|0:0,0:0:0:0:
273,327,72028,2,0,B|301:311|322:324|322:324|339:364|408:343,1,134.999995880127,8|0,0:0|0:0,0:0:0:0:
406,344,72388,5,4,0:0:0:0:
361,180,72567,1,0,1:0:0:0:
409,256,72747,1,8,0:0:0:0:
401,100,72926,1,0,1:0:0:0:
497,248,73106,1,8,0:0:0:0:
317,256,73286,1,0,1:0:0:0:
449,176,73465,1,8,0:0:0:0:
275,176,73645,6,0,B|241:176|199:137|199:137|169:176|118:176,1,179.999994506836,4|0,0:0|1:0,0:0:0:0:
57,110,74184,1,8,0:0:0:0:
203,257,74364,1,0,1:0:0:0:
338,110,74543,1,8,0:0:0:0:
118,176,74723,1,0,1:0:0:0:
203,24,74902,1,8,0:0:0:0:
275,176,75082,1,0,0:0:0:0:
57,110,75262,6,0,P|28:168|85:260,1,179.999994506836,4|8,0:0|0:0,0:0:0:0:
144,325,75801,1,0,1:0:0:0:
294,268,75980,2,0,P|253:251|211:264,1,89.9999972534181,8|0,0:0|1:0,0:0:0:0:
82,259,76340,1,8,0:0:0:0:
358,337,76519,6,0,P|388:259|337:185,1,179.999994506836,4|0,0:0|1:0,0:0:0:0:
290,29,77058,2,0,P|331:20|380:29,1,89.9999972534181,8|0,0:0|0:0,0:0:0:0:
258,122,77417,2,0,P|192:136|129:115,2,134.999995880127,4|2|2,0:0|0:1|0:1,0:0:0:0:
46,80,78136,5,4,0:0:0:0:
138,202,78316,1,0,1:0:0:0:
141,27,78495,1,8,0:0:0:0:
46,176,78675,2,0,B|33:253|33:253|45:284|45:284|45:366,1,179.999994506836,4|0,0:0|1:0,0:0:0:0:
196,345,79214,2,0,P|202:290|200:246,1,89.9999972534181,8|0,0:0|0:0,0:0:0:0:
140,98,79573,6,0,P|127:137|128:190,1,89.9999972534181,4|0,0:0|0:0,0:0:0:0:
114,275,79932,1,8,0:0:0:0:
236,111,80112,2,0,P|230:66|213:24,1,89.9999972534181,4|0,0:0|0:0,0:0:0:0:
127,185,80471,1,2,0:0:0:0:
265,195,80651,2,0,L|363:195,1,89.9999972534181,8|0,0:0|0:0,0:0:0:0:
404,266,81010,5,4,0:0:0:0:
331,114,81190,1,0,1:0:0:0:
422,293,81370,1,8,0:0:0:0:
312,85,81549,1,0,1:0:0:0:
444,185,81729,2,0,P|450:146|429:102,1,89.9999972534181,8|0,0:0|1:0,0:0:0:0:
308,216,82088,1,8,0:0:0:0:
100,178,82268,5,4,0:0:0:0:
449,371,82627,1,4,0:0:0:0:
501,15,82986,1,4,0:0:0:0:
462,43,83885,6,0,B|411:57|411:57|353:46|314:52,1,150,4|8,0:0|0:0,0:0:0:0:
217,133,84423,1,0,0:0:0:0:
315,253,84603,2,0,L|340:182,1,75,0|0,1:0|1:0,0:0:0:0:
315,51,84962,1,8,0:0:0:0:
130,128,85142,2,0,P|161:63|233:45,1,150,4|4,0:0|0:0,0:0:0:0:
217,133,85681,6,0,P|221:167|210:231,1,75,8|4,0:0|0:0,0:0:0:0:
118,325,86040,2,0,P|104:289|101:251,1,75,0|8,1:0|0:0,0:0:0:0:
96,230,86310,1,8,0:0:0:0:
97,207,86399,1,8,0:0:0:0:
99,184,86489,1,8,0:0:0:0:
104,162,86579,1,8,0:0:0:0:
217,133,86759,5,4,0:0:0:0:
228,304,86998,2,0,L|270:299,1,37.5,8|8,0:0|0:0,0:0:0:0:
30,356,87298,1,4,0:0:0:0:
256,192,87477,12,0,88914,0:0:0:0:
