osu file format v14

[General]
AudioFilename: Dream.mp3
AudioLeadIn: 0
PreviewTime: 54423
Countdown: 0
SampleSet: Soft
StackLeniency: 0.7
Mode: 0
LetterboxInBreaks: 0
WidescreenStoryboard: 0

[Editor]
DistanceSpacing: 1.2
BeatDivisor: 4
GridSize: 4
TimelineZoom: 1.8

[Metadata]
Title:DREAM SOLISTER (TV Size)
TitleUnicode:DREAM SOLISTER (TV Size)
Artist:TRUE
ArtistUnicode:TRUE
Creator:Maboyu
Version:Hard
Source:響け!ユーフォニアム
Tags:hibike! euphonium opening pop jpop anime op japanese jp miho karasawa yuusuke kato j-pop 唐沢美帆 加藤裕介 Yuii- IamKwaN AliomLoung
BeatmapID:1101837
BeatmapSetID:516277

[Difficulty]
HPDrainRate:5
CircleSize:4
OverallDifficulty:6
ApproachRate:7.5
SliderMultiplier:1.4
SliderTickRate:1

[Events]
//Background and Video events
0,0,"hibikeyoufoni.jpg",0,0
Video,-10,"Video.mp4"
//Break Periods
//Storyboard Layer 0 (Background)
//Storyboard Layer 1 (Fail)
//Storyboard Layer 2 (Pass)
//Storyboard Layer 3 (Foreground)
//Storyboard Layer 4 (Overlay)
//Storyboard Sound Samples

[TimingPoints]
533,359.281437125748,4,2,1,65,1,0
533,-133.333333333333,4,2,1,65,0,0
1970,340.909090909091,4,2,1,65,1,0
1970,-133.333333333333,4,2,1,65,0,0
2651,379.746835443038,4,2,1,65,1,0
2651,-133.333333333333,4,2,1,65,0,0
3410,370.37037037037,4,2,1,65,1,0
3410,-133.333333333333,4,2,1,65,0,0
4150,315.789473684211,4,2,1,65,1,0
4150,-133.333333333333,4,2,1,65,0,0
4307,352.941176470588,4,2,1,65,1,0
4307,-133.333333333333,4,2,1,65,0,0
4842,359.281437125748,4,2,1,65,1,0
4842,-133.333333333333,4,2,1,65,0,0
6279,-133.333333333333,4,2,1,75,0,0
8794,340.909090909091,4,2,1,75,1,0
8794,-133.333333333333,4,2,1,75,0,0
9134,377.358490566038,4,2,1,75,1,0
9134,-133.333333333333,4,2,1,75,0,0
9512,359.281437125748,4,2,1,75,1,0
14003,-200,4,2,1,60,0,0
14901,-133.333333333333,4,2,1,60,0,0
26019,359.281437125748,4,2,1,60,1,0
26019,-133.333333333333,4,2,1,60,0,0
26400,359.281437125748,4,2,1,60,1,0
26400,-100,4,2,1,60,0,0
36818,-200,4,2,1,60,0,0
36819,-200,4,2,1,40,0,0
46519,-133.333333333333,4,2,1,70,0,0
49394,-100,4,2,1,75,0,0
54783,-100,4,2,1,80,0,1
82268,-100,4,2,1,60,0,0
88914,-100,4,2,1,30,0,0

[Colours]
Combo1 : 213,0,0
Combo2 : 238,106,166
Combo3 : 172,89,89
Combo4 : 77,0,153
Combo5 : 0,206,0

[HitObjects]
94,202,533,6,0,P|145:130|58:115,1,210.000008010865,4|2,0:0|0:1,0:0:0:0:
100,232,1431,2,0,P|98:267|106:297,1,52.5000020027161,8|8,0:0|3:0,0:0:0:0:
178,303,1790,6,0,P|249:299|299:296,1,102.8,4|0,0:0|0:0,0:0:0:0:
367,287,2310,2,0,L|350:337,1,52.5000020027161,8|0,0:0|1:0,0:0:0:0:
442,263,2651,2,0,L|428:195,1,52.5000020027161,8|0,3:0|0:0,0:0:0:0:
379,139,3030,1,8,0:0:0:0:
379,139,3125,1,8,0:0:0:0:
379,139,3220,1,8,0:0:0:0:
457,129,3410,6,0,P|402:66|360:60,1,105.000004005432,4|0,0:0|0:0,0:0:0:0:
307,48,3965,2,0,L|309:113,1,52.5000020027161,2|2,0:1|0:1,0:0:0:0:
284,174,4307,1,8,3:0:0:0:
212,141,4483,1,8,3:0:0:0:
231,65,4659,6,0,P|155:43|110:40,1,107.6,4|0,0:0|1:0,0:0:0:0:
51,54,5201,1,8,0:0:0:0:
67,131,5380,2,0,L|7:152,2,52.5000020027161,0|8|0,1:0|0:0|1:0,0:0:0:0:
87,207,5919,2,0,L|81:254,3,26.2500010013581,8|8|8|8,0:0|0:0|0:0|0:0,0:0:0:0:
85,272,6279,6,0,P|126:328|179:343,1,105.000004005432,4|8,0:0|0:0,0:0:0:0:
314,334,6997,1,4,0:0:0:0:
224,201,7356,2,0,L|228:159,3,26.2500010013581,8|8|8|8,0:0|0:0|0:0|0:0,0:0:0:0:
231,135,7716,6,0,P|214:99|143:79,2,105.000004005432,4|4|4,0:0|0:0|0:0,0:0:0:0:
295,181,8614,1,8,0:0:0:0:
295,181,8704,1,8,0:0:0:0:
295,181,8794,2,0,L|287:227,3,26.2500010013581,12|8|8|8,0:0|0:0|0:0|0:0,0:0:0:0:
275,238,9134,6,0,P|197:229|168:252,1,105.000004005432,4|8,0:0|0:0,0:0:0:0:
175,325,9692,1,2,0:1:0:0:
259,330,9871,2,0,P|311:375|370:351,1,140,0|8,1:0|0:0,0:0:0:0:
435,297,10410,2,0,P|429:240|451:145,1,140,4|2,1:2|0:1,0:0:0:0:
492,89,10949,5,8,0:0:0:0:
409,78,11128,2,0,L|413:-2,2,70,2|0|2,0:1|1:0|0:1,0:0:0:0:
332,42,11668,1,8,0:0:0:0:
274,105,11847,1,2,0:1:0:0:
274,105,11937,1,2,0:1:0:0:
274,105,12027,6,0,P|204:97|134:100,1,140,4|8,1:2|0:0,0:0:0:0:
14,170,12566,2,0,P|49:171|84:166,1,70,2|0,0:1|1:0,0:0:0:0:
129,237,12925,2,0,P|120:294|127:323,1,70,8|8,3:0|0:0,0:0:0:0:
206,308,13285,2,0,P|273:282|271:220,1,140,4|8,0:0|3:0,0:0:0:0:
256,139,13824,1,8,0:0:0:0:
336,162,14003,6,0,P|362:226|352:306,1,140,4|0,0:0|0:0,0:0:0:0:
418,343,14901,1,4,0:0:0:0:
418,343,15261,6,0,B|473:353|473:353|499:336|499:299,1,105.000004005432,0|0,1:0|1:0,0:0:0:0:
469,239,15800,1,0,0:0:0:0:
471,160,15979,2,0,L|402:140,1,52.5000020027161,0|0,1:0|0:0,0:0:0:0:
397,220,16339,6,0,L|274:230,1,105.000004005432,0|0,1:0|1:0,0:0:0:0:
213,235,16877,2,0,P|208:188|213:168,1,52.5000020027161,0|0,0:0|1:0,0:0:0:0:
254,118,17237,2,0,L|304:130,2,52.5000020027161,8|0|8,3:0|1:0|3:0,0:0:0:0:
175,113,17776,6,0,P|158:68|187:18,1,105.000004005432,0|0,1:0|1:0,0:0:0:0:
263,22,18315,1,0,0:0:0:0:
336,49,18494,2,0,P|368:47|388:37,1,52.5000020027161,0|0,1:0|0:0,0:0:0:0:
464,33,18853,2,0,P|478:88|476:107,1,52.5000020027161,0|0,1:0|0:0,0:0:0:0:
508,155,19213,1,0,1:0:0:0:
429,152,19392,5,2,0:1:0:0:
429,152,19482,1,2,0:1:0:0:
429,152,19572,1,0,1:0:0:0:
355,123,19752,2,0,P|324:125|286:117,1,52.5000020027161,8|0,3:0|1:0,0:0:0:0:
240,73,20111,2,0,L|205:24,2,52.5000020027161,8|0|8,3:0|1:0|3:0,0:0:0:0:
228,151,20650,6,0,P|208:217|219:267,1,105.000004005432,0|0,1:0|1:0,0:0:0:0:
283,287,21189,1,0,0:0:0:0:
228,344,21368,2,0,P|188:334|157:336,1,52.5000020027161,0|0,1:0|0:0,0:0:0:0:
98,330,21728,2,0,P|88:295|90:260,1,52.5000020027161,0|0,1:0|0:0,0:0:0:0:
161,251,22087,6,0,P|164:198|157:146,1,105.000004005432,0|0,1:0|1:0,0:0:0:0:
89,106,22626,2,0,P|56:111|19:101,2,52.5000020027161,8|0|8,3:0|1:0|3:0,0:0:0:0:
159,70,23165,2,0,P|207:71|233:67,1,52.5000020027161,0|8,1:0|3:0,0:0:0:0:
280,31,23524,6,0,P|275:83|283:138,1,105.000004005432,4|0,0:0|1:0,0:0:0:0:
270,212,24063,1,0,0:0:0:0:
348,205,24243,2,0,L|408:200,2,52.5000020027161,0|0|0,1:0|0:0|1:0,0:0:0:0:
351,283,24782,1,8,3:0:0:0:
351,283,24871,1,8,3:0:0:0:
351,283,24961,6,0,L|283:285,1,52.5000020027161,8|8,3:0|3:0,0:0:0:0:
228,247,25321,2,0,L|215:304,2,52.5000020027161,0|8|0,1:0|3:0|1:0,0:0:0:0:
294,204,25859,1,8,3:0:0:0:
225,164,26019,2,0,P|197:160|169:147,1,52.5000020027161,4|0,0:0|0:0,0:0:0:0:
158,68,26400,6,0,L|128:204,1,140,4|8,0:0|0:0,0:0:0:0:
52,240,26938,1,0,0:0:0:0:
112,296,27118,2,0,P|103:341|79:373,2,70,0|0|8,1:0|1:0|0:0,0:0:0:0:
192,268,27657,6,0,B|240:256|240:256|284:280|348:268,1,140,4|0,0:0|1:0,0:0:0:0:
408,300,28196,1,8,0:0:0:0:
483,260,28376,2,0,P|480:225|493:193,1,70,0|0,0:0|1:0,0:0:0:0:
469,112,28735,1,0,1:0:0:0:
403,162,28914,2,0,P|365:157|314:138,1,70,8|0,0:0|0:0,0:0:0:0:
176,80,29274,6,0,P|248:72|316:68,1,140,0|8,1:0|0:0,0:0:0:0:
396,90,29813,1,0,0:0:0:0:
335,148,29992,2,0,L|323:230,1,70,0|0,1:0|1:0,0:0:0:0:
342,299,30352,1,8,0:0:0:0:
262,274,30531,6,0,P|226:234|218:125,1,140,4|0,0:0|1:0,0:0:0:0:
277,99,31070,1,8,0:0:0:0:
202,60,31250,1,0,0:0:0:0:
141,119,31429,2,0,B|93:109|93:109|59:118,1,70,0|0,1:0|1:0,0:0:0:0:
39,191,31789,2,0,B|87:201|87:201|107:195,1,70,8|2,0:0|0:1,0:0:0:0:
193,331,32148,6,0,P|179:263|191:195,1,140,4|8,1:2|0:0,0:0:0:0:
270,165,32687,1,0,0:0:0:0:
325,228,32867,2,0,P|380:211|403:186,1,70,0|0,1:0|1:0,0:0:0:0:
434,133,33226,1,8,0:0:0:0:
395,57,33405,6,0,B|348:56|313:29|313:29|232:56,1,140,0|0,1:0|1:0,0:0:0:0:
180,44,33944,1,8,0:0:0:0:
180,44,34304,2,0,P|142:39|101:45,2,70,0|0|8,1:0|1:0|0:0,0:0:0:0:
176,128,34843,1,0,0:0:0:0:
250,248,35022,6,0,P|270:182|262:113,2,140,4|8|0,0:0|0:0|1:0,0:0:0:0:
168,228,35920,2,0,P|158:262|159:297,1,70,0|8,1:0|0:0,0:0:0:0:
232,339,36280,2,0,L|386:350,1,140,4|4,0:0|0:0,0:0:0:0:
455,347,36819,6,0,B|488:340|488:340|472:294|485:222,1,140,4|2,0:0|0:0,0:0:0:0:
207,125,37897,6,0,P|108:124|99:119,2,105,4|0|8,1:2|1:0|0:0,0:0:0:0:
336,39,39334,1,0,1:0:0:0:
363,111,39513,2,0,L|410:110,1,35,2|2,0:1|0:1,0:0:0:0:
387,186,39873,2,0,L|427:183,1,35,8|2,3:0|0:1,0:0:0:0:
270,153,40411,1,8,0:0:0:0:
325,296,40771,6,0,P|375:309|426:298,2,105,4|0|8,1:2|1:0|0:0,0:0:0:0:
177,341,42208,1,0,1:0:0:0:
150,269,42388,2,0,L|115:269,1,35,2|2,0:1|0:1,0:0:0:0:
126,194,42747,2,0,L|91:196,1,35,0|0,1:0|0:0,0:0:0:0:
242,231,43286,1,8,0:0:0:0:
255,49,43645,6,0,P|198:45|150:52,2,105,4|0|8,0:0|1:0|0:0,0:0:0:0:
268,202,45082,2,0,L|278:241,1,35,2|0,0:1|0:0,0:0:0:0:
344,198,45441,1,2,0:1:0:0:
344,198,45621,2,0,L|371:239,1,35,2|2,0:1|0:1,0:0:0:0:
413,170,45980,2,0,L|446:192,1,35,2|8,0:1|0:0,0:0:0:0:
307,107,46519,6,0,B|291:174|291:174|232:135|183:178|139:145,1,210.000008010865,4|0,0:0|1:0,0:0:0:0:
91,105,47417,1,0,0:0:0:0:
53,174,47597,2,0,L|46:246,1,52.5000020027161,8|0,0:0|0:0,0:0:0:0:
110,275,47956,6,0,P|152:249|217:267,1,105.000004005432,0|8,1:0|0:0,0:0:0:0:
252,320,48495,1,8,0:0:0:0:
205,258,48675,2,0,L|194:201,1,52.5000020027161,0|0,1:0|0:0,0:0:0:0:
146,130,49034,2,0,L|121:176,1,52.5000020027161,8|0,0:0|0:0,0:0:0:0:
216,80,49394,6,0,P|280:112|328:56,1,140,4|0,0:0|1:0,0:0:0:0:
404,40,49932,1,2,0:1:0:0:
444,116,50112,2,0,P|452:192|440:272,1,140,0|8,1:0|0:0,0:0:0:0:
360,268,50651,2,0,P|326:259|288:268,1,70,4|0,0:0|0:0,0:0:0:0:
212,288,51010,5,4,0:0:0:0:
133,317,51190,1,2,0:1:0:0:
185,210,51370,2,0,P|234:134|274:91,1,140,4|2,0:0|0:1,0:0:0:0:
340,140,51908,2,0,P|333:174|338:208,1,70,4|0,0:0|0:0,0:0:0:0:
418,293,52268,6,0,P|424:258|420:224,1,70,4|2,0:0|0:1,0:0:0:0:
340,140,52627,2,0,P|298:139|244:148,1,70,8|0,0:0|1:0,0:0:0:0:
208,200,52986,2,0,L|181:283,2,70,4|0|8,0:0|1:0|0:0,0:0:0:0:
168,128,53525,2,0,P|117:124|132:51,1,140,4|12,0:0|3:0,0:0:0:0:
270,142,54064,1,12,3:0:0:0:
299,358,54783,5,8,0:0:0:0:
299,358,55142,6,0,P|317:273|264:224,1,140,4|8,0:0|0:0,0:0:0:0:
287,235,55861,1,0,1:0:0:0:
209,266,56040,2,0,P|146:271|115:258,1,70,0|8,1:0|0:0,0:0:0:0:
70,222,56399,6,0,P|102:168|43:117,1,140,4|0,0:0|1:0,0:0:0:0:
30,36,56938,1,8,0:0:0:0:
56,117,57118,1,0,0:0:0:0:
115,56,57298,2,0,P|157:51|192:53,1,70,0|0,1:0|1:0,0:0:0:0:
180,136,57657,2,0,P|217:136|270:128,1,70,8|0,0:0|0:0,0:0:0:0:
275,51,58016,5,0,1:0:0:0:
334,110,58196,1,2,0:1:0:0:
394,51,58376,1,8,0:0:0:0:
456,106,58555,1,2,0:1:0:0:
392,235,58735,2,0,P|390:200|397:165,2,70,4|0|8,0:0|1:0|0:0,0:0:0:0:
444,301,59274,6,0,P|377:268|299:257,1,140,4|4,0:0|0:0,0:0:0:0:
276,332,59813,2,0,P|221:355|180:345,1,70,8|0,0:0|0:0,0:0:0:0:
152,288,60172,2,0,L|220:270,1,70,4|0,1:2|0:0,0:0:0:0:
261,196,60531,2,0,L|191:189,1,70,12|0,0:0|0:0,0:0:0:0:
112,219,60891,6,0,P|74:147|105:87,1,140,4|8,0:0|0:0,0:0:0:0:
178,91,61429,2,0,P|219:88|250:67,1,70,0|0,0:0|1:0,0:0:0:0:
320,106,61789,1,0,1:0:0:0:
320,106,61968,1,8,0:0:0:0:
404,109,62148,6,0,P|428:182|426:244,1,140,0|0,0:0|1:0,0:0:0:0:
341,251,62687,2,0,B|288:246|249:256,1,70,8|0,0:0|0:0,0:0:0:0:
229,324,63046,2,0,B|282:329|299:325,1,70,0|0,1:0|0:0,0:0:0:0:
379,351,63405,2,0,P|420:335|468:346,1,70,8|0,0:0|0:0,0:0:0:0:
489,264,63765,6,0,P|467:208|498:125,1,140,4|8,0:0|0:0,0:0:0:0:
497,50,64304,1,0,0:0:0:0:
419,82,64483,2,0,P|376:102|328:100,1,70,4|0,0:0|1:0,0:0:0:0:
275,74,64843,1,8,0:0:0:0:
311,176,65022,6,0,B|306:230|306:230|325:274|308:334,1,140,4|0,0:0|1:0,0:0:0:0:
235,346,65561,2,0,P|231:302|246:258,1,70,8|0,0:0|0:0,0:0:0:0:
226,193,65920,1,2,0:1:0:0:
143,176,66100,1,8,0:0:0:0:
97,246,66280,2,0,B|57:240,3,35,8|8|8|8,0:0|0:0|0:0|0:0,0:0:0:0:
33,221,66639,6,0,P|44:153|21:72,1,140,4|8,0:0|0:0,0:0:0:0:
27,84,67358,1,0,1:0:0:0:
108,64,67537,2,0,L|176:55,1,70,0|8,1:0|0:0,0:0:0:0:
219,129,67897,6,0,P|220:50|287:48,1,140,4|0,0:0|1:0,0:0:0:0:
385,116,68435,2,0,P|350:122|320:106,1,70,8|0,0:0|0:0,0:0:0:0:
286,184,68795,2,0,L|286:268,2,70,0|0|8,1:0|1:0|0:0,0:0:0:0:
320,107,69334,1,0,0:0:0:0:
286,184,69513,6,0,P|202:176|130:184,1,140,4|8,0:0|0:0,0:0:0:0:
94,244,70052,1,0,0:0:0:0:
62,168,70232,1,0,1:0:0:0:
114,104,70411,2,0,P|108:69|115:35,1,70,2|8,0:1|0:0,0:0:0:0:
147,181,70771,6,0,P|175:241|123:325,1,140,4|0,0:0|1:0,0:0:0:0:
66,306,71310,2,0,P|73:272|94:243,1,70,8|0,0:0|0:0,0:0:0:0:
150,307,71669,2,0,B|236:293|305:316,2,140,4|8|4,0:0|0:0|0:0,0:0:0:0:
93,243,72567,5,0,1:0:0:0:
149,177,72747,1,8,0:0:0:0:
67,162,72926,1,0,1:0:0:0:
119,97,73106,2,0,P|154:93|187:103,2,70,8|0|8,0:0|1:0|0:0,0:0:0:0:
229,176,73645,6,0,P|270:115|251:52,1,140,4|0,0:0|1:0,0:0:0:0:
335,35,74184,1,8,0:0:0:0:
388,100,74364,1,0,1:0:0:0:
440,34,74543,1,8,0:0:0:0:
480,108,74723,1,0,1:0:0:0:
388,100,74902,2,0,P|383:143|394:181,1,70,8|0,0:0|0:0,0:0:0:0:
452,223,75262,6,0,P|396:204|309:219,1,140,4|8,0:0|0:0,0:0:0:0:
234,232,75801,2,0,P|227:266|251:315,2,70,0|8|0,1:0|0:0|1:0,0:0:0:0:
130,151,76340,1,8,0:0:0:0:
214,150,76519,6,0,P|305:126|378:115,1,140,4|0,0:0|1:0,0:0:0:0:
433,122,77058,2,0,P|444:144|472:181,1,70,8|0,0:0|0:0,0:0:0:0:
394,218,77417,2,0,P|342:220|292:234,2,105,4|2|2,0:0|0:1|0:1,0:0:0:0:
420,300,78136,5,4,0:0:0:0:
484,245,78316,1,0,1:0:0:0:
481,160,78495,1,8,0:0:0:0:
403,130,78675,2,0,P|350:140|293:84,1,140,4|0,0:0|1:0,0:0:0:0:
217,46,79214,2,0,L|209:140,1,70,8|0,0:0|0:0,0:0:0:0:
146,169,79573,5,4,0:0:0:0:
201,231,79753,2,0,P|255:198|279:198,1,70,0|8,0:0|0:0,0:0:0:0:
342,179,80112,2,0,P|362:253|361:319,1,140,4|2,0:0|0:0,0:0:0:0:
282,345,80651,2,0,P|248:334|194:343,1,70,8|0,0:0|0:0,0:0:0:0:
131,315,81010,6,0,P|108:360|107:391,2,70,4|0|8,0:0|1:0|0:0,0:0:0:0:
94,239,81549,1,0,1:0:0:0:
142,170,81729,2,0,P|175:164|215:128,1,70,8|0,0:0|1:0,0:0:0:0:
273,95,82088,1,8,0:0:0:0:
343,49,82268,6,0,B|391:59|432:28|507:56,1,140,4|4,0:0|0:0,0:0:0:0:
482,48,82986,1,4,0:0:0:0:
205,314,83885,6,0,P|160:266|109:303,1,140,4|8,0:0|0:0,0:0:0:0:
37,348,84423,1,0,0:0:0:0:
35,264,84603,2,0,P|32:227|44:192,2,70,0|0|8,1:0|1:0|0:0,0:0:0:0:
110,303,85142,6,0,B|168:284|213:314|263:287,1,140,4|4,0:0|0:0,0:0:0:0:
255,210,85681,1,8,0:0:0:0:
339,208,85861,2,0,P|356:241|359:278,1,70,4|0,0:0|1:0,0:0:0:0:
338,354,86220,2,0,L|376:357,4,35,8|8|8|8|8,0:0|0:0|0:0|0:0|0:0,0:0:0:0:
258,326,86759,5,4,0:0:0:0:
169,213,86938,2,0,L|116:220,2,35,8|8|8,0:0|0:0|0:0,0:0:0:0:
256,98,87298,1,4,0:0:0:0:
256,192,87477,12,0,88914,0:0:0:0:
